Subcategories

Discordia - Utopia Perfection (2007) **[RE-UP]**

Posted By: TestTickles
Discordia - Utopia Perfection (2007) **[RE-UP]**

Discordia - Utopia Perfection (2007)
EAC Rip | FLAC with CUE and log | scans | 336 mb
MP3 CBR 320kbps | RAR | 135 mb
Genre: progressive rock

Utopia Perfection is the 2007 CD by Discordia, a progressive rock band from Finland. This was their debut recording.
Utopia Perfection is a very interesting and enjoyable prog/pop/rock album from Finnish band Discordia. Considering this is their debut release, the band sounds very tight and focused here, as they mix strong female and male vocals, airy keyboards, rock guitar, violin, and intricate rhythms. While you can hear a little bit of Fish era Marillion, Renaissance, Gentle Giant, and Yes in their music, I can't say that they aren't trying to come up with their own sound here on Utopia Perfection, which is always good to see in a young prog band these days.

For the most part, the 11 songs here are quite upbeat and quirky, occasionally verring off into a rocking, avant-garde quality, like on the excellent and offbeat "The Group", which features layers of vocals, complex violin/guitar tradeoffs, and all-around zany Zappa-ish feel. A few of the tunes have some pop appeal and are quite catchy, like "Foreseen" and "Mystery Man", but for the most part, this is intricate prog rock all the way. "Interlude" features some lovely female vocals over aggressive riffs and complex drum & bass work, and "The Comment Of The Wise" is a real powerful instrumental that borders on prog metal, with lots of crunchy guitar and commanding keyboards. If a prog band ever wanted to poke fun at the power metal genre, then "Mighty Power Of Metal" would be the end result, a very fun tune with devilish male vocals, speedy drum work, and complex guitar lines.

There's good stuff at every juncture on Utopia Perfection. Finland's just produced another solid prog band folks, and my guess is we shall be hearing more from Discordia in the months and years to come.

Discordia - Utopia Perfection (2007) **[RE-UP]**

01. Foreseen
02. Mystery Man
03. Speak Directly
04. As Above So Below
05. The Group
06. Interlude
07. Slave Planet I
08. Slave Planet II
09. The Comment Of The Wise
10. Mighty Power Of Metal
11. Giant Dwarf
–-
Riikka Hänninen-vocals, tin whistle
Tero Väänänen-vocals, bass clarinet, Bechstein grand piano (track 5), vibraphone (track 8)
Liisa Lipas-keyboards, violin, santur
Antti Tolkki-guitars
Petri Sallinen-bass
Otto Mäkela-drums

Kari Ahokas-keyboards (tracks 5, 7 & 10)


All arrangements by Discordia
Produced by Discordia
Recorded by Harri Kentala
Mixed by Seppo Santala

EAC extraction logfile from 28. August 2007, 6:54 for CD
Discordia / Utopia Perfection

Used drive : LITE-ON DVDRW SOHW-1633S Adapter: 0 ID: 0
Read mode : Secure with NO C2, accurate stream, disable cache
Read offset correction : 12
Overread into Lead-In and Lead-Out : No

Used output format : Internal WAV Routines
44.100 Hz; 16 Bit; Stereo

Other options :
Fill up missing offset samples with silence : Yes
Delete leading and trailing silent blocks : No
Installed external ASPI interface


Track 1
Filename D:\FLAC\Discordia - Utopia Perfection (2007) [FLAC]\01 - Foreseen.wav

Pre-gap length 0:00:02.00

Peak level 96.6 %
Track quality 100.0 %
Test CRC 92A452FF
Copy CRC 92A452FF
Copy OK

Track 2
Filename D:\FLAC\Discordia - Utopia Perfection (2007) [FLAC]\02 - Mystery Man.wav

Pre-gap length 0:00:02.12

Peak level 96.6 %
Track quality 100.0 %
Test CRC 9A7BB286
Copy CRC 9A7BB286
Copy OK

Track 3
Filename D:\FLAC\Discordia - Utopia Perfection (2007) [FLAC]\03 - Speak Directly.wav

Pre-gap length 0:00:03.01

Peak level 96.6 %
Track quality 100.0 %
Test CRC 53BCD4E2
Copy CRC 53BCD4E2
Copy OK

Track 4
Filename D:\FLAC\Discordia - Utopia Perfection (2007) [FLAC]\04 - As Above So Below.wav

Pre-gap length 0:00:02.06

Peak level 96.6 %
Track quality 100.0 %
Test CRC D70A1EC4
Copy CRC D70A1EC4
Copy OK

Track 5
Filename D:\FLAC\Discordia - Utopia Perfection (2007) [FLAC]\05 - The Group.wav

Pre-gap length 0:00:03.22

Peak level 97.6 %
Track quality 100.0 %
Test CRC 21F6C62A
Copy CRC 21F6C62A
Copy OK

Track 6
Filename D:\FLAC\Discordia - Utopia Perfection (2007) [FLAC]\06 - Interlude.wav

Pre-gap length 0:00:01.73

Peak level 97.5 %
Track quality 100.0 %
Test CRC 2D5028B1
Copy CRC 2D5028B1
Copy OK

Track 7
Filename D:\FLAC\Discordia - Utopia Perfection (2007) [FLAC]\07 - Slave Planet I.wav

Pre-gap length 0:00:01.96

Peak level 96.6 %
Track quality 99.9 %
Test CRC 97F52BE6
Copy CRC 97F52BE6
Copy OK

Track 8
Filename D:\FLAC\Discordia - Utopia Perfection (2007) [FLAC]\08 - Slave Planet II.wav

Pre-gap length 0:00:02.86

Peak level 96.6 %
Track quality 100.0 %
Test CRC A75A20F0
Copy CRC A75A20F0
Copy OK

Track 9
Filename D:\FLAC\Discordia - Utopia Perfection (2007) [FLAC]\09 - The Comment Of The Wise.wav

Pre-gap length 0:00:01.78

Peak level 96.6 %
Track quality 100.0 %
Test CRC C650B420
Copy CRC C650B420
Copy OK

Track 10
Filename D:\FLAC\Discordia - Utopia Perfection (2007) [FLAC]\10 - Mighty Power Of Metal.wav

Pre-gap length 0:00:01.84

Peak level 96.6 %
Track quality 100.0 %
Test CRC BCF5CC3E
Copy CRC BCF5CC3E
Copy OK

Track 11
Filename D:\FLAC\Discordia - Utopia Perfection (2007) [FLAC]\11 - Giant Dwarf.wav

Pre-gap length 0:00:02.32

Peak level 96.6 %
Track quality 100.0 %
Test CRC C0374D02
Copy CRC C0374D02
Copy OK

No errors occured


End of status report


Discordia - Utopia Perfection (2007) **[RE-UP]**