Tags
Language
Tags

Don McLean - Rearview Mirror: An American Musical Journey (2005) CD

Posted By: Designol
Don McLean - Rearview Mirror: An American Musical Journey (2005) CD

Don McLean - Rearview Mirror: An American Musical Journey (2005) CD
EAC | FLAC | Image (Cue&Log) ~ 474 Mb | Mp3 (CBR320) ~ 176 Mb
Label: Hyena Records | # HYN 9342 | Time: 01:17:05 | Scans ~ 69 Mb
Singer/Songwriter, Folk-Rock, Folk, Soft Rock, AM Pop, Country

Producer and record executive Joel Dorn (who worked with Don McLean previously on his 1974 album Homeless Brother) assembled this retrospective CD/DVD collection by going through McLean's archives. Although no indication is given of the sources of the material, a majority of it has been previously released, starting with the original hit recording of "American Pie," licensed from EMI Special Products. The rest of the collection dates from after 1976, when McLean, for the most part, controlled his own recordings, and there is a heavy complement from albums issued on his own Don McLean Records label, notably "Vincent (Starry, Starry Night)," "Crying," "Homeless Brother," and "And I Love You So" (the last a duet with Nanci Griffith) from the live Starry Starry Night album; "El Paso" from Don McLean Sings Marty Robbins; "My Saddle Pals and I" from The Western Album; and "You've Got to Share" from You've Got to Share: Songs for Children. Previously unreleased tracks include McLean versions of the standards "Love Me Tender," "(It Was) A Very Good Year," and "TB Blues," and a McLean original, the Rolling Stones-like "Run, Diana Run." Neither a greatest-hits collection nor a best-of, exactly, the album is an idiosyncratic compilation that nevertheless gives a good sense of McLean's accomplishments as a songwriter and an interpretive singer. (Equally idiosyncratic are Dorn's liner notes, which are more about him than they are about McLean.) The DVD contains a 20-minute home movie of a rehearsal by McLean and the Jordanaires for McLean's 1984 Carnegie Hall holiday concert; the 1991 music video for the politically charged rocker "Headroom"; and the duet with Griffith on "And I Love You So" from the 2000 home video Starry Starry Night.

Review by William Ruhlmann, Allmusic.com

Don McLean at Allmusic
Don McLean Website
Don McLean at Wiki

Tracklist:

01. If You Could Read My Mind (4:27)
02. Vincent (Starry, Starry Night) (4:36)
03. Wonderful Baby (2:16)
04. Love Me Tender (3:03)
05. (It Was) A Very Good Year (3:25)
06. El Paso (5:29)
07. My Saddle Pals and I (1:40)
08. And I Love You So (5:17)
09. Crying (4:09)
10. Empty Chairs (4:11)
11. Homeless Brother (4:41)
12. TB Blues (4:04)
13. Magdalene Lane (4:27)
14. Infinity (4:42)
15. Prime Time (4:25)
16. American Pie (8:30)
17. Run, Diana Run (5:45)
18. You've Got To Share (2:05)


Exact Audio Copy V0.99 prebeta 5 from 4. May 2009

Отчёт EAC об извлечении, выполненном 24. августа 2010, 20:00

Don McLean / Rearview Mirror

Дисковод: PIONEER DVD-RW DVR-112D Adapter: 2 ID: 0

Режим чтения : Достоверность
Использование точного потока : Да
Отключение кэша аудио : Да
Использование указателей C2 : Нет

Коррекция смещения при чтении : 48
Способность читать области Lead-in и Lead-out : Нет
Заполнение пропущенных сэмплов тишиной : Да
Удаление блоков с тишиной в начале и конце : Нет
При вычислениях CRC использовались нулевые сэмплы : Да
Интерфейс : Встроенный Win32-интерфейс для Win NT/2000

Выходной формат : Пользовательский кодировщик
Выбранный битрейт : 768 kBit/s
Качество : Высокий
Добавление ID3-тэга : Нет
Утилита сжатия : C:\Program Files\Exact Audio Copy\FLAC\FLAC.EXE
Дополнительные параметры : -6 -V -T "ARTIST=%a" -T "TITLE=%t" -T "ALBUM=%g" -T "DATE=%y" -T "TRACKNUMBER=%n" -T "GENRE=%m" -T "COMMENT=%e" %s -o %d


TOC извлечённого CD

Трек | Старт | Длительность | Начальный сектор | Конечный сектор
––––––––––––––––––––––––––––––––––-
1 | 0:00.00 | 4:26.27 | 0 | 19976
2 | 4:26.27 | 4:35.55 | 19977 | 40656
3 | 9:02.07 | 2:15.20 | 40657 | 50801
4 | 11:17.27 | 3:02.08 | 50802 | 64459
5 | 14:19.35 | 3:24.60 | 64460 | 79819
6 | 17:44.20 | 5:28.30 | 79820 | 104449
7 | 23:12.50 | 1:39.62 | 104450 | 111936
8 | 24:52.37 | 5:16.58 | 111937 | 135694
9 | 30:09.20 | 4:08.22 | 135695 | 154316
10 | 34:17.42 | 4:10.58 | 154317 | 173124
11 | 38:28.25 | 4:40.72 | 173125 | 194196
12 | 43:09.22 | 4:03.53 | 194197 | 212474
13 | 47:13.00 | 4:26.15 | 212475 | 232439
14 | 51:39.15 | 4:41.52 | 232440 | 253566
15 | 56:20.67 | 4:24.60 | 253567 | 273426
16 | 60:45.52 | 8:29.08 | 273427 | 311609
17 | 69:14.60 | 5:44.70 | 311610 | 337479
18 | 74:59.55 | 2:04.25 | 337480 | 346804


Характеристики диапазона извлечения и сообщения об ошибках

Выбранный диапазон

Имя файла D:\TORRENT_OUT\Don McLean - Rearview Mirror -2005\Don McLean - Rearview Mirror.wav

Пиковый уровень 100.0 %
Качество диапазона 100.0 %
CRC теста 26CB8711
CRC копии 26CB8711
Копирование… OK

Ошибок не произошло


AccurateRip: сводка

Трек 1 точное извлечение (доверие 5) [C6A4AA0C]
Трек 2 точное извлечение (доверие 5) [06D90DC4]
Трек 3 точное извлечение (доверие 5) [50FFCC27]
Трек 4 точное извлечение (доверие 6) [6518D3E6]
Трек 5 точное извлечение (доверие 6) [433B977F]
Трек 6 точное извлечение (доверие 6) [1EC47BF4]
Трек 7 точное извлечение (доверие 5) [B4A7F922]
Трек 8 точное извлечение (доверие 5) [797F3C66]
Трек 9 точное извлечение (доверие 5) [6DEDE8C4]
Трек 10 точное извлечение (доверие 5) [1F8EF789]
Трек 11 точное извлечение (доверие 5) [7D367D6A]
Трек 12 точное извлечение (доверие 5) [83CBE39D]
Трек 13 точное извлечение (доверие 5) [74FEFB13]
Трек 14 точное извлечение (доверие 4) [4DA8F4C5]
Трек 15 точное извлечение (доверие 5) [D396CF1E]
Трек 16 точное извлечение (доверие 6) [815B43AC]
Трек 17 точное извлечение (доверие 5) [DA5288D9]
Трек 18 точное извлечение (доверие 5) [E0B3A88F]

Все треки извлечены точно

Конец отчёта

[CUETools log; Date: 17.07.2021 17:56:21; Version: 2.1.7]
[CTDB TOCID: 0nlZnW2KI.saJcFKB5KJUuF7dI8-] found.
Track | CTDB Status
1 | (9/9) Accurately ripped
2 | (9/9) Accurately ripped
3 | (9/9) Accurately ripped
4 | (9/9) Accurately ripped
5 | (9/9) Accurately ripped
6 | (9/9) Accurately ripped
7 | (8/9) Accurately ripped
8 | (9/9) Accurately ripped
9 | (9/9) Accurately ripped
10 | (9/9) Accurately ripped
11 | (9/9) Accurately ripped
12 | (9/9) Accurately ripped
13 | (9/9) Accurately ripped
14 | (9/9) Accurately ripped
15 | (9/9) Accurately ripped
16 | (9/9) Accurately ripped
17 | (9/9) Accurately ripped
18 | (8/9) Accurately ripped
[AccurateRip ID: 002f4299-028013ed-fb121012] found.
Track [ CRC | V2 ] Status
01 [c6a4aa0c|1a269367] (10+10/20) Accurately ripped
02 [06d90dc4|bbbc2c46] (10+10/20) Accurately ripped
03 [50ffcc27|018f4755] (10+10/20) Accurately ripped
04 [6518d3e6|58d2bcbc] (11+10/21) Accurately ripped
05 [433b977f|7cd7c925] (11+10/21) Accurately ripped
06 [1ec47bf4|cea29f0f] (11+10/21) Accurately ripped
07 [b4a7f922|7950ea2e] (10+10/20) Accurately ripped
08 [797f3c66|3920b5a4] (10+09/19) Accurately ripped
09 [6dede8c4|8ae3474a] (10+10/20) Accurately ripped
10 [1f8ef789|a371705f] (10+10/20) Accurately ripped
11 [7d367d6a|27fc2f40] (10+10/20) Accurately ripped
12 [83cbe39d|76f08b53] (10+10/20) Accurately ripped
13 [74fefb13|5edceed7] (10+10/20) Accurately ripped
14 [4da8f4c5|2addab03] (09+09/18) Accurately ripped
15 [d396cf1e|ce4eb1ac] (10+09/19) Accurately ripped
16 [815b43ac|16b707a6] (11+09/20) Accurately ripped
17 [da5288d9|64da0f1f] (10+09/19) Accurately ripped
18 [e0b3a88f|82d1764e] (10+08/18) Accurately ripped

Track Peak [ CRC32 ] [W/O NULL] [ LOG ]
– 100,0 [26CB8711] [867C14DF] CRC32
01 94,1 [1DA6D73C] [070F26AC]
02 99,6 [71C37A72] [6BB77487]
03 87,9 [244EBB34] [0173E22D]
04 99,6 [F8AA4DE1] [023AC9F8]
05 99,5 [F998019D] [499D29BC]
06 94,0 [3B11D171] [ADBF6E0D]
07 94,0 [C7C116E5] [1011403C]
08 99,5 [16AACD74] [FDFB63A6]
09 93,3 [7124FA26] [633DF722]
10 99,6 [90199C30] [438B73E8]
11 88,8 [9FB0E2FE] [FD1374CA]
12 99,6 [78CB5BD2] [94852786]
13 100,0 [67534EBA] [293DD2BD]
14 94,0 [2A152674] [8DA1F433]
15 100,0 [B255B00B] [7BAE330E]
16 99,6 [C5AAD42E] [0A19035E]
17 84,0 [2E39352E] [3F922508]
18 93,3 [BE34616B] [DC4230D8]

foobar2000 1.6.3 / Dynamic Range Meter 1.1.1
log date: 2021-07-17 18:04:51

––––––––––––––––––––––––––––––––––––––––
Analyzed: Don McLean / Rearview Mirror
––––––––––––––––––––––––––––––––––––––––

DR Peak RMS Duration Track
––––––––––––––––––––––––––––––––––––––––
DR10 -0.53 dB -13.17 dB 4:26 01-If You Could Read My Mind
DR12 -0.03 dB -14.51 dB 4:36 02-Vincent (Starry, Starry Night)
DR10 -1.12 dB -14.55 dB 2:15 03-Wonderful Baby
DR10 -0.03 dB -13.09 dB 3:02 04-Love Me Tender
DR12 -0.04 dB -15.24 dB 3:25 05-(It Was) A Very Good Year
DR9 -0.53 dB -11.86 dB 5:28 06-El Paso
DR9 -0.53 dB -12.15 dB 1:40 07-My Saddle Pals and I
DR11 -0.04 dB -14.09 dB 5:17 08-And I Love You So
DR7 -0.60 dB -11.77 dB 4:08 09-Crying
DR11 -0.03 dB -14.17 dB 4:11 10-Empty Chairs
DR11 -1.03 dB -15.08 dB 4:41 11-Homeless Brother
DR10 -0.03 dB -13.64 dB 4:04 12-TB Blues
DR10 0.00 dB -13.09 dB 4:26 13-Magdalene Lane
DR9 -0.53 dB -11.41 dB 4:42 14-Infinity
DR9 0.00 dB -9.98 dB 4:25 15-Prime Time
DR8 -0.03 dB -10.54 dB 8:29 16-American Pie
DR6 -1.51 dB -8.41 dB 5:45 17-Run, Diana Run
DR11 -0.60 dB -12.99 dB 2:04 18-You've Got To Share
––––––––––––––––––––––––––––––––––––––––

Number of tracks: 18
Official DR value: DR10

Samplerate: 44100 Hz
Channels: 2
Bits per sample: 16
Bitrate: 860 kbps
Codec: FLAC
================================================================================

Don McLean - Rearview Mirror: An American Musical Journey (2005) CD

All thanks to original releaser

More interesting music in My Blog