Subcategories

Donovan: Collection (1965 - 1971) [Vinyl Rip 16/44 & mp3-320]

Posted By: v3122
Donovan: Collection (1965 - 1971) [Vinyl Rip 16/44 & mp3-320]

Donovan: Collection (1965 - 1971)
8 x Vinyl Rip 16/44 | Flac(Image + Cue) > 2048 Mb
MP3 CBR 320Kbps > 915 Mb | Artwork(jpg) > 84 Mb
Folk Rock / Psychedelic Rock / Pop Rock

Upon his emergence during the mid-'60s, Donovan was anointed "Britain's answer to Bob Dylan," a facile but largely unfounded comparison which compromised the Scottish folk-pop troubadour's own unique vision. Where the thrust of Dylan's music remains its bleak introspection and bitter realism, Donovan fully embraced the wide-eyed optimism of the flower power movement, his ethereal, ornate songs radiating a mystical beauty and childlike wonder; for better or worse, his recordings remain quintessential artifacts of the psychedelic era, capturing the peace and love idealism of their time to perfection. Donovan Leitch was born May 10, 1946 in Glasgow and raised outside of London; at 18 he recorded his first demo, and in 1965 was tapped as a regular on the television pop showcase Ready, Steady, Go! He soon issued his debut single "Catch the Wind," earning the first round of Dylan comparisons with his ramshackle folk sound and ragamuffin look; the single nevertheless reached the U.K. Top Five, with a subsequent meeting between the two singer/songwriters captured in the classic D.A. Pennebaker documentary Don't Look Back.

Donovan's follow-up single, "Colours," was also a hit, and after making his American debut at the 1965 Newport Folk Festival, he issued Fairytale, his second and last LP for the Hickory label. Signing with Epic in 1966, he released his breakthrough album, Sunshine Superman, which in its exotic arrangements and pointedly psychedelic lyrical outlook heralded a major shift from his previous work; the title track topped the charts on both sides of the Atlantic, with the enigmatic "Mellow Yellow" reaching the number two spot a few months later. Donovan remained a chart fixture throughout 1967, generating a series of hits including "Epistle to Dippy," "There Is a Mountain," and "Wear Your Love Like Heaven"; that year he traveled to India alongside the Beatles to study with the Maharishi Mahesh Yogi, a journey which inspired him to renounce drug use and encourage his listeners to turn to meditation. The ambitious double album A Gift from a Flower to a Garden followed, and in 1968 Donovan resurfaced with The Hurdy Gurdy Man, scoring a Top Five smash with the hallucinatory title cut; the record also yielded the hit "Jennifer Juniper."

Barabajagal from 1969 generated Donovan's final Top 40 hit, "Atlantis"; for the title track, he collaborated with the Jeff Beck Group, with whom he also worked on 1970s Open Road. He then retreated to Ireland, emerging from a period of seclusion by starring in and scoring the 1972 film The Pied Piper; a pair of new LPs, Cosmic Wheels and Essence to Essence, appeared the following year to disappointing reviews and little commercial interest. Following 1974's 7-Tease, he spent the next years living quietly in California's Joshua Tree desert, mounting only a small club tour to promote 1976's Slow Down; a self-titled LP appeared a year later, and in the wake of 1983's Jerry Wexler-produced Lady of the Stars, he essentially retired from writing and recording altogether. The Donovan revival began in earnest in 1991 when Happy Mondays titled a song in his honor for their groundbreaking Pills 'n' Thrills & Bellyaches; he later toured with the group as well. Five years later, Donovan released his comeback LP, Sutras, helmed by producer du jour Rick Rubin. (The album had the misfortune to be released after Rubin's landmark Johnny Cash record, American Recordings and was virtually ignored or misunderstood by critics.) Donovan toured briefly to support Sutras and then went missing once again, playing out only sporadically. In 2004, however, he reappeared with the intimate and stylish Beat Cafe, a collection of nearly all-original songs produced by keyboardist John Chelew. Donovan also enlisted bassist Danny Thompson and drummer Jim Keltner to round out his quartet. The album featured a pair of covers, a spoken word rendition of poet Dylan Thomas' "Do Not Go Gentle," and a startling rendition of the traditional tune "The Cuckoo."

by Jason Ankeny, allmusic
Donovan: Collection (1965 - 1971) [Vinyl Rip 16/44 & mp3-320]


Donovan: Collection (1965 - 1971):

Donovan: Collection (1965 - 1971) [Vinyl Rip 16/44 & mp3-320]

Tracklist VNL01 - What's Bin Did And What's Bin Hid - 1965:
Pye Records, NPL 18117, UK

Side 1
Josie
Catch The Wind
The Alamo
Cuttin' Out
Car Car
Keep On Truckin'

Side 2
Goldwatch Blues
To Sing For You
You're Gonna Need Somebody On Your Bond
Tangerine Puppet
Donna Donna
Ramblin' Boy

foobar2000 1.2.9 / Dynamic Range Meter 1.1.1
log date: 2017-12-16 13:52:13

––––––––––––––––––––––––––––––––––––––––
Analyzed: Donovan / What's Bin Did And What's Bin Hid (LP)
––––––––––––––––––––––––––––––––––––––––

DR Peak RMS Duration Track
––––––––––––––––––––––––––––––––––––––––
DR13 -0.46 dB -15.59 dB 3:31 01-LADO 1- Josie
DR13 -0.20 dB -15.93 dB 3:00 02-Catch The Wind
DR11 -0.23 dB -13.91 dB 3:08 03-The Alamo
DR12 -1.48 dB -15.34 dB 2:21 04-Cuttin' Out
DR11 -2.18 dB -16.42 dB 1:34 05-Car Car
DR14 -0.32 dB -16.93 dB 1:53 06-Keep On Truckin'
DR11 -1.83 dB -15.64 dB 2:35 07-LADO 2- Goldwatch Blues
DR16 -0.29 dB -19.88 dB 2:46 08-To Sing For You
DR15 -1.56 dB -19.38 dB 4:06 09-You're Gonna Need Somebody On Your Bond
DR13 -6.86 dB -22.38 dB 1:54 10-Tangerine Puppet
DR13 -1.66 dB -16.97 dB 2:59 11-Donna Donna
DR13 -2.28 dB -18.14 dB 2:37 12-Ramblin' Boy
––––––––––––––––––––––––––––––––––––––––

Number of tracks: 12
Official DR value: DR13

Samplerate: 44100 Hz
Channels: 2
Bits per sample: 16
Bitrate: 690 kbps
Codec: FLAC
================================================================================




Original ripper: Fran Solo
Original format: 24/96
Vinyl Condition:
Cleaning: RCM Moth MkII Pro Vinyl
Direct Drive Turntable: Marantz 6170
Cartridge: SHURE M97xE
Amplifier: Sansui 9090DB
ADC: E-MU 0404

Downsampled to 16/44

Donovan: Collection (1965 - 1971) [Vinyl Rip 16/44 & mp3-320]

Tracklist VNL02 - Fairytale - 1965:
Pye Records, NPL 18128, UK

Side A
1 Colours
2 To Try For The Sun
3 Sunny Goodge Street
4 Oh Deed I Do
5 Circus Of Sour
6 Summer Day Reflection Song

Side B
1 Candy Man
2 Jersey Thursday
3 Belated Forgiveness Plea
4 Ballad Of A Crystal Man
5 The Little Tin Soldier
6 Ballad Of Geraldine

foobar2000 1.2.9 / Dynamic Range Meter 1.1.1
log date: 2017-12-16 13:52:27

––––––––––––––––––––––––––––––––––––––––
Analyzed: Donovan / Fairytale (LP)
––––––––––––––––––––––––––––––––––––––––

DR Peak RMS Duration Track
––––––––––––––––––––––––––––––––––––––––
DR12 -4.25 dB -18.16 dB 2:49 01-LADO 1- Colours
DR13 -0.16 dB -15.45 dB 3:40 02-I'll Try For The Sun
DR13 -5.54 dB -21.71 dB 2:57 03-Sunny Goodge Street
DR13 -0.11 dB -16.61 dB 2:09 04-Oh Deed I Do
DR13 -5.05 dB -19.72 dB 1:54 05-Circus Of Sour
DR13 -2.31 dB -19.46 dB 2:09 06-Summer Day Reflection Song
DR13 -2.82 dB -18.02 dB 3:29 07-LADO 2- Candy Man
DR15 -1.14 dB -19.81 dB 2:17 08-Jersey Thursday
DR13 0.00 dB -15.69 dB 2:59 09-Belated Forgiveness Plea
DR14 -3.50 dB -20.66 dB 3:19 10-The Ballad Of A Crystal Man
DR11 -6.33 dB -20.22 dB 3:04 11-The Little Tin Soldier
DR14 -3.61 dB -21.41 dB 4:41 12-The Ballad Of Geraldine
––––––––––––––––––––––––––––––––––––––––

Number of tracks: 12
Official DR value: DR13

Samplerate: 44100 Hz
Channels: 2
Bits per sample: 16
Bitrate: 711 kbps
Codec: FLAC
================================================================================




Original ripper: Fran Solo
Original format: 24/96
Vinyl Condition:
Cleaning: RCM Moth MkII Pro Vinyl
Direct Drive Turntable: Marantz 6170
Cartridge: SHURE M97xE
Amplifier: Sansui 9090DB
ADC: E-MU 0404

Downsampled to 16/44

Donovan: Collection (1965 - 1971) [Vinyl Rip 16/44 & mp3-320]

Tracklist VNL03 - Universal Soldier - 1967:
Marble Arch Records, MAL 718, UK

Side 1
1 Universal Soldier (Written-By – Buffy St. Marie) 2:15
2 To Sing For You 2:45
3 Why Do You Treat Me Like You Do 2:56
4 Turquoise 3:31
5 Colours 2:11

Side 2
1 Catch The Wind 2:56
2 Hey Gyp (Dig The Slowness) 3:08
3 The Ballad Of A Crystal Man 3:19
4 Do You Hear Me Now (Written-By – Bert Jansch) 1:50
B5 The War Drags On (Written-By – Mick Softley) 3:44

foobar2000 1.2.9 / Dynamic Range Meter 1.1.1
log date: 2017-12-16 13:52:40

––––––––––––––––––––––––––––––––––––––––
Analyzed: Donovan / Universal Soldier (LP)
––––––––––––––––––––––––––––––––––––––––

DR Peak RMS Duration Track
––––––––––––––––––––––––––––––––––––––––
DR12 -0.72 dB -15.48 dB 2:17 01-LADO 1- Universal Soldier
DR13 -1.98 dB -18.41 dB 2:48 02-To Sing For You
DR10 -1.55 dB -13.90 dB 3:00 03-Why Do You Treat Me Like You Do
DR11 -4.12 dB -17.42 dB 3:35 04-Turquoise
DR10 -2.65 dB -16.20 dB 2:54 05-Colours
DR12 -2.80 dB -16.95 dB 2:21 06-LADO 2- Catch The Wind (Version With Strings)
DR11 -2.12 dB -15.35 dB 3:16 07-Hey Gyp (Dig The Slowness)
DR13 -1.72 dB -17.26 dB 3:21 08-The Ballad Of A Crystal Man
DR12 -1.12 dB -15.66 dB 1:52 09-Do You Hear Me Now
DR11 -0.83 dB -16.40 dB 3:47 10-The War Drags On
––––––––––––––––––––––––––––––––––––––––

Number of tracks: 10
Official DR value: DR12

Samplerate: 44100 Hz
Channels: 2
Bits per sample: 16
Bitrate: 711 kbps
Codec: FLAC
================================================================================




Original ripper: Fran Solo
Original format: 24/96
Vinyl Condition:
Cleaning: RCM Moth MkII Pro Vinyl
Direct Drive Turntable: Marantz 6170
Cartridge: SHURE M97xE
Amplifier: Sansui 9090DB
ADC: E-MU 0404

Downsampled to 16/44

Donovan: Collection (1965 - 1971) [Vinyl Rip 16/44 & mp3-320]

Tracklist VNL04 - A Gift From A Flower To A Garden - 1968:
Pye Records, NSPL 20000, UK

The First
01. Wear Your Love Like Heaven
02. Mad John’s Escape
03. Skip-a-long Sam
04. Sun
05. There was a Time
06. Oh Gosh
07. Little Boy in Corduroy
08. Under the Greenwood Tree
09. The Land of Doesn’t Have to Be
10. Someone’s Singing

The Second
11. Song of the Naturalist’s Wife
12. The Enchanted Gypsy
13. Voyage into the Golden Screen
14. Isle of Islay
15. The Mandolin Man and his Secret
16. Lay of the Last Tinker
17. The Tinker and the Crab
18. Widow with Shawl (a portrait)
19. The Lullaby of Spring
20. The Magpie
21. Starfish-on-the-Toast
22. Epistle to Derroll

foobar2000 1.2.9 / Dynamic Range Meter 1.1.1
log date: 2017-12-16 13:52:58

––––––––––––––––––––––––––––––––––––––––
Analyzed: Donovan / A Gift from a Flower to a Garden [24-96]
––––––––––––––––––––––––––––––––––––––––

DR Peak RMS Duration Track
––––––––––––––––––––––––––––––––––––––––
DR10 -1.92 dB -15.45 dB 2:32 01-Wear Your Love Like Heaven
DR12 -1.03 dB -17.23 dB 2:25 02-Mad John's Escape
DR13 -2.67 dB -18.72 dB 2:31 03-Skip-Along Sam
DR12 -2.95 dB -18.68 dB 3:22 04-Sun
DR12 -3.14 dB -17.47 dB 2:07 05-There Was A Time
DR10 -2.55 dB -17.08 dB 1:53 06-Oh Gosh
DR11 -2.05 dB -18.38 dB 2:39 07-Little Boy In Corduroy
DR11 -2.61 dB -17.25 dB 2:01 08-Under The Greenwood Tree
DR10 -2.43 dB -16.07 dB 2:34 09-The Land of Doesn't Have To Be
DR10 -2.59 dB -16.56 dB 3:10 10-Someone's Singing
DR13 -4.79 dB -21.85 dB 2:49 11-Song of The Naturalist's Wife
DR13 -1.79 dB -17.81 dB 3:25 12-The Enchanted Gypsy
DR13 -1.01 dB -17.40 dB 3:19 13-Voyage Into The Golden Screen
DR13 -3.49 dB -19.38 dB 2:27 14-Isle of Islay
DR11 -4.14 dB -17.73 dB 3:38 15-The Mandolin Man And His Secret
DR13 -4.27 dB -21.12 dB 1:55 16-Lay of The Last Tinker
DR12 -4.74 dB -21.22 dB 2:58 17-The Tinker and The Crab
DR12 -3.26 dB -18.26 dB 3:06 18-Widow With a Shawl (A Portrait)
DR12 -2.11 dB -17.43 dB 3:31 19-The Lullaby of Spring
DR13 -2.49 dB -18.56 dB 1:34 20-The Magpie
DR15 -2.97 dB -21.52 dB 2:51 21-Starfish-On-The-Toast
DR12 -2.96 dB -18.31 dB 5:57 22-Epistle to Derroll
––––––––––––––––––––––––––––––––––––––––

Number of tracks: 22
Official DR value: DR12

Samplerate: 44100 Hz
Channels: 2
Bits per sample: 16
Bitrate: 725 kbps
Codec: FLAC
================================================================================




Original ripper: son-of-albion
Original format: 24/96
Vinyl Condition:
Cleaning: Knosti RCM
Direct Drive Turntable: Michell GyroDec full version + Funk Firm FXR II Tonearm
Cartridge: Audio Technica AT33PTG/II MC
Amplifier: Harman Kardon HK990 Integrated Amplifier
ADC: E-MU 0204
Postprocessing: Click Repair 3.8.4

Downsampled to 16/44

Donovan: Collection (1965 - 1971) [Vinyl Rip 16/44 & mp3-320]

Tracklist VNL05 - Donovan In Concert - 1968:
Pye Records, NSPL 18237, UK

01. Isle of Islay
02. Young Girl Blues
03. There is a Mountain
04. Poor Cow
05. Celeste
06. The Fat Angel
07. Guinevere
08. Widow with Shawl (A Portrait)
09. Preachin’ Love
10. The Lullaby of Spring
11. Writer in the Sun
12. Pebble and the Man
13. Rules and Regulations
14. Mellow Yellow

foobar2000 1.2.9 / Dynamic Range Meter 1.1.1
log date: 2017-12-16 13:53:14

––––––––––––––––––––––––––––––––––––––––
Analyzed: Donovan / In Concert [24-96]
––––––––––––––––––––––––––––––––––––––––

DR Peak RMS Duration Track
––––––––––––––––––––––––––––––––––––––––
DR13 -1.76 dB -19.74 dB 4:24 01-Isle of Islay
DR12 -1.58 dB -18.86 dB 6:09 02-Young Girl Blues
DR11 -1.23 dB -15.49 dB 3:12 03-There is a Mountain
DR11 -2.31 dB -17.88 dB 3:32 04-Poor Cow
DR12 -2.47 dB -16.98 dB 5:21 05-Celeste
DR12 -1.00 dB -16.09 dB 3:20 06-The Fat Angel
DR14 -5.32 dB -23.88 dB 2:53 07-Guinevere
DR14 -5.87 dB -25.42 dB 3:31 08-Widow With Shawl (A Portrait)
DR12 -1.90 dB -17.26 dB 5:13 09-Preachin' Love
DR12 -4.20 dB -20.44 dB 3:09 10-The Lullaby of Spring
DR12 -2.92 dB -19.76 dB 4:35 11-Writer in the Sun
DR11 -4.89 dB -21.20 dB 3:14 12-Pebble and the Man
DR12 -2.41 dB -18.37 dB 2:55 13-Rules and Regulations
DR12 -1.16 dB -17.17 dB 4:27 14-Mellow Yellow
––––––––––––––––––––––––––––––––––––––––

Number of tracks: 14
Official DR value: DR12

Samplerate: 44100 Hz
Channels: 2
Bits per sample: 16
Bitrate: 749 kbps
Codec: FLAC
================================================================================




Original ripper: son-of-albion
Original format: 24/96
Vinyl Condition:
Cleaning: Knosti RCM
Direct Drive Turntable: Michell GyroDec full version + Funk Firm FXR II Tonearm
Cartridge: Audio Technica AT33PTG/II MC
Amplifier: Harman Kardon HK990 Integrated Amplifier
ADC: E-MU 0204
Postprocessing: Click Repair 3.8.4

Downsampled to 16/44

Donovan: Collection (1965 - 1971) [Vinyl Rip 16/44 & mp3-320]

Tracklist VNL06 - Donovan’s Greatest Hits - 1969:
Pye Records, NSPL 18283, UK 1976

01. Epistle To Dippy
02. Sunshine Superman
03. There is a Mountain
04. Jennifer Juniper
05. Wear Your Love Like Heaven
06. Season of the Witch
07. Mellow Yellow
08. Colours
09. Hurdy Gurdy Man
10. Catch The Wind
11. Lalena
12. Teen Angel (bonus) b-side of Hurdy Gurdy Man, from Pye mono single 7N 17537

foobar2000 1.2.9 / Dynamic Range Meter 1.1.1
log date: 2017-12-16 13:53:29

––––––––––––––––––––––––––––––––––––––––
Analyzed: Donovan / Greatest Hits [24-96]
––––––––––––––––––––––––––––––––––––––––

DR Peak RMS Duration Track
––––––––––––––––––––––––––––––––––––––––
DR11 -1.00 dB -14.73 dB 3:15 01-Epistle To Dippy
DR12 -1.28 dB -14.79 dB 4:36 02-Sunshine Superman
DR13 -2.52 dB -17.66 dB 2:38 03-There Is A Mountain
DR13 -3.33 dB -18.60 dB 2:44 04-Jennifer Juniper
DR12 -3.15 dB -17.05 dB 2:29 05-Wear Your Love Like Heaven
DR11 -1.22 dB -16.66 dB 4:59 06-Season of The Witch
DR10 -6.46 dB -18.65 dB 3:46 07-Mellow Yellow
DR12 -1.12 dB -15.35 dB 4:19 08-Colours
DR12 -1.38 dB -17.03 dB 3:21 09-Hurdy Gurdy Man
DR11 -2.21 dB -17.36 dB 5:08 10-Catch The Wind
DR12 -3.87 dB -20.06 dB 3:00 11-Lalena
DR12 -2.99 dB -17.03 dB 2:23 12-Teen Angel (bonus)
––––––––––––––––––––––––––––––––––––––––

Number of tracks: 12
Official DR value: DR12

Samplerate: 44100 Hz
Channels: 2
Bits per sample: 16
Bitrate: 784 kbps
Codec: FLAC
================================================================================




Original ripper: son-of-albion
Original format: 24/96
Vinyl Condition:
Cleaning: Knosti RCM
Direct Drive Turntable: Michell GyroDec full version + Funk Firm FXR II Tonearm
Cartridge: Audio Technica AT33PTG/II MC
Amplifier: Harman Kardon HK990 Integrated Amplifier
ADC: E-MU 0204
Postprocessing: Click Repair 3.8.4

Downsampled to 16/44

Donovan: Collection (1965 - 1971) [Vinyl Rip 16/44 & mp3-320]

Tracklist VNL07 - Open Road - 1970:
Dawn Records, DNLS 3009, UK

01. Changes
02. Curry Land
03. Joe Bean’s Theme
04. People Used To
05. Celtic Rock
06. Riki Tiki Tavi
07. Clara Clairvoyant
08. Roots of Oak
09. Season of Farewell
10. Poke at the Pope
11. New Year’s Resovolution

foobar2000 1.2.9 / Dynamic Range Meter 1.1.1
log date: 2017-12-16 13:53:42

––––––––––––––––––––––––––––––––––––––––
Analyzed: Donovan / Open Road [24-96]
––––––––––––––––––––––––––––––––––––––––

DR Peak RMS Duration Track
––––––––––––––––––––––––––––––––––––––––
DR13 -1.23 dB -17.05 dB 2:58 01-Changes
DR13 -1.69 dB -17.32 dB 2:19 02-Song For John
DR12 -3.04 dB -20.70 dB 4:53 03-Curry Land
DR13 -8.64 dB -25.45 dB 3:07 04-Joe Bean's Theme
DR12 -2.71 dB -17.21 dB 3:54 05-People Used To
DR13 -1.46 dB -16.82 dB 3:57 06-Celtic Rock
DR13 -2.43 dB -19.39 dB 2:56 07-Riki Tiki Tavi
DR12 -2.11 dB -18.68 dB 2:51 08-Clara Clairvoyant
DR13 -2.44 dB -19.47 dB 5:03 09-Roots of Oak
DR14 -2.97 dB -19.32 dB 3:26 10-Season of Farewell
DR14 -1.14 dB -17.59 dB 2:48 11-Poke at the Pope
DR12 -2.29 dB -17.24 dB 5:15 12-New Year's Resovolution
––––––––––––––––––––––––––––––––––––––––

Number of tracks: 12
Official DR value: DR13

Samplerate: 44100 Hz
Channels: 2
Bits per sample: 16
Bitrate: 747 kbps
Codec: FLAC
================================================================================




Original ripper: son-of-albion
Original format: 24/96
Vinyl Condition:
Cleaning: Knosti RCM
Direct Drive Turntable: Michell GyroDec full version + Funk Firm FXR II Tonearm
Cartridge: Audio Technica AT33PTG/II MC
Amplifier: Harman Kardon HK990 Integrated Amplifier
ADC: E-MU 0204
Postprocessing: Click Repair 3.8.4

Downsampled to 16/44

Donovan: Collection (1965 - 1971) [Vinyl Rip 16/44 & mp3-320]

Tracklist VNL08 - HMS Donovan - 1971:
Dawn Records, DNLD 4001, UK 1975

01. The Walrus and the Carpenter
02. Jabberwocky
03. The Seller of Stars
04. Lost Time
05. The Little White Road
06. The Star

07. Coulter’s Candy
08. The Road
09. Things To Wear
10. The Owl and the Pussycat
11. Homesickness
12. Fishes in Love
13. Mr. Wind
14. Wynken, Blynken and Nod

15. Celia of the Seals
16. The Pee Song
17. The Voyage of the Moon
18. The Unicorn
19. Lord of the Dance
20. Little Ben
21. Can Ye Dance

22. In An Old-Fashioned Picture Book
23. The Song of Wandering Aengus
24. A Funny Man
25. Lord of The Reedy River
26. Henry Martin
27. Queen Mab
28. La Moora

foobar2000 1.2.9 / Dynamic Range Meter 1.1.1
log date: 2017-12-16 13:54:02

––––––––––––––––––––––––––––––––––––––––
Analyzed: Donovan / HMS Donovan [24-96]
––––––––––––––––––––––––––––––––––––––––

DR Peak RMS Duration Track
––––––––––––––––––––––––––––––––––––––––
DR15 -2.35 dB -22.70 dB 8:38 01-The Walrus and the Carpenter
DR12 -0.25 dB -16.23 dB 2:40 02-Jabberwocky
DR12 -4.25 dB -18.27 dB 2:54 03-The Seller of Stars
DR12 -1.55 dB -18.33 dB 2:31 04-Lost Time
DR11 -4.35 dB -17.89 dB 2:07 05-The Little White Road
DR11 -4.26 dB -19.31 dB 1:45 06-The Star
DR11 -2.25 dB -16.24 dB 1:46 07-Coulter's Candy
DR11 -4.54 dB -19.19 dB 1:11 08-The Road
DR12 -7.68 dB -24.55 dB 1:09 09-Things To Wear
DR12 -3.75 dB -19.04 dB 2:27 10-The Owl and the Pussycat
DR12 -2.32 dB -18.10 dB 2:34 11-Homesickness
DR11 -1.60 dB -19.75 dB 1:08 12-Fishes in Love
DR13 -1.64 dB -17.23 dB 2:41 13-Mr. Wind
DR13 -4.07 dB -19.47 dB 2:27 14-Wynken Blynken and Nod
DR12 -3.41 dB -18.92 dB 3:05 15-Celia of the Seals
DR14 -2.71 dB -19.31 dB 2:07 16-The Pee Song
DR11 -4.34 dB -17.42 dB 5:19 17-The Voyage of the Moon
DR13 -3.66 dB -21.37 dB 0:56 18-The Unicorn
DR14 -1.33 dB -17.04 dB 2:32 19-Lord of the Dance
DR9 -5.26 dB -19.89 dB 1:45 20-Little Ben
DR13 -1.18 dB -16.30 dB 1:33 21-Can Ye Dance
DR12 -1.30 dB -16.27 dB 3:14 22-In An Old-Fashioned Picture Book
DR13 -6.37 dB -21.11 dB 3:59 23-The Song of Wandering Aengus
DR10 -2.30 dB -16.07 dB 1:55 24-A Funny Man
DR9 -6.74 dB -20.14 dB 2:39 25-Lord of The Reedy River
DR12 -0.92 dB -15.00 dB 5:09 26-Henry Martin
DR10 -3.53 dB -15.50 dB 2:19 27-Queen Mab
DR10 -7.04 dB -20.43 dB 2:27 28-La Moora
––––––––––––––––––––––––––––––––––––––––

Number of tracks: 28
Official DR value: DR12

Samplerate: 44100 Hz
Channels: 2
Bits per sample: 16
Bitrate: 684 kbps
Codec: FLAC
================================================================================




Original ripper: son-of-albion
Original format: 24/96
Vinyl Condition:
Cleaning: Knosti RCM
Direct Drive Turntable: Pink Triangle LPT + Funk Firm Achromat + Moth Arm 1 (Rega RB 250)
Cartridge: Audio Technica AT33PTG
Amplifier: Harman Kardon HK990 Integrated Amplifier
ADC: Creative S80300 External ADC
Postprocessing: Click Repair 3.7

Downsampled to 16/44

Rainbow: Discography (1975 - 1986) [Vinyl Rip 16/44 & mp3-320]
Amanda Lear: Collection (1978 - 1986) [Vinyl Rip 16/44 & mp3-320]
Space & Didier Marouani: Collection (1977 - 1987) [Vinyl Rip 16/44 & mp3-320]



The Rolling Stones - Double Deluxe (1970) [Vinyl Rip 16/44 & mp3-320]
Rod Stewart: Collection (1969 - 1988) [Vinyl Rip 16/44 & mp3-320]
Rick Wakeman: Collection (1973 - 1981) [Vinyl Rip 16/44 & mp3-320]
Kraftwerk: Collection (1974 - 1991) [Vinyl Rip 16/44 & mp3-320]
Jethro Tull - 20 Years Of J. T. The Definitive Collection (1988) [Vinyl Rip 16/44 & mp3-320]
Testament: Discography (1987-2016) [Vinyl Rip 16/44 & mp3-320]
Roger Waters: Vinyl Collection (1970 - 1992) [Vinyl Rip 16/44 & mp3-320]
Rare Earth: Collection (1969 - 1978) [Vinyl Rip 16/44 & mp3-320]
David Gilmour - Rattle That Lock (2015) [Vinyl Rip 16/44 & mp3-320]
Tarja: Collection (2007 - 2016) [Vinyl Rip 16/44 & mp3-320]
Depeche Mode: Collection (1981 - 2013) [Vinyl Rip 16/44 & mp3-320]
Pink Floyd: Remastered Collection (1967 - 2016) [Vinyl Rip 16/44 & mp3-320]
Sade: Discography (1984 - 2010) [Vinyl Rip 16/44 & MP3-320]
Deep Purple: Collection (1968 - 2017) [Vinyl Rip 16/44 & mp3-320]
Queen: Collection (1973 - 1995) [Vinyl Rip 16/44 & MP3-320]
The Cars: Collection (1978 - 1987) [Vinyl Rip 16/44 & mp3-320]
Metallica: Discography (1983 - 2016) [Vinyl Rip 16/44 & mp3-320]
Bon Jovi - The Albums (2017) [Vinyl Rip 16/44 & mp3-320, Limited Edition Box set]
The Doors: Collection (1967 - 1971) [Vinyl Rip 16/44 & mp3-320]
Black Sabbath: Collection (1970 - 2013) [Vinyl Rip 16/44 & mp3-320]
The Beatles: Discography (1963 - 1988) [Vinyl Rip 16/44 & mp3-320]
Joe Cocker: Collection (1969 - 1991) [Vinyl Rip 16/44 & mp3-320]
Frank Zappa: Collection (1969 - 1981) [Vinyl Rip 16/44 & mp3-320]
Ten Years After: Collection (1967 - 1974) [Vinyl Rip 16/44 & mp3-320]
Dire Straits: Discography (1978 - 1991) [Vinyl Rip 16/44 & mp3-320]
Bonnie Tyler: Collection (1977 - 1986) [Vinyl Rip 16/44 & mp3-320]
The Beatles: Stereo Vinyl Box Set (2012) [Vinyl Rip 16/44 & mp3-320]
Wolfgang Amadeus Mozart - Die Violin Konzerte (1968) [Vinyl Rip 16/44 & mp3-320]
Eagles - The Studio Albums 1972-1979 (2013) [Vinyl Rip 16/44 & mp3-320]
Pink Floyd: Discography (1967 - 2014) [Vinyl Rip 16/44 & mp3-320]
Led Zeppelin: Discography (1969 - 1982) [Vinyl Rip 16/44 & mp3-320]
Manowar: Collection (1982 - 2012) [Vinyl Rip 16/44 & mp3-320]
A-HA: Collection (1985-2015) [Vinyl Rip 16/44 & mp3-320]
Decca, Wiener Philharmoniker - 6 Classic Analogue LPs (2014) [Vinyl Rip 16/44]
Beethoven - Chicago Symphony Orchestra / Sir Georg Solti ‎– The Nine Symphonies (1975) [Vinyl Rip 16/44 & mp3-320]
Scorpions: Collection (1974 - 2015) [Vinyl Rip 16/44 & mp3-320]
Pink Floyd - Echoes: The Best Of Pink Floyd (2001) [Vinyl Rip 16/44]
Alice Cooper - Paranormal (2017) [Vinyl Rip 16/44 & mp3-320]
Manfred Mann's Earth Band: Collection (1967 - 2014) [Vinyl Rip 16/44 & mp3-320]

Donovan or Donovan in my Blog

Download Donovan: Collection (1965 - 1971):