Subcategories

Doug Hammond - Reflections in the Sea of Nurnen (1975) {P-Vine}

Posted By: tiburon
Doug Hammond - Reflections in the Sea of Nurnen (1975) {P-Vine}

Doug Hammond - Reflections in the Sea of Nurnen (1975) {P-Vine}
X Lossless Decoder | FLAC tracks | Cue+Log+M3U | Scans | 233MB + 5% Recovery
MP3 CBR 320 Kbps | 86MB + 5% Recovery
Genre: Jazz, Fusion, Vocal Jazz

An incredible session from the legendary Tribe Records scene – an equal effort from leader Doug Hammond and keyboardist David Durrah, who contributes some groundbreaking Fender Rhodes and moog work to the set! Hammond handles drums plus a bit of vocals and synthesizer on the session – working alongside Durrah in a groove that mixes electric and acoustic instrumentation into a totally righteous sound with lots of heavy Afro Jazz leanings. A number of tracks feature great vocals from Hammond – righteous, and with a beautifully souful message-oriented approach – and a few other tracks, such as the classic "Space I" and "Space II", feature a sparer all-electric sound. The whole thing's wonderful – skittishly rhythmic, warmly flowing, and righteously beautiful.
Track List
01. Fidalgo Detour (Metcalf) - 7:37
02. Space II (Durrah) - 0:43
03. Wake Up Brothers (Hammond) - 3:12
04. Reflections (Harris) - 4:30
05. For Real (Hammond) - 3:04
06. Space I (Durrah) - 2:08
07. Sea of Nurnen (Durrah) - 4:43
08. Moves (Hammond) - 4:34
09. Venus Fly Trap (Durrah) - 2:52
10. Kai (Durrah) - 3:54

musicians
Doug Hammond - vocals, drums, melodica, Arp synthesizer
David Durrah - piano, Fender Rhodes, Moog, Arp synthesizer
Charles Metcalf - bass violin, electric bass
Otis Harris - alto saxophone
Thomas (Turk) Trayler, Fredrick Boon - percussion
Trevis Mickeel, Charles Burnham - violin


X Lossless Decoder version 20170729 (150.3)

XLD extraction logfile from 2018-01-15 11:50:33 -0800

Doug Hammond / Reflections In The Sea Of Nurnen

Used drive : HL-DT-ST DVDRW GS23N (revision SB07)
Media type : Pressed CD

Ripper mode : XLD Secure Ripper
Disable audio cache : OK for the drive with a cache less than 1375KiB
Make use of C2 pointers : NO
Read offset correction : 667
Max retry count : 25
Gap status : Analyzed, Appended (except HTOA)

TOC of the extracted CD
Track | Start | Length | Start sector | End sector
––––––––––––––––––––––––––––-
1 | 00:00:00 | 07:37:05 | 0 | 34279
2 | 07:37:05 | 00:42:64 | 34280 | 37493
3 | 08:19:69 | 03:12:34 | 37494 | 51927
4 | 11:32:28 | 04:30:11 | 51928 | 72188
5 | 16:02:39 | 03:03:43 | 72189 | 85956
6 | 19:06:07 | 02:07:62 | 85957 | 95543
7 | 21:13:69 | 04:43:28 | 95544 | 116796
8 | 25:57:22 | 04:33:60 | 116797 | 137331
9 | 30:31:07 | 02:51:53 | 137332 | 150209
10 | 33:22:60 | 03:53:61 | 150210 | 167745

AccurateRip Summary (DiscID: 000e7ce5-0071b510-8608bc0a)
Track 01 : OK (v2, confidence 2/2)
Track 02 : OK (v2, confidence 2/2)
Track 03 : OK (v2, confidence 2/2)
Track 04 : OK (v2, confidence 2/2)
Track 05 : OK (v2, confidence 2/2)
Track 06 : OK (v2, confidence 2/2)
Track 07 : OK (v2, confidence 2/2)
Track 08 : OK (v2, confidence 2/2)
Track 09 : OK (v2, confidence 2/2)
Track 10 : OK (v2, confidence 2/2)
->All tracks accurately ripped.

All Tracks
Album gain : -7.35 dB
Peak : 1.000000
Statistics
Read error : 0
Jitter error (maybe fixed) : 0
Retry sector count : 0
Damaged sector count : 0

Track 01
Filename : /Volumes/music/Library/Doug Hammond & David Durrah ‎– Reflections In The Sea Of Nurnen/Doug Hammond - Reflections In The Sea Of Nurnen (1975) [FLAC]/01 Fidalgo Detour.flac
Pre-gap length : 00:02:00

Track gain : -7.43 dB
Peak : 0.994537
CRC32 hash (test run) : 3EF0976B
CRC32 hash : 3EF0976B
CRC32 hash (skip zero) : 5785C55D
AccurateRip v1 signature : 3E996589
AccurateRip v2 signature : 60032FC3
->Accurately ripped (v2, confidence 2/2)
Statistics
Read error : 0
Jitter error (maybe fixed) : 0
Retry sector count : 0
Damaged sector count : 0

Track 02
Filename : /Volumes/music/Library/Doug Hammond & David Durrah ‎– Reflections In The Sea Of Nurnen/Doug Hammond - Reflections In The Sea Of Nurnen (1975) [FLAC]/02 Space II.flac
Pre-gap length : 00:05:15

Track gain : -3.01 dB
Peak : 0.912567
CRC32 hash (test run) : C092927C
CRC32 hash : C092927C
CRC32 hash (skip zero) : 96D4C188
AccurateRip v1 signature : 7F9D05CD
AccurateRip v2 signature : D59028C2
->Accurately ripped (v2, confidence 2/2)
Statistics
Read error : 0
Jitter error (maybe fixed) : 0
Retry sector count : 0
Damaged sector count : 0

Track 03
Filename : /Volumes/music/Library/Doug Hammond & David Durrah ‎– Reflections In The Sea Of Nurnen/Doug Hammond - Reflections In The Sea Of Nurnen (1975) [FLAC]/03 Wake Up Brothers.flac
Pre-gap length : 00:03:59

Track gain : -7.64 dB
Peak : 0.995453
CRC32 hash (test run) : F5BC3FA3
CRC32 hash : F5BC3FA3
CRC32 hash (skip zero) : 5E0DDE9C
AccurateRip v1 signature : 25601B76
AccurateRip v2 signature : CE9ABB71
->Accurately ripped (v2, confidence 2/2)
Statistics
Read error : 0
Jitter error (maybe fixed) : 0
Retry sector count : 0
Damaged sector count : 0

Track 04
Filename : /Volumes/music/Library/Doug Hammond & David Durrah ‎– Reflections In The Sea Of Nurnen/Doug Hammond - Reflections In The Sea Of Nurnen (1975) [FLAC]/04 Reflections.flac
Pre-gap length : 00:02:28

Track gain : -5.73 dB
Peak : 0.936432
CRC32 hash (test run) : 420E672B
CRC32 hash : 420E672B
CRC32 hash (skip zero) : 0BCB78E0
AccurateRip v1 signature : 4507FA37
AccurateRip v2 signature : C9591D7F
->Accurately ripped (v2, confidence 2/2)
Statistics
Read error : 0
Jitter error (maybe fixed) : 0
Retry sector count : 0
Damaged sector count : 0

Track 05
Filename : /Volumes/music/Library/Doug Hammond & David Durrah ‎– Reflections In The Sea Of Nurnen/Doug Hammond - Reflections In The Sea Of Nurnen (1975) [FLAC]/05 For Real.flac
Pre-gap length : 00:04:29

Track gain : -7.32 dB
Peak : 1.000000
CRC32 hash (test run) : 3AD926A9
CRC32 hash : 3AD926A9
CRC32 hash (skip zero) : 9EDA3C21
AccurateRip v1 signature : BA4F18DC
AccurateRip v2 signature : CACDEC83
->Accurately ripped (v2, confidence 2/2)
Statistics
Read error : 0
Jitter error (maybe fixed) : 0
Retry sector count : 0
Damaged sector count : 0

Track 06
Filename : /Volumes/music/Library/Doug Hammond & David Durrah ‎– Reflections In The Sea Of Nurnen/Doug Hammond - Reflections In The Sea Of Nurnen (1975) [FLAC]/06 Sparse I.flac
Pre-gap length : 00:03:57

Track gain : -2.17 dB
Peak : 0.871155
CRC32 hash (test run) : EC303244
CRC32 hash : EC303244
CRC32 hash (skip zero) : 564DB531
AccurateRip v1 signature : 267121C5
AccurateRip v2 signature : AC31AC28
->Accurately ripped (v2, confidence 2/2)
Statistics
Read error : 0
Jitter error (maybe fixed) : 0
Retry sector count : 0
Damaged sector count : 0

Track 07
Filename : /Volumes/music/Library/Doug Hammond & David Durrah ‎– Reflections In The Sea Of Nurnen/Doug Hammond - Reflections In The Sea Of Nurnen (1975) [FLAC]/07 Sa Of Nurnen.flac
Pre-gap length : 00:03:58

Track gain : -7.77 dB
Peak : 0.995880
CRC32 hash (test run) : 373B618C
CRC32 hash : 373B618C
CRC32 hash (skip zero) : 8F05DFCB
AccurateRip v1 signature : CAF59B53
AccurateRip v2 signature : 433B12AB
->Accurately ripped (v2, confidence 2/2)
Statistics
Read error : 0
Jitter error (maybe fixed) : 0
Retry sector count : 0
Damaged sector count : 0

Track 08
Filename : /Volumes/music/Library/Doug Hammond & David Durrah ‎– Reflections In The Sea Of Nurnen/Doug Hammond - Reflections In The Sea Of Nurnen (1975) [FLAC]/08 Movers.flac
Pre-gap length : 00:03:31

Track gain : -6.07 dB
Peak : 0.977509
CRC32 hash (test run) : 331BCCE4
CRC32 hash : 331BCCE4
CRC32 hash (skip zero) : 86DB3EC2
AccurateRip v1 signature : 5CEB89DA
AccurateRip v2 signature : C459AD0B
->Accurately ripped (v2, confidence 2/2)
Statistics
Read error : 0
Jitter error (maybe fixed) : 0
Retry sector count : 0
Damaged sector count : 0

Track 09
Filename : /Volumes/music/Library/Doug Hammond & David Durrah ‎– Reflections In The Sea Of Nurnen/Doug Hammond - Reflections In The Sea Of Nurnen (1975) [FLAC]/09 Venus.flac
Pre-gap length : 00:02:49

Track gain : -8.90 dB
Peak : 1.000000
CRC32 hash (test run) : 8C24BD3B
CRC32 hash : 8C24BD3B
CRC32 hash (skip zero) : 06F876D6
AccurateRip v1 signature : D72C13A1
AccurateRip v2 signature : B6C1D71D
->Accurately ripped (v2, confidence 2/2)
Statistics
Read error : 0
Jitter error (maybe fixed) : 0
Retry sector count : 0
Damaged sector count : 0

Track 10
Filename : /Volumes/music/Library/Doug Hammond & David Durrah ‎– Reflections In The Sea Of Nurnen/Doug Hammond - Reflections In The Sea Of Nurnen (1975) [FLAC]/10 Kai.flac
Pre-gap length : 00:02:22

Track gain : -4.78 dB
Peak : 0.994690
CRC32 hash (test run) : 7B468023
CRC32 hash : 7B468023
CRC32 hash (skip zero) : B0B56947
AccurateRip v1 signature : FFAABD29
AccurateRip v2 signature : C069D6D5
->Accurately ripped (v2, confidence 2/2)
Statistics
Read error : 0
Jitter error (maybe fixed) : 0
Retry sector count : 0
Damaged sector count : 0

No errors occurred

End of status report

––-BEGIN XLD SIGNATURE––-
rira0IJO_k4wBCECeQwGmhHlwpMIhNrG20DKnxRGI10PuNmGnYEsU5CpnfwFRiCZZBr56gach4i83YCyvzOvJT3IUEq9pDr6WG1mLVG
––-END XLD SIGNATURE––-

Doug Hammond - Reflections in the Sea of Nurnen (1975) {P-Vine}
Doug Hammond - Reflections in the Sea of Nurnen (1975) {P-Vine}


Thanks to the original ripper