Subcategories

Dream Theater - Discography on AH. Part 1: Studio Albums (1989 - 2011) Re-up

Posted By: v3122
Dream Theater  - Discography on AH. Part 1: Studio Albums (1989 - 2011) Re-up

Dream Theater - Discography on AH. Part 1: Studio Albums (1989 - 2011)
EAC Rip | Flac(Image) + Cue + Log & MP3 CBR 320Kbps
Scans | Label: Various | ~ 3929 or 1731 Mb
Progressive Metal

The technically proficient guitar playing of John Petrucci elevated Dream Theater to the upper echelons of contemporary heavy metal. While its lineup has continuously evolved, the Long Island-based quintet has consistently delivered sharp-edged music. Dream Theater is known for its high-energy concert performances. While they've released several live albums – Live at the Marquee, recorded at the London club; Live in Japan, recorded during the Music in Progress tour in 1993; and a triple CD and DVD, Live Scenes from New York – they remain one of heavy metal's most bootlegged bands.

Originally named Majesty by Berklee College of Music students Petrucci, bassist John Myung, and drummer Mike Portnoy, the band soon expanded with the addition of keyboard player Kevin Moore and vocalist Chris Collins. Releasing an eight-tune demo, Majesty Demo, as Majesty, the group sold 1,000 copies within six months. The departure of Collins in late 1986 left Majesty without a vocalist, and after a long period of auditioning possible replacements, the group settled on Charlie Dominici in November 1987. Changing its name, the group agreed on "Dream Theater," inspired by a now-demolished California movie theater. Signing with Mechanic Records, the group began working on its first full-length album. Delays caused by label mismanagement limited the group to performing at small clubs and bars. Frustrated by its experiences with the label, Dream Theater finally severed its ties with Mechanic.

This was only one drastic change in the band's course of action. Firing Dominici, the group spent the next couple years searching for a vocalist. The search ended in late 1991 when a demo tape from Canadian vocalist James LaBrie, formerly of Winter Rose, arrived. After flying to New York to audition, LaBrie was invited to join the band. Signing with Atco Atlantic (which came to be known as East West), Dream Theater released its second album, Images & Words, in 1992. One of three videos based on songs from the album, "Pull Me Under," became an MTV hit. Although Theater showed considerable growth with their third studio album, Awake, recorded between May and July 1994, the group continued to be hampered by personnel changes. Before the album was mixed, keyboardist Moore left the group to focus on his solo career. Hired as a temporary replacement for the band's Waking Up the World tour, Derek Sherinian later became a permanent member. His first recording with Dream Theater was a 23-minute epic, "A Change of Seasons," written in 1989 and released in September 1995 on the album of the same name.

Following a mini tour, Fix for '96, the members of Dream Theater separated for several months and became involved with a variety of outside projects. Petrucci was the busiest. In addition to joining Portnoy and keyboard player Jordan Rudess in the Liquid Tension Experiment – a group that included influential bassist/stick player Tony Levin – Petrucci played guitar with Trent Gardner's Explorers Club and made a guest appearance on Shadow Gallery's Tyranny album. Myung and Sherinian collaborated with King's X vocalist Ty Tabor in the band Platypus. LaBrie worked with Mull Muzzler, a group formed with Matt Guillory and Mike Mangini.

Dream Theater experienced yet another change when Rudess was tapped to replace Sherinian, who had been fired in 1999. The band released the progressive rock-heavy Scenes from a Memory that year, a conceptual piece that followed the story of a 1928 murder of a young woman and how a modern man is haunted by the crime. It was followed by Live Scenes from New York in 2001, which suffered from an unintentional bout with controversy when its original cover featuring the city of New York in flames was pulled due to the events of September 11. The group continued in the progressive metal vein in 2002 with Six Degrees of Inner Turbulence, followed by the leaner Train of Thought in 2003 and Octavarium in 2005. The live album Score: XOX was released in 2006 and featured the band backed by a 29-piece orchestra. It was followed a year later by the new studio album Systematic Chaos, and in 2009 by Black Clouds & Silver Linings.

Sherinian went on to record as a soloist and to play with a prog and jazz fusion band, Planet X. Petrucci released an eponymously titled solo album in 2003, featuring accompaniment by Dave LaRue of the Dixie Dregs and Boston-based drummer Dave DeCenso. In late 2010, Mike Mangini joined the group replacing drummer Mike Portnoy, who left the band in September of that year.

~ Craig Harris, Rovi

Dream Theater  - Discography on AH. Part 1: Studio Albums (1989 - 2011) Re-up

Наверное сегодня, нет ни одной группы, работающей в стиле прогрессив-металл, которую можно было бы сравнивнить с группой Dream Theater, только один этот факт уже говорит о том какое влияние и значение, эта пятерка оказала на весь прог-металл.

История Dream Theater, начинается в 1985 году, когда два друга - гитарист Джон Петруччи и басист Джон Маянг, во время их учёбы в музыкальном колледже Беркли в Бостоне -"Berklee School of Music"- познакомились с барабанщиком по имени Майк Портной, который на тот момент проводил свои репетиции в одном из помещений колледжа.

Через некоторое время они решили создать собственную группы, для игры на клавишных позвали давнего приятель Джона Петруччи, Кевина Мура с которым они играли еще в школьной группе Centurion, на место вокалиста позвали Криса Коллинса ,Майк Портной придумал имя Majesty (как описание финальной части песни «Bastile Day» группы Rush).

Что бы как следует заниматься своей новой группой, они забросили учебу в колледже Беркли. Первый проект который заслуживает внимания назывался Majesty Demos, в который вошли идеи и демо-записи. Запись была выпущена в 1986 году, и весь тираж из 1000 копий, они распродали в течение следующих шести месяцев. Так родилась группа Majesty, участники которой с самого начала твердо поняли, какую музыку будут играть - уже на первой демке можно услышать приемы которые и сегодня используются Dream Theater в своей музыке. Хотя тогда стиль новой прогрессив-группы все время сравнивали с ранними работами RUSH.

Majesty

Majesty были первыми, кто подписал контракт с новой фирмой "Mechanic Records", но этому предшествовало несколько событий.

Группе пришлось сменить имя, потому что существовал еще один коллектив под названием Majesty, который пригрозил новоиспеченным музыкантам судебным разбирательством. Пришлось перебрать кучу имен, пока отец Портного не предложил назвать группу " Dream Theater " — по имени сегодня не существующего кинотеатра в Монтерее, штат Калифорния.

В ноябре 1986 года, после нескольких месяцев выступления на концертах, из группы уходит Крис Коллинз, из-за несовместимости своих музыкальных взглядов со взглядами группы. На самом деле Коллинз просто не дотягивал по уровню игры до остальных членов команды.

Целый год группа безуспешно пыталась найти замену Коллинзу, пока не появился Чарли Доминичи, он был старше и опытнее, чем любой из группы, но на тот момент очень удачно влился в состав.

Приход нового вокалиста видимо принес в группу больше стабильности, так как Majesty стали больше выступать на концертах, как в Нью-Йорке, так и по его окрестностям, но своего альбома у них еще не было.

Чарли Доминичи

Весной 1989 года выходит дебютный альбом Dream Theater "When Dream & Day Unite", у которого был достаточно скромный бюджет, в том числе и на рекламу, но несмотря на это критики приняли его на «ура», и даже в некоторых изданиях получил- титул альбома месяца! Например в немецком"Metal Hammer".

К слову сказать, большинство обязательств, связанных с "раскруткой" коллектива, Mechanic Records не выполнила, а тур для поддержки альбома включал всего пять концертов, которые прошли в Нью-Йорке и Род-Айленде.

В начале 90-го Чарли Доминичи получает отставку, все равно рано или поздно это произошло бы, но никто не думал что нового вокалиста они будут искать целых два года!

Тем не менее, когда Dream Theater пригласили на разогрев Marillion в Нью-Йорке, они позвали Доминичи, которому выпал шанс последний раз выступить с группой.

После ухода Доминичи из группы, Dream Theater с радостью разорвали контракт с Mechanic Records, Все два года группа естественно не сидела без дела, они писали новые песни при этом регулярно выступая в клубах –вчетвером. Многие песни со второго альбома Dream Theater "Images & Words", изначально исполнялись на этих концертах как инструментальные композиции, которые они разбавляли инструменталками классических хитов Led Zeppelin, Yes, Queen, The BeatlesS, Van Halen, и многими другими. Не удивительно, что с каждой новой композицией, их музыка становилась все более и более сложной, что только повышало требования к будущему вокалисту.

Кевин Джеймс Ля Бри

В процессе поиска вокалиста было прослушано более 200 человек, среди наиболее вероятных кандидатов на вакантное место были Джон Арч из Fates Warning, Джефф Тейт из Queensryche, и некто Крис Синтрон, которому даже удалось сыграть с Dream Theater на нескольких концертах, но его «подсидел» вокалист канадской группы Winter Rose, Кевин Джеймс Ля Бри (Kevin James LaBrie).

После разрыва с Mechanic Records, Dream Theater подписывают новый контракт с более крупной звукозаписывающей компанией "East West Records", и в конце 1991 года, записывают свой второй альбом "Images & Words".

По иронии судьбы, дебютный концерт Ля Бри в составе Dream Theater, проходит в том же самом зале, где группа отыграла последний концерт с Доминичи, ну а фанам было легче оценить нового фронтмена Dream Theater, который явно был на порядок выше Доминичи.

После выхода альбома, группа отправиляется в мировое турне, практически везде залы были переполнены, а концерт в знаменитом лондонском клубе "Marquee" впоследствии был увековечен на миньоне с соответствующим названием, а концерт в Токио, лег в основу концертного видео группы.

За третий альбом "Awake", Dream Theater берутся в марте 1994-го, после небольшого отпуска, материал впервые сочиняли от начала и до конца вместе с вокалистом группы. Неприятности же поджидали группу другой стороны: в августе 94-го в самом разгаре работы о своем уходе неожиданно заявил Кевин Мур (правда, свои партии клавишник все же записал полностью), что оказалось очень серьезным ударом для остальных музыкантов, особенно для друзей детства Петручи и Маянга.

Как заявил сам Мур, он больше не видел никаких перспектив в жанре прогрессив-металл и решил попробовать себя в новом амплуа. Вместе с гитаристом Джейсоном Андерсоном и музыкантами Fates Warning - ударником Марком Зондером и басистом Джоем Вера, Мур собрал группу Chroma Key, стиль которой сам описывает как мрачный авангард, хотя проще эту музыку можно охарактеризовать как смесь Pink Floyd, Rush, Peter Gabriel и David Bowie. В любом случае, ничего общего ни с Dream Theater, ни с Fatesarning, Chroma Key не имеет.

Джордан Рудесс

Во время презентации альбоме! на "Foundations Forum" в сентябре 94-го, за клавишными стоял Джордан Рудесс , а в новое мировое турне Dream Theater отправились с клавишником Дереком Шеринианом (ex-Alice Cooper, Kiss), который под конец тура был объявлен официальным членом группы. Что же касается "Awake", то альбом превзошел все ожидания. Название пластинки оказалось пророческим: альбом попал в Тор-30 американской "доски почета" - еженедельника "Billboard", и Dream Theater моментально превратились в настоящих звезд мирового уровня, получив титул живой легенды своего жанра! Несмотря на свою "неформатность" песни группы зазвучали на радио, а видеоклипы прочно обосновались на телеканале "MTV".

В апреле 1995 года Dream Theater записали 23-минутную композицию "A Change Of Seasons", написанную еще шесть лет назад для "Images & Words", и выпустили сей эпик в сентябре того же года в виде одноименного CD. На альбома, кроме того, вошли несколько кавер-версий, записанных на концерте в лондонском "Ronnie Scott's Jazz Club" - песни Элтона Джона, Led Zeppelin, Deep Purple, Pink Floyd, Genesis, Queen, Journey, Kansas и Dixie Dregs.

А ровно два года спустя увидел свет и очередной полнометражный альбом "Falling Into Infinity", пять песен из которого ранее группа исполняла во время европейского мини-тура "The Fix For '96". Альбом получился наименее удачным из всей дискографии Dream Theater, что в некоторой степени компенсировал двойной концертник "Once In A Life Time".

1999 год начался с увольнения Дерека Шериниана, что мотивировалось персональными и музыкальными разногласиями между клавишником и остальными членами группы, самое забавное заключается в том, что на замену пришел ни кто иной, как Джордан Радесс, отыгравший с Dream Theater единственный концерт перед приходом Шериниана!

Группа тут же приступила к работе над новым альбомом, который должен был реабилитировать их после откровенно слабого "Falling Into Infinity". Что, собственно, и произошло: новый, концептуальный CD Dream Theater "Metropolis pt. II: Scenes From A Memory" не только превзошел своего предшественника, но и был признан пластинкой уровня "Awake"! А название нового диска следует понимать буквально: в музыкальном отношении альбом представляет собой одну большую вариацию на тему "Metropolis pt I: The Miracle & The Sleeper" с "Images & Words".

Остается добавить, что помимо своей основной деятельности, все пятеро членов Dream Theater время от времени записывают альбомы со своими сторонними проектами:

Liquid Tension Experiment -Петручи/Портной/Радесс
Mullmuzzler -Ля Бри
Platypus -Шериниан/ Маянг
Planet X -Шериниан
принимают участие в записи трибьютов:
"Working Man - Rush Tribute" -Ля Бри/Петручи/Портной
"Dragon Attack -A Tribute To Queen" -Ля Бри/Петручи
"Encores, Legends & Paradox - E.L.P. Tribute" -Ля Бри/Портной
и "гостят" в разных других проектах:
Shadow Gallery -Ля Бри
Explorers Club -Ля Бри/Петруччи
Gordian Knot - Маянг, и др.

2007-по сей день

На сайте Майка Портного размещено объявление, что 26 января 2007 года группа окончила запись нового альбома под названием «Systematic Chaos». Группа начала запись 1 сентября 2006 года со звуковым инженером Полом Нортфилдом. 8 февраля Dream Theater анонсировала подписание контракта с Roadrunner Records. Через шесть дней после этого альбом был полностью сведён. Альбом вышел в свет 6 июня 2007 года. Часть тиража альбома была укомплектована DVD-диском, содержащем весь альбом «Systematic Chaos» в многоканальном формате 5.1, а так же полуторачасовой документальный фильм «Chaos In Progress: The Making of Systematic Chaos», повествующем о записи альбома.

Тур группы «Chaos in Motion» начался в Италии. Также Dream Theater сыграли на концерте Gods of Metal 3 июня 2007 года. Также группа выступила на фестивале Fields of Rock в Нидерландах 17 июня 2007 года и Hellfest Summer Open Air с такими группами как Megadeth, Korn, Mastodon и Slayer.

30 сентября 2008 года вышел DVD «Chaos In Motion 2007-2008», представляющий собой видеообзор прошедшего мирового турне группы. Впервые со времён «5 Years in a LIVEtime», этот DVD не является записью одного концерта, а состоит из разных концертных выступлений Dream Theater в различных точках мира и дополнен видеоклипами группы и различным закулисным материалом.

Начиная с Train of Thought группа вставляет небольшие скрытые элементы в свою музыку, как пищу для размышлений для наиболее преданных своих фанатов. Наиболее известный скрытый элемент, который также называется «nugget», находится в песне «In the Name of God». В этой песне (а именно, с 5:50 по 6:07) скрыта знаменитая фраза Майка Портного «Eat my ass and balls», выполненная в коде Морзе. С тех пор фанаты Dream Theater упорно ищут эти маленькие особенности, которые обычно не пользуются особым интересом у людей, не очень сильно интересующихся творчеством группы.
Dream Theater - Discography on AH. Part 1: Studio Albums (1989 - 2011):

Dream Theater  - Discography on AH. Part 1: Studio Albums (1989 - 2011) Re-up

CD01: Dream Theater - When Dream And Day Unite (1989) [MCA, MCD42259 MCAD42259]
Progressive Metal | EAC Rip | Flac(Image) + Cue + Log & MP3 CBR 320Kbps
Scans | MCA, MCD42259 MCAD42259 | ~ 357 or 130 Mb

Dream Theater  - Discography on AH. Part 1: Studio Albums (1989 - 2011) Re-up

Tracklist:

01. A Fortune in Lies (05:11)
02. Status Seeker (04:18)
03. The Ytse Jam (05:42)
04. The Killing Hand (08:46)
05. Light Fuse and Get Away (07:24)
06. Afterlife (05:28)
07. The Ones Who Help to Set the Sun (08:04)
08. Only a Matter of Time (06:37)

Exact Audio Copy V1.0 beta 1 from 15. November 2010

EAC extraction logfile from 19. December 2010, 18:19

Dream Theater / When Dream and Day Unite

Used drive : LITE-ON DVDRW LH-20A1L Adapter: 4 ID: 0

Read mode : Secure
Utilize accurate stream : Yes
Defeat audio cache : Yes
Make use of C2 pointers : No

Read offset correction : 6
Overread into Lead-In and Lead-Out : No
Fill up missing offset samples with silence : Yes
Delete leading and trailing silent blocks : No
Null samples used in CRC calculations : Yes
Used interface : Installed external ASPI interface

Used output format : Internal WAV Routines
Sample format : 44.100 Hz; 16 Bit; Stereo


TOC of the extracted CD

Track | Start | Length | Start sector | End sector
––––––––––––––––––––––––––––-
1 | 0:00.00 | 5:12.65 | 0 | 23464
2 | 5:12.65 | 4:17.17 | 23465 | 42756
3 | 9:30.07 | 5:46.63 | 42757 | 68769
4 | 15:16.70 | 8:41.67 | 68770 | 107911
5 | 23:58.62 | 7:23.60 | 107912 | 141196
6 | 31:22.47 | 5:26.73 | 141197 | 165719
7 | 36:49.45 | 8:05.00 | 165720 | 202094
8 | 44:54.45 | 6:35.52 | 202095 | 231771


Range status and errors

Selected range

Filename Z:\data\mp3\Seeding\Dream Theater\Albums\1989-When Dream And Day Unite\wdadu.wav

Peak level 98.9 %
Extraction speed 0.6 X
Range quality 100.0 %
Test CRC CFFBD264
Copy CRC CFFBD264
Copy OK

No errors occurred


AccurateRip summary

Track 1 accurately ripped (confidence 42) [A039DC2D]
Track 2 accurately ripped (confidence 42) [A2E026E4]
Track 3 accurately ripped (confidence 41) [8EC3C99B]
Track 4 accurately ripped (confidence 40) [4074206B]
Track 5 accurately ripped (confidence 41) [F2DE9917]
Track 6 accurately ripped (confidence 41) [E1572E1F]
Track 7 accurately ripped (confidence 41) [FB9F6217]
Track 8 accurately ripped (confidence 40) [2725903E]

All tracks accurately ripped

End of status report

AUDIOCHECKER v2.0 beta (build 457) - by Dester - opdester@freemail.hu
~~~~~~~~~~~~~~~~~~~~~~~~~~~~~~~~~~
-=== DO NOT EDIT THIS FILE! ===-

Path: …\1989 - When Dream and Day Unite (MCA, MCD42259 MCAD42259)

1 -=- wdadu.flac -=- CDDA (100%)

115787764

[Verification date: 24.07.2011 12:13:26]
[Disc ID: 000f0288-00663afc-650c1208]
Track [ CRC ] Status
01 [a039dc2d] (42/251) Accurately ripped as in pressing(s) #3
02 [a2e026e4] (42/250) Accurately ripped as in pressing(s) #3
03 [8ec3c99b] (41/248) Accurately ripped as in pressing(s) #3
04 [4074206b] (40/249) Accurately ripped as in pressing(s) #3
05 [f2de9917] (41/250) Accurately ripped as in pressing(s) #3
06 [e1572e1f] (41/253) Accurately ripped as in pressing(s) #3
07 [fb9f6217] (41/249) Accurately ripped as in pressing(s) #3
08 [2725903e] (40/244) Accurately ripped as in pressing(s) #3
Offsetted by -725:
01 [6a6e94b6] (17/251) Partial match to pressing(s) #4
02 [8db7a635] (17/250) Accurately ripped as in pressing(s) #4
03 [df0a4462] (14/248) Accurately ripped as in pressing(s) #4
04 [5b11f592] (17/249) Accurately ripped as in pressing(s) #4
05 [9f5323a2] (17/250) Accurately ripped as in pressing(s) #4
06 [5218f4af] (17/253) Accurately ripped as in pressing(s) #4
07 [0a836dfe] (17/249) Accurately ripped as in pressing(s) #4
08 [bfb38d16] (16/244) Accurately ripped as in pressing(s) #4
Offsetted by 17:
01 [9167aa22] (45/251) Partial match to pressing(s) #2
02 [39ba909a] (46/250) Accurately ripped as in pressing(s) #2
03 [4efe6454] (46/248) Accurately ripped as in pressing(s) #2
04 [fd019f07] (46/249) Accurately ripped as in pressing(s) #2
05 [b27570c3] (46/250) Accurately ripped as in pressing(s) #2
06 [a74ad1be] (47/253) Accurately ripped as in pressing(s) #2
07 [2bdb8371] (46/249) Accurately ripped as in pressing(s) #2
08 [737bdbd3] (47/244) Accurately ripped as in pressing(s) #2
Offsetted by 681:
01 [72096cb4] (09/251) Partial match to pressing(s) #5
02 [21e0fdf9] (05/250) Accurately ripped as in pressing(s) #7
03 [527223e1] (05/248) Accurately ripped as in pressing(s) #7
04 [9d5eba9d] (05/249) Accurately ripped as in pressing(s) #7
05 [d5a7928c] (05/250) Accurately ripped as in pressing(s) #7
06 [4c811eaa] (06/253) Accurately ripped as in pressing(s) #7
07 [d2b84262] (05/249) Accurately ripped as in pressing(s) #7
08 [1835b609] (06/244) Accurately ripped as in pressing(s) #7
Offsetted by 2271:
01 [0d6189a5] (118/251) Partial match to pressing(s) #1
02 [22c61e99] (116/250) Accurately ripped as in pressing(s) #1
03 [c2a70a6b] (118/248) Accurately ripped as in pressing(s) #1
04 [8eb116fe] (117/249) Accurately ripped as in pressing(s) #1
05 [5136c147] (117/250) Accurately ripped as in pressing(s) #1
06 [70b7ca40] (118/253) Accurately ripped as in pressing(s) #1
07 [26553197] (116/249) Accurately ripped as in pressing(s) #1
08 [02f16e42] (110/244) Partial match to pressing(s) #1

Track [ CRC32 ] [W/O NULL] [ LOG ]
– [CFFBD264] [426C6C5F] CRC32
01 [55BE12FA] [EB8C3BC7]
02 [31B68D27] [A21A08AD]
03 [1837FA58] [7161631C]
04 [8790F90F] [F20DD540]
05 [BCF18251] [E713974A]
06 [6725A216] [B0FC3940]
07 [70E953D1] [80292078]
08 [79DA4833] [327715EE]


Also available on AH:

Dream Theater - When Dream and Day Unite (1989) [Remastered Digipack Numbered Limited Edition, 2002] - Flac, MP3 and Scans by evaristegalois


=================================

Dream Theater  - Discography on AH. Part 1: Studio Albums (1989 - 2011) Re-up

CD02: Dream Theater - Images And Words (1992) [ATCO, 792148-2] Repost
Progressive Metal | EAC Rip | Flac(Image) + Cue + Log & MP3 CBR 320Kbps
Scans | ATCO, 792148-2 | ~ 426 or 147 Mb

Dream Theater  - Discography on AH. Part 1: Studio Albums (1989 - 2011) Re-up

Tracklist:

01. Pull Me Under (08:12)
02. Another Day (04:25)
03. Take the Time (08:21)
04. Surrounded (05:29)
05. Metropolis, Pt. I: The Miracle and the Sleeper (09:32)
06. Under a Glass Moon (07:05)
07. Wait For Sleep (02:32)
08. Learning to Live (11:30)

Exact Audio Copy V1.0 beta 1 from 15. November 2010

EAC extraction logfile from 19. December 2010, 18:39

Dream Theater / Images and Words

Used drive : LITE-ON DVDRW LH-20A1L Adapter: 4 ID: 0

Read mode : Secure
Utilize accurate stream : Yes
Defeat audio cache : Yes
Make use of C2 pointers : No

Read offset correction : 6
Overread into Lead-In and Lead-Out : No
Fill up missing offset samples with silence : Yes
Delete leading and trailing silent blocks : No
Null samples used in CRC calculations : Yes
Used interface : Installed external ASPI interface

Used output format : Internal WAV Routines
Sample format : 44.100 Hz; 16 Bit; Stereo


TOC of the extracted CD

Track | Start | Length | Start sector | End sector
––––––––––––––––––––––––––––-
1 | 0:00.32 | 8:13.70 | 32 | 37076
2 | 8:14.27 | 4:23.35 | 37077 | 56836
3 | 12:37.62 | 8:21.13 | 56837 | 94424
4 | 20:59.00 | 5:30.05 | 94425 | 119179
5 | 26:29.05 | 9:32.10 | 119180 | 162089
6 | 36:01.15 | 7:03.30 | 162090 | 193844
7 | 43:04.45 | 2:31.65 | 193845 | 205234
8 | 45:36.35 | 11:30.17 | 205235 | 257001


Range status and errors

Selected range

Filename Z:\data\mp3\Seeding\Dream Theater\Albums\1992-Images And Words\iaw.wav

Peak level 100.0 %
Extraction speed 1.7 X
Range quality 99.9 %
Test CRC 01F1CA4A
Copy CRC 01F1CA4A
Copy OK

No errors occurred


AccurateRip summary

Track 1 accurately ripped (confidence 60) [7DAC23D8]
Track 2 accurately ripped (confidence 59) [5B0ED1AC]
Track 3 accurately ripped (confidence 57) [F839F79F]
Track 4 accurately ripped (confidence 57) [D01FB2B4]
Track 5 accurately ripped (confidence 55) [07AF9D42]
Track 6 accurately ripped (confidence 55) [8E36CDFF]
Track 7 accurately ripped (confidence 58) [F3D75370]
Track 8 accurately ripped (confidence 55) [13BC1FEF]

All tracks accurately ripped

End of status report

AUDIOCHECKER v2.0 beta (build 457) - by Dester - opdester@freemail.hu
~~~~~~~~~~~~~~~~~~~~~~~~~~~~~~~~~~
-=== DO NOT EDIT THIS FILE! ===-

Path: …\1992 - Images and Words (ATCO, 792148-2)

1 -=- iaw.flac -=- CDDA (100%)

171176148

[Verification date: 24.07.2011 12:14:10]
[Disc ID: 00112d5b-00727b3a-790d6208]
Pregap length 00:00:32.
Track [ CRC ] Status
01 [7dac23d8] (65/161) Accurately ripped as in pressing(s) #1
02 [5b0ed1ac] (64/157) Accurately ripped as in pressing(s) #1
03 [f839f79f] (62/155) Accurately ripped as in pressing(s) #1
04 [d01fb2b4] (62/155) Accurately ripped as in pressing(s) #1
05 [07af9d42] (60/152) Accurately ripped as in pressing(s) #1
06 [8e36cdff] (59/150) Accurately ripped as in pressing(s) #1
07 [f3d75370] (63/155) Accurately ripped as in pressing(s) #1
08 [13bc1fef] (60/145) Accurately ripped as in pressing(s) #1
Offsetted by -1573:
01 [9a72e845] (51/161) Accurately ripped as in pressing(s) #2
02 [3ac5af5f] (49/157) Accurately ripped as in pressing(s) #2
03 [85099c47] (50/155) Accurately ripped as in pressing(s) #2
04 [eb3527af] (50/155) Accurately ripped as in pressing(s) #2
05 [c927762c] (50/152) Accurately ripped as in pressing(s) #2
06 [38d21587] (48/150) Accurately ripped as in pressing(s) #2
07 [497acde2] (48/155) Accurately ripped as in pressing(s) #2
08 [f9547ebd] (45/145) Accurately ripped as in pressing(s) #2
Offsetted by -1572:
01 [b78fe99c] (14/161) Accurately ripped as in pressing(s) #4
02 [e2b38b97] (14/157) Accurately ripped as in pressing(s) #4
03 [ddced3c1] (14/155) Accurately ripped as in pressing(s) #4
04 [acc9321a] (14/155) Accurately ripped as in pressing(s) #4
05 [b0aa3cbf] (14/152) Accurately ripped as in pressing(s) #3
06 [69f2a7b8] (14/150) Accurately ripped as in pressing(s) #4
07 [b3dd73b9] (14/155) Accurately ripped as in pressing(s) #4
08 [f617cf0d] (13/145) Accurately ripped as in pressing(s) #4
Offsetted by 6:
01 [2c5a2be2] (00/161) No matches
02 [557f5815] (00/157) No matches
03 [9e490e28] (00/155) No matches
04 [96b234f6] (00/155) No matches
05 [8588150c] (00/152) No matches
06 [76620dbb] (10/150) Partial match to pressing(s) #5
07 [b55e58c0] (00/155) No matches
08 [5cb20fce] (00/145) No matches
Offsetted by 144:
01 [ddfce4c8] (16/161) Accurately ripped as in pressing(s) #3
02 [21be50a4] (15/157) Accurately ripped as in pressing(s) #3
03 [d7d5c056] (14/155) Accurately ripped as in pressing(s) #3
04 [b77615f3] (14/155) Accurately ripped as in pressing(s) #3
05 [8991c5e8] (13/152) Accurately ripped as in pressing(s) #4
06 [ade52597] (14/150) Accurately ripped as in pressing(s) #3
07 [aac8387e] (15/155) Accurately ripped as in pressing(s) #3
08 [47aa5211] (13/145) Accurately ripped as in pressing(s) #3

Track [ CRC32 ] [W/O NULL] [ LOG ]
– [01F1CA4A] [5BAE4F85] CRC32
01 [944D172D] [538016D3]
02 [34B4018C] [367D4E09]
03 [D11E0C3A] [E4DA81D0]
04 [D0AE4FE1] [B4319F67]
05 [77664719] [DE48ED4F]
06 [E75D6B30] [B80E605B]
07 [F99E406F] [402C908E]
08 [008243F5] [61DC5154]

=================================

Dream Theater  - Discography on AH. Part 1: Studio Albums (1989 - 2011) Re-up

CD03 - 04: Dream Theater - Awake (1994) [Japanese Press, EastWest Records, AMCY-750]
Progressive Metal | EAC Rip & MP3 CBR 320Kbps
Scans | EastWest Records, AMCY-750 | ~ 614 or 209 Mb

Dream Theater  - Discography on AH. Part 1: Studio Albums (1989 - 2011) Re-up

Tracklist CD:

01. 6:00 (05:32)
02. Caught In A Web (05:28)
03. Innocence Faded (05:43)
04. Erotomania (06:45)
05. Voices (09:53)
06. The Silent Man (03:47)
07. The Mirror (06:47)
08. Lie (06:34)
09. Lifting Shadows Off A Dream (06:05)
10. Scarred (10:59)
11. Space Dye Vest (07:30)

Exact Audio Copy V1.0 beta 1 from 15. November 2010

EAC extraction logfile from 19. December 2010, 22:27

Dream Theater / Awake

Used drive : LITE-ON DVDRW LH-20A1L Adapter: 4 ID: 0

Read mode : Secure
Utilize accurate stream : Yes
Defeat audio cache : Yes
Make use of C2 pointers : No

Read offset correction : 6
Overread into Lead-In and Lead-Out : No
Fill up missing offset samples with silence : Yes
Delete leading and trailing silent blocks : No
Null samples used in CRC calculations : Yes
Used interface : Installed external ASPI interface

Used output format : Internal WAV Routines
Sample format : 44.100 Hz; 16 Bit; Stereo


TOC of the extracted CD

Track | Start | Length | Start sector | End sector
––––––––––––––––––––––––––––-
1 | 0:00.32 | 5:31.70 | 32 | 24926
2 | 5:32.27 | 5:28.20 | 24927 | 49546
3 | 11:00.47 | 5:42.40 | 49547 | 75236
4 | 16:43.12 | 6:44.45 | 75237 | 105581
5 | 23:27.57 | 9:53.35 | 105582 | 150091
6 | 33:21.17 | 3:47.70 | 150092 | 167186
7 | 37:09.12 | 6:45.48 | 167187 | 197609
8 | 43:54.60 | 6:33.40 | 197610 | 227124
9 | 50:28.25 | 6:05.10 | 227125 | 254509
10 | 56:33.35 | 10:59.15 | 254510 | 303949
11 | 67:32.50 | 7:29.40 | 303950 | 337664


Range status and errors

Selected range

Filename Z:\data\mp3\Seeding\Dream Theater\Albums\1994-Awake Japan\awakejpn1.wav

Peak level 100.0 %
Extraction speed 0.4 X
Range quality 100.0 %
Test CRC 0E95606E
Copy CRC 0E95606E
Copy OK

No errors occurred


AccurateRip summary

Track 1 accurately ripped (confidence 15) [C37F77F0]
Track 2 accurately ripped (confidence 15) [A9092C94]
Track 3 accurately ripped (confidence 15) [9B14E84D]
Track 4 accurately ripped (confidence 15) [A5176087]
Track 5 accurately ripped (confidence 15) [592CC838]
Track 6 accurately ripped (confidence 15) [651DF205]
Track 7 accurately ripped (confidence 15) [5B0FD219]
Track 8 accurately ripped (confidence 15) [6D98D04C]
Track 9 accurately ripped (confidence 15) [21EA1555]
Track 10 accurately ripped (confidence 15) [F5689B86]
Track 11 accurately ripped (confidence 15) [F04C7AAF]

All tracks accurately ripped

End of status report

Dream Theater  - Discography on AH. Part 1: Studio Albums (1989 - 2011) Re-up

Tracklist Bonus CD:

01. Eve (05:05)

Exact Audio Copy V1.0 beta 1 from 15. November 2010

EAC extraction logfile from 20. December 2010, 14:16

Dream Theater / Awake (Bonus Disc)

Used drive : LITE-ON DVDRW LH-20A1L Adapter: 4 ID: 0

Read mode : Secure
Utilize accurate stream : Yes
Defeat audio cache : Yes
Make use of C2 pointers : No

Read offset correction : 6
Overread into Lead-In and Lead-Out : No
Fill up missing offset samples with silence : Yes
Delete leading and trailing silent blocks : No
Null samples used in CRC calculations : Yes
Used interface : Installed external ASPI interface

Used output format : Internal WAV Routines
Sample format : 44.100 Hz; 16 Bit; Stereo


TOC of the extracted CD

Track | Start | Length | Start sector | End sector
––––––––––––––––––––––––––––-
1 | 0:00.32 | 5:04.55 | 32 | 22886


Range status and errors

Selected range

Filename Z:\data\mp3\Seeding\Dream Theater\Albums\1994-Awake Japan\awakejpn2.wav

Peak level 99.8 %
Extraction speed 1.6 X
Range quality 99.9 %
Test CRC 0D3B20EA
Copy CRC 0D3B20EA
Copy OK

No errors occurred


AccurateRip summary

Track 1 accurately ripped (confidence 2) [E8DD76B0]

All tracks accurately ripped

End of status report

Also available on AH:

Dream Theater - Awake [1994] - Flac, MP3 and Scans (East West Records, 7567-90126-2) by evaristegalois


=================================

Dream Theater  - Discography on AH. Part 1: Studio Albums (1989 - 2011) Re-up

CD05 - 06: Dream Theater - Falling Into Infinity (1997) [Japanese Press, EastWest Records, AMCY-2315]
Progressive Metal | EAC Rip | Flac(Image) + Cue + Log & MP3 CBR 320Kbps
Scans Included | EastWest Records, AMCY-2315 | ~ 714 or 233 Mb

Dream Theater  - Discography on AH. Part 1: Studio Albums (1989 - 2011) Re-up

Tracklist:

01. New Millennium (08:21)
02. You Not Me (04:58)
03. Peruvian Skies (06:43)
04. Hollow Years (05:54)
05. Burning My Soul (05:29)
06. Hell's Kitchen (04:17)
07. Lines In The Sand (12:05)
08. Take Away My Pain (06:04)
09. Just Let Me Breathe (05:28)
10. Anna Lee (05:53)
11. Trial Of Tears (I: It's Raining; II: Deep In Heaven; III: The Wasteland) (13:07)

Exact Audio Copy V1.0 beta 1 from 15. November 2010

EAC extraction logfile from 19. December 2010, 22:27

Dream Theater / Falling Into Infinity

Used drive : PLEXTOR CD-R PX-240A Adapter: 1 ID: 1

Read mode : Secure
Utilize accurate stream : Yes
Defeat audio cache : Yes
Make use of C2 pointers : No

Read offset correction : 6
Overread into Lead-In and Lead-Out : No
Fill up missing offset samples with silence : Yes
Delete leading and trailing silent blocks : No
Null samples used in CRC calculations : Yes
Used interface : Installed external ASPI interface

Used output format : Internal WAV Routines
Sample format : 44.100 Hz; 16 Bit; Stereo


TOC of the extracted CD

Track | Start | Length | Start sector | End sector
––––––––––––––––––––––––––––-
1 | 0:00.00 | 8:20.48 | 0 | 37547
2 | 8:20.48 | 4:58.65 | 37548 | 59962
3 | 13:19.38 | 6:43.02 | 59963 | 90189
4 | 20:02.40 | 5:53.53 | 90190 | 116717
5 | 25:56.18 | 5:29.12 | 116718 | 141404
6 | 31:25.30 | 4:16.63 | 141405 | 160667
7 | 35:42.18 | 12:05.45 | 160668 | 215087
8 | 47:47.63 | 6:03.07 | 215088 | 242319
9 | 53:50.70 | 5:28.60 | 242320 | 266979
10 | 59:19.55 | 5:51.38 | 266980 | 293342
11 | 65:11.18 | 13:06.50 | 293343 | 352342


Range status and errors

Selected range

Filename Z:\data\mp3\Seeding\Dream Theater\Albums\1997-Falling Into Infinity Japan\fiijpn1.wav

Peak level 100.0 %
Extraction speed 1.1 X
Range quality 100.0 %
Test CRC 12F3AD54
Copy CRC 12F3AD54
Copy OK

No errors occurred


AccurateRip summary

Track 1 accurately ripped (confidence 6) [0A280B9C]
Track 2 accurately ripped (confidence 6) [EB05A1D0]
Track 3 accurately ripped (confidence 6) [01417911]
Track 4 accurately ripped (confidence 6) [44F6FE46]
Track 5 accurately ripped (confidence 6) [7AC19C86]
Track 6 accurately ripped (confidence 6) [6B6EE37E]
Track 7 accurately ripped (confidence 6) [5E772DA7]
Track 8 accurately ripped (confidence 6) [F2963975]
Track 9 accurately ripped (confidence 6) [16965868]
Track 10 accurately ripped (confidence 6) [713588B6]
Track 11 accurately ripped (confidence 6) [A6C64C3B]

All tracks accurately ripped

End of status report

AUDIOCHECKER v2.0 beta (build 457) - by Dester - opdester@freemail.hu
~~~~~~~~~~~~~~~~~~~~~~~~~~~~~~~~~~
-=== DO NOT EDIT THIS FILE! ===-

Path: …\1997 - Falling Into Infinity (AMCY-2315)

1 -=- fiijpn1.flac -=- CDDA (100%)

64314516

[Verification date: 24.07.2011 12:15:00]
[Disc ID: 001e28f6-01066e7b-9112590b]
Track [ CRC ] Status
01 [0a280b9c] (07/12) Accurately ripped as in pressing(s) #1
02 [eb05a1d0] (07/12) Accurately ripped as in pressing(s) #1
03 [01417911] (07/12) Accurately ripped as in pressing(s) #1
04 [44f6fe46] (07/12) Accurately ripped as in pressing(s) #1
05 [7ac19c86] (07/12) Accurately ripped as in pressing(s) #1
06 [6b6ee37e] (07/12) Accurately ripped as in pressing(s) #1
07 [5e772da7] (07/12) Accurately ripped as in pressing(s) #1
08 [f2963975] (07/12) Accurately ripped as in pressing(s) #1
09 [16965868] (06/11) Accurately ripped as in pressing(s) #1
10 [713588b6] (07/12) Accurately ripped as in pressing(s) #1
11 [a6c64c3b] (07/12) Accurately ripped as in pressing(s) #1
Offsetted by -340:
01 [8ffeedb4] (05/12) Accurately ripped as in pressing(s) #2
02 [9be3feb4] (05/12) Accurately ripped as in pressing(s) #2
03 [915c33f1] (05/12) Accurately ripped as in pressing(s) #2
04 [d202bbf6] (05/12) Accurately ripped as in pressing(s) #2
05 [63b0682d] (05/12) Accurately ripped as in pressing(s) #2
06 [a9246c9d] (05/12) Accurately ripped as in pressing(s) #2
07 [543b5709] (05/12) Accurately ripped as in pressing(s) #2
08 [7ca61683] (05/12) Accurately ripped as in pressing(s) #2
09 [fa387b62] (05/11) Accurately ripped as in pressing(s) #2
10 [d15bf376] (05/12) Accurately ripped as in pressing(s) #2
11 [a64907af] (05/12) Accurately ripped as in pressing(s) #2

Track [ CRC32 ] [W/O NULL] [ LOG ]
– [12F3AD54] [8ED7D7B7] CRC32
01 [1718FCF2] [6F9CA9E6]
02 [BEE02542] [FAD0B6F8]
03 [2CD4810F] [585D0975]
04 [B0ECC3A0] [B89B67A8]
05 [368A4947] [98EAF59A]
06 [30BC2A94] [7707D486]
07 [2E115F87] [967DB334]
08 [064D2326] [200F6569]
09 [6A76DF9E] [AFEE9268]
10 [5AC5312B] [A85F24C5]
11 [3B9B8973] [628C40A8]

Dream Theater  - Discography on AH. Part 1: Studio Albums (1989 - 2011) Re-up

Tracklist Bonus CD:

01. Take Away My Pain (DEMO) (06:50)
02. Speak To Me (DEMO) (06:12)

Exact Audio Copy V1.0 beta 1 from 15. November 2010

EAC extraction logfile from 20. December 2010, 14:16

DREAM THEATER / Falling Into Infinity (Bonus CD)

Used drive : PLEXTOR CD-R PX-240A Adapter: 1 ID: 1

Read mode : Secure
Utilize accurate stream : Yes
Defeat audio cache : Yes
Make use of C2 pointers : No

Read offset correction : 6
Overread into Lead-In and Lead-Out : No
Fill up missing offset samples with silence : Yes
Delete leading and trailing silent blocks : No
Null samples used in CRC calculations : Yes
Used interface : Installed external ASPI interface

Used output format : Internal WAV Routines
Sample format : 44.100 Hz; 16 Bit; Stereo


TOC of the extracted CD

Track | Start | Length | Start sector | End sector
––––––––––––––––––––––––––––-
1 | 0:00.00 | 6:51.22 | 0 | 30846
2 | 6:51.22 | 6:11.40 | 30847 | 58711


Range status and errors

Selected range

Filename Z:\data\mp3\Seeding\Dream Theater\Albums\1997-Falling Into Infinity Japan\fiijpn2.wav

Peak level 100.0 %
Extraction speed 1.6 X
Range quality 100.0 %
Test CRC 7EB19FB9
Copy CRC 7EB19FB9
Copy OK

No errors occurred


AccurateRip summary

Track 1 accurately ripped (confidence 3) [79974BCB]
Track 2 accurately ripped (confidence 3) [271A22C9]

All tracks accurately ripped

End of status report

AUDIOCHECKER v2.0 beta (build 457) - by Dester - opdester@freemail.hu
~~~~~~~~~~~~~~~~~~~~~~~~~~~~~~~~~~
-=== DO NOT EDIT THIS FILE! ===-

Path: …\1997 - Falling Into Infinity (Bonus CD)

1 -=- fiijpn2.flac -=- CDDA (100%)

64269460

[Verification date: 06.09.2011 15:54:10]
[Disc ID: 00015dd7-0003a107-0a030e02]
Track [ CRC ] Status
01 [79974bcb] (03/07) Accurately ripped as in pressing(s) #1
02 [271a22c9] (03/07) Accurately ripped as in pressing(s) #1
Offsetted by -69:
01 [d19c472b] (02/07) Accurately ripped as in pressing(s) #2
02 [1790ea7b] (02/07) Accurately ripped as in pressing(s) #2

Track [ CRC32 ] [W/O NULL] [ LOG ]
– [7EB19FB9] [2BF0CA13] CRC32
01 [E2B9EC43] [A5004BC2]
02 [D2CBFEF8] [0CDFDBA1]

Also available on AH:

Dream Theater - Falling into Infinity (1997) - Flac and Scans (East West Records, 7559-62060-2) by honorthyfather


=================================

Dream Theater  - Discography on AH. Part 1: Studio Albums (1989 - 2011) Re-up

CD07: Dream Theater - Metropolis Pt. 2 Scenes From A Memory (1999) [Elektra, 7559-62448-2]
Progressive Metal | EAC Rip | Flac(Image) + Cue + Log & MP3 CBR 320Kbps
Scans Included | Elektra, 7559-62448-2 | ~ 553 or 188 Mb

Dream Theater  - Discography on AH. Part 1: Studio Albums (1989 - 2011) Re-up

Tracklist:

01. Act I - Scene One: Regression (02:07)
02. Act I - Scene Two: I. Overture 1928 (03:38)
03. Act I - Scene Two: II. Strange Deja Vu (05:12)
04. Act I - Scene Three: I. Through My Words (01:02)
05. Act I - Scene Three: II. Fatal Tragedy (06:49)
06. Act I - Scene Four: Beyond This Life (11:23)
07. Act I - Scene Five: Through Her Eyes (05:29)
08. Act II - Scene Six: Home (12:53)
09. Act II - Scene Seven: I. The Dance Of Eternity (06:14)
10. Act II - Scene Seven: II. One Last Time (03:47)
11. Act II - Scene Eight: The Spirit Carries On (06:38)
12. Act II - Scene Nine: Finally Free (12:00)

Exact Audio Copy V1.0 beta 1 from 15. November 2010

EAC extraction logfile from 19. December 2010, 20:38

Dream Theater / Metropolis Pt. 2 : Scenes From A Memory

Used drive : PLEXTOR CD-R PX-240A Adapter: 1 ID: 1

Read mode : Secure
Utilize accurate stream : Yes
Defeat audio cache : Yes
Make use of C2 pointers : No

Read offset correction : 6
Overread into Lead-In and Lead-Out : No
Fill up missing offset samples with silence : Yes
Delete leading and trailing silent blocks : No
Null samples used in CRC calculations : Yes
Used interface : Installed external ASPI interface

Used output format : Internal WAV Routines
Sample format : 44.100 Hz; 16 Bit; Stereo


TOC of the extracted CD

Track | Start | Length | Start sector | End sector
––––––––––––––––––––––––––––-
1 | 0:00.00 | 2:06.50 | 0 | 9499
2 | 2:06.50 | 3:37.67 | 9500 | 25841
3 | 5:44.42 | 5:12.23 | 25842 | 49264
4 | 10:56.65 | 1:02.12 | 49265 | 53926
5 | 11:59.02 | 6:49.30 | 53927 | 84631
6 | 18:48.32 | 11:22.53 | 84632 | 135834
7 | 30:11.10 | 5:29.20 | 135835 | 160529
8 | 35:40.30 | 12:53.27 | 160530 | 218531
9 | 48:33.57 | 6:13.53 | 218532 | 246559
10 | 54:47.35 | 3:46.55 | 246560 | 263564
11 | 58:34.15 | 6:38.20 | 263565 | 293434
12 | 65:12.35 | 11:59.52 | 293435 | 347411


Range status and errors

Selected range

Filename Z:\data\mp3\Seeding\Dream Theater\Albums\1999-Metropolis Pt. 2 Scenes From A Memory\sfam.wav

Peak level 100.0 %
Extraction speed 1.5 X
Range quality 100.0 %
Test CRC 04ECA188
Copy CRC 04ECA188
Copy OK

No errors occurred


AccurateRip summary

Track 1 accurately ripped (confidence 3) [2ED497D3]
Track 2 accurately ripped (confidence 3) [937F497C]
Track 3 accurately ripped (confidence 3) [A2B3C90F]
Track 4 accurately ripped (confidence 3) [772D2B1B]
Track 5 accurately ripped (confidence 3) [BAAA360A]
Track 6 accurately ripped (confidence 3) [CEE516B8]
Track 7 accurately ripped (confidence 3) [C2EA0CEB]
Track 8 accurately ripped (confidence 3) [21AC46A1]
Track 9 accurately ripped (confidence 3) [935E9ACD]
Track 10 accurately ripped (confidence 3) [02318A7E]
Track 11 accurately ripped (confidence 3) [FD2CFC01]
Track 12 accurately ripped (confidence 3) [CC41941B]

All tracks accurately ripped

End of status report

AUDIOCHECKER v2.0 beta (build 457) - by Dester - opdester@freemail.hu
~~~~~~~~~~~~~~~~~~~~~~~~~~~~~~~~~~
-=== DO NOT EDIT THIS FILE! ===-

Path: …\1999 - Metropolis Pt. 2 Scenes From A Memory (Elektra 7559-62448-2)

1 -=- sfam.flac -=- CDDA (100%)

139087988

[Verification date: 24.07.2011 12:15:44]
[Disc ID: 001cd30b-011cf64e-9912180c]
Track [ CRC ] Status
01 [2ed497d3] (200/272) Accurately ripped as in pressing(s) #1
02 [937f497c] (200/269) Accurately ripped as in pressing(s) #1
03 [a2b3c90f] (200/271) Accurately ripped as in pressing(s) #1
04 [772d2b1b] (200/270) Accurately ripped as in pressing(s) #1
05 [baaa360a] (200/273) Accurately ripped as in pressing(s) #1
06 [cee516b8] (200/269) Accurately ripped as in pressing(s) #1
07 [c2ea0ceb] (200/268) Accurately ripped as in pressing(s) #1
08 [21ac46a1] (200/266) Accurately ripped as in pressing(s) #1
09 [935e9acd] (200/269) Accurately ripped as in pressing(s) #1
10 [02318a7e] (200/271) Accurately ripped as in pressing(s) #1
11 [fd2cfc01] (200/267) Accurately ripped as in pressing(s) #1
12 [cc41941b] (200/267) Accurately ripped as in pressing(s) #1
Offsetted by -1961:
01 [4adc7348] (00/272) No matches
02 [b39e0dbc] (00/269) No matches
03 [214c7751] (00/271) No matches
04 [6fe3714e] (02/270) Partial match to pressing(s) #6
05 [5341c828] (02/273) Partial match to pressing(s) #6
06 [6dc943f2] (00/269) No matches
07 [56608675] (00/268) No matches
08 [87c689fc] (00/266) No matches
09 [e8c4f75c] (00/269) No matches
10 [7a8a4db3] (00/271) No matches
11 [cbb6620d] (00/267) No matches
12 [719934b8] (00/267) No matches
Offsetted by -681:
01 [ec048e67] (05/272) Accurately ripped as in pressing(s) #5
02 [e837c04f] (05/269) Accurately ripped as in pressing(s) #5
03 [e2a7e7f8] (05/271) Accurately ripped as in pressing(s) #5
04 [0bb47564] (05/270) Accurately ripped as in pressing(s) #5
05 [1e0941c4] (05/273) Accurately ripped as in pressing(s) #5
06 [97a6cb1c] (05/269) Accurately ripped as in pressing(s) #5
07 [fe0b7bec] (05/268) Accurately ripped as in pressing(s) #5
08 [b0d0bc2f] (04/266) Accurately ripped as in pressing(s) #5
09 [d5a7b5d3] (05/269) Accurately ripped as in pressing(s) #5
10 [76d999bb] (05/271) Accurately ripped as in pressing(s) #5
11 [18984142] (04/267) Accurately ripped as in pressing(s) #5
12 [167aed14] (04/267) Accurately ripped as in pressing(s) #5
Offsetted by -659:
01 [8061a225] (02/272) Accurately ripped as in pressing(s) #6
02 [59c0bec5] (02/269) Accurately ripped as in pressing(s) #6
03 [cd08c278] (02/271) Accurately ripped as in pressing(s) #6
04 [19562f11] (02/270) Accurately ripped as in pressing(s) #6
05 [33e592c1] (02/273) Accurately ripped as in pressing(s) #6
06 [5d35bd0d] (02/269) Accurately ripped as in pressing(s) #6
07 [6020a6e5] (02/268) Accurately ripped as in pressing(s) #6
08 [7c41ec6d] (02/266) Accurately ripped as in pressing(s) #6
09 [4b14a356] (02/269) Accurately ripped as in pressing(s) #6
10 [1721140e] (02/271) Accurately ripped as in pressing(s) #6
11 [d07869e1] (02/267) Accurately ripped as in pressing(s) #6
12 [8bb57d2b] (02/267) Accurately ripped as in pressing(s) #6
Offsetted by -18:
01 [6fb7e2c2] (27/272) Accurately ripped as in pressing(s) #3
02 [4ad2cfd1] (26/269) Accurately ripped as in pressing(s) #3
03 [e5641e99] (26/271) Accurately ripped as in pressing(s) #3
04 [5ae95149] (26/270) Accurately ripped as in pressing(s) #3
05 [923b3ac4] (26/273) Accurately ripped as in pressing(s) #3
06 [bacdbfca] (26/269) Accurately ripped as in pressing(s) #3
07 [20a03703] (26/268) Accurately ripped as in pressing(s) #3
08 [24766002] (26/266) Accurately ripped as in pressing(s) #3
09 [2d46da4b] (26/269) Accurately ripped as in pressing(s) #3
10 [9b542520] (26/271) Accurately ripped as in pressing(s) #3
11 [8637d724] (26/267) Accurately ripped as in pressing(s) #3
12 [d64b717c] (26/267) Accurately ripped as in pressing(s) #3
Offsetted by 6:
01 [216a438f] (02/272) Partial match to pressing(s) #6
02 [c0d23f85] (05/269) Partial match to pressing(s) #5
03 [ee6de896] (02/271) Partial match to pressing(s) #6
04 [6839dc50] (02/270) Partial match to pressing(s) #7
05 [633635d3] (02/273) Partial match to pressing(s) #7
06 [a6d6eae2] (02/269) Partial match to pressing(s) #6
07 [4b815d43] (05/268) Partial match to pressing(s) #5
08 [fff2aaed] (04/266) Partial match to pressing(s) #5
09 [809beef6] (05/269) Partial match to pressing(s) #5
10 [5dc6042d] (02/271) Accurately ripped as in pressing(s) #7
11 [cb52d3a0] (04/267) Partial match to pressing(s) #5
12 [e2c2b92c] (04/267) Partial match to pressing(s) #5
Offsetted by 18:
01 [3f425935] (02/272) Accurately ripped as in pressing(s) #7
02 [8b9f549c] (00/269) No matches
03 [750e0891] (02/271) Accurately ripped as in pressing(s) #7
04 [d1335774] (02/270) Accurately ripped as in pressing(s) #7
05 [411adcca] (02/273) Accurately ripped as in pressing(s) #7
06 [d081c7a5] (05/269) Partial match to pressing(s) #5
07 [d245cf0d] (00/268) No matches
08 [85f91821] (00/266) No matches
09 [9ae29ed4] (00/269) No matches
10 [c3a5908e] (00/271) No matches
11 [da660deb] (00/267) No matches
12 [54072261] (00/267) No matches

Track [ CRC32 ] [W/O NULL] [ LOG ]
– [04ECA188] [821BE247] CRC32
01 [0CC7DD39] [F210870E]
02 [A445A059] [231D673B]
03 [A81D76F2] [72686086]
04 [D2B0662A] [F5C5971F]
05 [30053D6E] [934E51B7]
06 [AA8228A1] [1A29B059]
07 [1B826FE7] [27209A14]
08 [0D4F4E48] [387ABBF6]
09 [7BFFCFFF] [ECD3ED76]
10 [AD71DD4B] [EED28AA4]
11 [625E65E9] [B45FE723]
12 [7D86D292] [9B58BEC1]

Also available on AH:

Dream Theater - Metropolis Pt. 2: Scenes from a Memory [2009 Japanese SHM-CD] - Flac without any covers by sancho69


=================================

Dream Theater  - Discography on AH. Part 1: Studio Albums (1989 - 2011) Re-up

CD08-09: Dream Theater - Six Degrees Of Inner Turbulence (2002) [Elektra, 7559-62742-2]
Progressive Metal | EAC Rip | Flac(Image) + Cue + Log & MP3 CBR 320Kbps
Scans Included | Elektra, 7559-62742-2 | ~ 721 or 248 Mb

Dream Theater  - Discography on AH. Part 1: Studio Albums (1989 - 2011) Re-up

Tracklist CD1:

01. The Glass Prison (13:53)
02. Blind Faith (10:21)
03. Misunderstood (09:33)
04. The Great Debate (13:46)
05. Disappear (06:46)

Exact Audio Copy V1.0 beta 1 from 15. November 2010

EAC extraction logfile from 21. December 2010, 12:51

Dream Theater / Six Degrees Of Inner Turbulence (disc 1)

Used drive : PLEXTOR CD-R PX-240A Adapter: 1 ID: 1

Read mode : Secure
Utilize accurate stream : Yes
Defeat audio cache : Yes
Make use of C2 pointers : No

Read offset correction : 6
Overread into Lead-In and Lead-Out : No
Fill up missing offset samples with silence : Yes
Delete leading and trailing silent blocks : No
Null samples used in CRC calculations : Yes
Used interface : Installed external ASPI interface

Used output format : Internal WAV Routines
Sample format : 44.100 Hz; 16 Bit; Stereo


TOC of the extracted CD

Track | Start | Length | Start sector | End sector
––––––––––––––––––––––––––––-
1 | 0:00.00 | 13:52.57 | 0 | 62456
2 | 13:52.57 | 10:21.18 | 62457 | 109049
3 | 24:14.00 | 9:32.47 | 109050 | 151996
4 | 33:46.47 | 13:45.63 | 151997 | 213934
5 | 47:32.35 | 6:45.72 | 213935 | 244381


Range status and errors

Selected range

Filename Z:\data\mp3\Seeding\Dream Theater\Albums\2002-Six Degrees Of Inner Turbulence\6doit1.wav

Peak level 100.0 %
Extraction speed 0.5 X
Range quality 100.0 %
Test CRC FEC3BC5A
Copy CRC FEC3BC5A
Copy OK

No errors occurred


AccurateRip summary

Track 1 accurately ripped (confidence 2) [84EB7B16]
Track 2 accurately ripped (confidence 2) [DCCB2211]
Track 3 accurately ripped (confidence 2) [963399B6]
Track 4 accurately ripped (confidence 2) [28898702]
Track 5 accurately ripped (confidence 2) [CC0D5492]

All tracks accurately ripped

End of status report

AUDIOCHECKER v2.0 beta (build 457) - by Dester - opdester@freemail.hu
~~~~~~~~~~~~~~~~~~~~~~~~~~~~~~~~~~
-=== DO NOT EDIT THIS FILE! ===-

Path: …\2002 - Six Degrees Of Inner Turbulence - cd 1

1 -=- 6doit1.flac -=- CDDA (100%)

206282660

[Verification date: 24.07.2011 12:16:19]
[Disc ID: 000bedfd-0036def4-400cba05]
Track [ CRC ] Status
01 [84eb7b16] (200/285) Accurately ripped as in pressing(s) #1
02 [dccb2211] (200/285) Accurately ripped as in pressing(s) #1
03 [963399b6] (200/284) Accurately ripped as in pressing(s) #1
04 [28898702] (200/284) Accurately ripped as in pressing(s) #1
05 [cc0d5492] (200/330) Accurately ripped as in pressing(s) #1
Offsetted by -1446:
01 [81b90f76] (02/285) Accurately ripped as in pressing(s) #9
02 [a6736bb7] (02/285) Accurately ripped as in pressing(s) #9
03 [3fdf07e4] (02/284) Accurately ripped as in pressing(s) #9
04 [42f05cd3] (02/284) Accurately ripped as in pressing(s) #9
05 [c9441891] (02/330) Accurately ripped as in pressing(s) #12
Offsetted by -1310:
01 [d04f1eb8] (04/285) Accurately ripped as in pressing(s) #7
02 [e672332d] (04/285) Accurately ripped as in pressing(s) #7
03 [f20a1922] (04/284) Accurately ripped as in pressing(s) #7
04 [a1130157] (04/284) Accurately ripped as in pressing(s) #7
05 [29f69127] (04/330) Accurately ripped as in pressing(s) #9
Offsetted by -830:
01 [b9312788] (15/285) Accurately ripped as in pressing(s) #4
02 [61dc516a] (14/285) Accurately ripped as in pressing(s) #4
03 [04a76b57] (14/284) Accurately ripped as in pressing(s) #4
04 [c84405b4] (14/284) Accurately ripped as in pressing(s) #4
05 [e1fdd474] (10/330) Accurately ripped as in pressing(s) #5
Offsetted by -664:
01 [d3b0f054] (06/285) Accurately ripped as in pressing(s) #6
02 [f2426767] (06/285) Accurately ripped as in pressing(s) #6
03 [236dc68b] (06/284) Accurately ripped as in pressing(s) #6
04 [e10fcaf5] (06/284) Accurately ripped as in pressing(s) #6
05 [cdf229a6] (05/330) Accurately ripped as in pressing(s) #8
Offsetted by -566:
01 [cb642e5c] (02/285) Accurately ripped as in pressing(s) #10
02 [897f9d4e] (02/285) Accurately ripped as in pressing(s) #10
03 [cc9e9bc5] (02/284) Accurately ripped as in pressing(s) #10
04 [47d1278f] (02/284) Accurately ripped as in pressing(s) #10
05 [bb3ec813] (04/330) Partial match to pressing(s) #9
Offsetted by -267:
01 [0ba2155a] (18/285) Accurately ripped as in pressing(s) #3
02 [1e9e40df] (18/285) Accurately ripped as in pressing(s) #3
03 [2aef44b6] (18/284) Accurately ripped as in pressing(s) #3
04 [31e32be7] (17/284) Accurately ripped as in pressing(s) #3
05 [dbf1b3e5] (15/330) Accurately ripped as in pressing(s) #4
Offsetted by -255:
01 [d75a4fae] (03/285) Accurately ripped as in pressing(s) #8
02 [01e78415] (03/285) Accurately ripped as in pressing(s) #8
03 [d330960d] (03/284) Accurately ripped as in pressing(s) #8
04 [cce1239b] (03/284) Accurately ripped as in pressing(s) #8
05 [78fe637c] (02/330) Accurately ripped as in pressing(s) #13
Offsetted by -19:
01 [2896c432] (07/285) Accurately ripped as in pressing(s) #5
02 [e4b653e6] (08/285) Accurately ripped as in pressing(s) #5
03 [0296c67d] (07/284) Accurately ripped as in pressing(s) #5
04 [db9b29eb] (08/284) Accurately ripped as in pressing(s) #5
05 [1eefbf2b] (08/330) Accurately ripped as in pressing(s) #6

Track [ CRC32 ] [W/O NULL] [ LOG ]
– [FEC3BC5A] [6BCE2BFB] CRC32
01 [E7E1932A] [10D8373F]
02 [E4C447FE] [F3116AC4]
03 [5BC51656] [1C882205]
04 [7A1DFFFB] [CF7E4210]
05 [F1AF9E52] [636AC9E4]

Dream Theater  - Discography on AH. Part 1: Studio Albums (1989 - 2011) Re-up

Tracklist CD2:

01. I. Overture (06:50)
02. II. About To Crash (05:51)
03. III. War Inside My Head (02:08)
04. IV. The Test That Stumped Them All (05:03)
05. V. Goodnight Kiss (06:17)
06. VI. Solitary Shell (05:48)
07. VII. About To Crash (Reprise) (04:05)
08. VIII. Losing Time, Grand Finale (05:59)

Exact Audio Copy V1.0 beta 1 from 15. November 2010

EAC extraction logfile from 21. December 2010, 12:51

Dream Theater / Six Degrees Of Inner Turbulence (Disc 2)

Used drive : LITE-ON DVDRW LH-20A1L Adapter: 4 ID: 0

Read mode : Secure
Utilize accurate stream : Yes
Defeat audio cache : Yes
Make use of C2 pointers : No

Read offset correction : 6
Overread into Lead-In and Lead-Out : No
Fill up missing offset samples with silence : Yes
Delete leading and trailing silent blocks : No
Null samples used in CRC calculations : Yes
Used interface : Installed external ASPI interface

Used output format : Internal WAV Routines
Sample format : 44.100 Hz; 16 Bit; Stereo


TOC of the extracted CD

Track | Start | Length | Start sector | End sector
––––––––––––––––––––––––––––-
1 | 0:00.00 | 6:50.35 | 0 | 30784
2 | 6:50.35 | 5:50.72 | 30785 | 57106
3 | 12:41.32 | 2:08.08 | 57107 | 66714
4 | 14:49.40 | 5:03.17 | 66715 | 89456
5 | 19:52.57 | 6:17.33 | 89457 | 117764
6 | 26:10.15 | 5:47.62 | 117765 | 143851
7 | 31:58.02 | 4:04.65 | 143852 | 162216
8 | 36:02.67 | 5:59.33 | 162217 | 189174


Range status and errors

Selected range

Filename Z:\data\mp3\Seeding\Dream Theater\Albums\2002-Six Degrees Of Inner Turbulence\6doit2.wav

Peak level 100.0 %
Extraction speed 0.8 X
Range quality 100.0 %
Test CRC FB1FAE9D
Copy CRC FB1FAE9D
Copy OK

No errors occurred


AccurateRip summary

Track 1 accurately ripped (confidence 76) [E0FCC344]
Track 2 accurately ripped (confidence 75) [17BA9BFF]
Track 3 accurately ripped (confidence 74) [76866AAF]
Track 4 accurately ripped (confidence 74) [ACDF2D5F]
Track 5 accurately ripped (confidence 73) [91C9C8F9]
Track 6 accurately ripped (confidence 74) [A9423815]
Track 7 accurately ripped (confidence 74) [9E4F824D]
Track 8 accurately ripped (confidence 74) [218BD325]

All tracks accurately ripped

End of status report

AUDIOCHECKER v2.0 beta (build 457) - by Dester - opdester@freemail.hu
~~~~~~~~~~~~~~~~~~~~~~~~~~~~~~~~~~
-=== DO NOT EDIT THIS FILE! ===-

Path: …\2002 - Six Degrees Of Inner Turbulence - cd 2

1 -=- 6doit2.flac -=- CDDA (100%)

204631972

[Verification date: 24.07.2011 12:16:50]
[Disc ID: 000d13f1-005660e6-6209da08]
Track [ CRC ] Status
01 [e0fcc344] (200/237) Accurately ripped as in pressing(s) #1
02 [17ba9bff] (200/236) Accurately ripped as in pressing(s) #1
03 [76866aaf] (200/237) Accurately ripped as in pressing(s) #1
04 [acdf2d5f] (200/237) Accurately ripped as in pressing(s) #1
05 [91c9c8f9] (200/237) Accurately ripped as in pressing(s) #1
06 [a9423815] (200/237) Accurately ripped as in pressing(s) #1
07 [9e4f824d] (200/237) Accurately ripped as in pressing(s) #1
08 [218bd325] (200/235) Accurately ripped as in pressing(s) #1
Offsetted by -1310:
01 [02426645] (04/237) Accurately ripped as in pressing(s) #4
02 [63cc5a11] (04/236) Accurately ripped as in pressing(s) #4
03 [64fa123e] (04/237) Accurately ripped as in pressing(s) #4
04 [ffd878ab] (04/237) Accurately ripped as in pressing(s) #4
05 [f2ec1f10] (04/237) Accurately ripped as in pressing(s) #4
06 [d887bb35] (04/237) Accurately ripped as in pressing(s) #4
07 [003db7e9] (04/237) Accurately ripped as in pressing(s) #4
08 [b790ba1e] (04/235) Accurately ripped as in pressing(s) #4
Offsetted by -664:
01 [bca6ac47] (06/237) Accurately ripped as in pressing(s) #3
02 [8f5aa40c] (06/236) Accurately ripped as in pressing(s) #3
03 [3009756e] (06/237) Accurately ripped as in pressing(s) #3
04 [7115575e] (06/237) Accurately ripped as in pressing(s) #3
05 [a9fee9b6] (06/237) Accurately ripped as in pressing(s) #3
06 [14848a70] (06/237) Accurately ripped as in pressing(s) #3
07 [647d3323] (06/237) Accurately ripped as in pressing(s) #3
08 [1c37b28d] (05/235) Accurately ripped as in pressing(s) #3
Offsetted by -566:
01 [3e6c853e] (02/237) Accurately ripped as in pressing(s) #5
02 [a0ec121c] (02/236) Accurately ripped as in pressing(s) #5
03 [82c9f89d] (02/237) Accurately ripped as in pressing(s) #5
04 [28cd8303] (02/237) Accurately ripped as in pressing(s) #5
05 [d0992d61] (02/237) Accurately ripped as in pressing(s) #5
06 [f3b7b0bb] (02/237) Accurately ripped as in pressing(s) #5
07 [e3b2f774] (02/237) Accurately ripped as in pressing(s) #5
08 [1c365f15] (02/235) Accurately ripped as in pressing(s) #5

Track [ CRC32 ] [W/O NULL] [ LOG ]
– [FB1FAE9D] [0B0256EA] CRC32
01 [07F04964] [4BA260EC]
02 [BFC0C192] [79C7A08A]
03 [EA77D175] [85BCC784]
04 [C2BD42B9] [2AE29206]
05 [29A40C7C] [7F1D16D2]
06 [A2580218] [CEDA5479]
07 [D919D0D8] [5EFC4989]
08 [0A2935DB] [C2763AEC]

=================================

Dream Theater  - Discography on AH. Part 1: Studio Albums (1989 - 2011) Re-up

Cd10: Dream Theater - Train Of Thought (2003) [Electra, CD 62891]
Progressive Metal | EAC Rip | MP3 CBR 320Kbps
Scans Included | Electra, CD 62891 | ~ 572 or 173 Mb

Dream Theater  - Discography on AH. Part 1: Studio Albums (1989 - 2011) Re-up

Tracklist:

01. As I Am (07:48)
02. This Dying Soul (11:24)
03. Endless Sacrifice (11:27)
04. Honor Thy Father (10:13)
05. Vacant (03:00)
06. Stream Of Consciousness (11:16)
07. In The Name Of God (14:15)

Exact Audio Copy V1.0 beta 1 from 15. November 2010

EAC extraction logfile from 21. December 2010, 21:20

Dream Theater / Train Of Thought

Used drive : LITE-ON DVDRW LH-20A1L Adapter: 4 ID: 0

Read mode : Secure
Utilize accurate stream : Yes
Defeat audio cache : Yes
Make use of C2 pointers : No

Read offset correction : 6
Overread into Lead-In and Lead-Out : No
Fill up missing offset samples with silence : Yes
Delete leading and trailing silent blocks : No
Null samples used in CRC calculations : Yes
Used interface : Installed external ASPI interface

Used output format : Internal WAV Routines
Sample format : 44.100 Hz; 16 Bit; Stereo


TOC of the extracted CD

Track | Start | Length | Start sector | End sector
––––––––––––––––––––––––––––-
1 | 0:00.00 | 7:47.62 | 0 | 35086
2 | 7:47.62 | 11:27.35 | 35087 | 86646
3 | 19:15.22 | 11:24.35 | 86647 | 137981
4 | 30:39.57 | 10:14.10 | 137982 | 184041
5 | 40:53.67 | 2:57.28 | 184042 | 197344
6 | 43:51.20 | 11:16.20 | 197345 | 248064
7 | 55:07.40 | 14:14.55 | 248065 | 312169
8 | 71:54.20 | 1:15.37 | 323570 | 329231


Range status and errors

Selected range

Filename Z:\data\mp3\Seeding\Dream Theater\Albums\2003-Train Of Thought\trainofthought.wav

Peak level 100.0 %
Extraction speed 0.0 X
Range quality 100.0 %
Test CRC CA199B3C
Copy CRC CA199B3C
Copy OK

No errors occurred


AccurateRip summary

Track 1 accurately ripped (confidence 32) [FA0499BD]
Track 2 accurately ripped (confidence 32) [8D126C73]
Track 3 accurately ripped (confidence 32) [903A1DFD]
Track 4 accurately ripped (confidence 32) [CBB5CB65]
Track 5 accurately ripped (confidence 34) [845ECE14]
Track 6 accurately ripped (confidence 32) [FDDF6E9F]
Track 7 accurately ripped (confidence 29) [936794AD]

All tracks accurately ripped

End of status report

=================================

Dream Theater  - Discography on AH. Part 1: Studio Albums (1989 - 2011) Re-up

CD11: Dream Theater - Octavarium (2005) [Atlantic, CD83793] Repost
Progressive Metal | EAC Rip | Flac(Image) + Cue + Log & MP3 CBR 320Kbps
Scans Included | Atlantic, CD83793 | ~ 560 or 193 Mb

Dream Theater  - Discography on AH. Part 1: Studio Albums (1989 - 2011) Re-up

Tracklist:

01. The Root of All Evil (08:08)
02. The Answer Lies Within (05:44)
03. These Walls (07:06)
04. I Walk Beside You (05:06)
05. Panic Attack (07:16)
06. Never Enough (07:30)
07. Sacrificed Sons (10:56)
08. Octavarium (24:00)

Exact Audio Copy V1.0 beta 1 from 15. November 2010

EAC extraction logfile from 23. December 2010, 9:32

Dream Theater / Octavarium

Used drive : LITE-ON DVDRW LH-20A1L Adapter: 4 ID: 0

Read mode : Secure
Utilize accurate stream : Yes
Defeat audio cache : Yes
Make use of C2 pointers : No

Read offset correction : 6
Overread into Lead-In and Lead-Out : No
Fill up missing offset samples with silence : Yes
Delete leading and trailing silent blocks : No
Null samples used in CRC calculations : Yes
Used interface : Installed external ASPI interface

Used output format : Internal WAV Routines
Sample format : 44.100 Hz; 16 Bit; Stereo


TOC of the extracted CD

Track | Start | Length | Start sector | End sector
––––––––––––––––––––––––––––-
1 | 0:00.00 | 8:25.43 | 0 | 37917
2 | 8:25.43 | 5:33.08 | 37918 | 62900
3 | 13:58.51 | 7:36.02 | 62901 | 97102
4 | 21:34.53 | 4:29.25 | 97103 | 117302
5 | 26:04.03 | 8:13.02 | 117303 | 154279
6 | 34:17.05 | 6:46.38 | 154280 | 184767
7 | 41:03.43 | 10:42.72 | 184768 | 232989
8 | 51:46.40 | 24:00.01 | 232990 | 340990


Range status and errors

Selected range

Filename Z:\data\mp3\Seeding\Dream Theater\Albums\2005-Octavarium\octavarium.wav

Peak level 100.0 %
Extraction speed 1.8 X
Range quality 100.0 %
Test CRC 19372E62
Copy CRC 19372E62
Copy OK

No errors occurred


AccurateRip summary

Track 1 accurately ripped (confidence 2) [4E866E10]
Track 2 accurately ripped (confidence 2) [5D3510AE]
Track 3 accurately ripped (confidence 2) [FB1E2685]
Track 4 accurately ripped (confidence 2) [597EE9A7]
Track 5 accurately ripped (confidence 2) [009D127B]
Track 6 accurately ripped (confidence 2) [DF80F305]
Track 7 accurately ripped (confidence 2) [99AB157B]
Track 8 accurately ripped (confidence 2) [6FEA5458]

All tracks accurately ripped

End of status report

AUDIOCHECKER v2.0 beta (build 457) - by Dester - opdester@freemail.hu
~~~~~~~~~~~~~~~~~~~~~~~~~~~~~~~~~~
-=== DO NOT EDIT THIS FILE! ===-

Path: …\2005 - Octavarium (Atlantic CD83793)

1 -=- octavarium.flac -=- CDDA (100%)

254189236

[Verification date: 24.07.2011 12:18:32]
[Disc ID: 0012bdde-00800ac2-6b11c208]
Track [ CRC ] Status
01 [4e866e10] (200/437) Accurately ripped as in pressing(s) #1
02 [5d3510ae] (200/439) Accurately ripped as in pressing(s) #1
03 [fb1e2685] (200/437) Accurately ripped as in pressing(s) #1
04 [597ee9a7] (200/439) Accurately ripped as in pressing(s) #1
05 [009d127b] (200/437) Accurately ripped as in pressing(s) #1
06 [df80f305] (200/435) Accurately ripped as in pressing(s) #1
07 [99ab157b] (200/438) Accurately ripped as in pressing(s) #1
08 [6fea5458] (200/430) Accurately ripped as in pressing(s) #1
Offsetted by -685:
01 [f4a4537c] (00/437) No matches
02 [d29794a9] (00/439) No matches
03 [f021266e] (00/437) No matches
04 [41ab1b11] (02/439) Accurately ripped as in pressing(s) #12
05 [84a6a254] (00/437) No matches
06 [a9271f88] (00/435) No matches
07 [07d6a7a8] (00/438) No matches
08 [c365bcee] (00/430) No matches
Offsetted by -682:
01 [8aec00fe] (15/437) Accurately ripped as in pressing(s) #5
02 [4b6e0cc2] (15/439) Accurately ripped as in pressing(s) #5
03 [75b613f1] (15/437) Accurately ripped as in pressing(s) #5
04 [2b665c41] (15/439) Accurately ripped as in pressing(s) #5
05 [8b0b1b13] (15/437) Accurately ripped as in pressing(s) #5
06 [0f5bf3c0] (15/435) Accurately ripped as in pressing(s) #5
07 [4835acde] (15/438) Accurately ripped as in pressing(s) #5
08 [677841e4] (14/430) Accurately ripped as in pressing(s) #5
Offsetted by -667:
01 [0fa77741] (00/437) No matches
02 [046277eb] (00/439) No matches
03 [bbbda782] (00/437) No matches
04 [dad58226] (00/439) No matches
05 [4673d016] (00/437) No matches
06 [3651f9ac] (00/435) No matches
07 [56c94f90] (00/438) No matches
08 [9bd4dab2] (03/430) Partial match to pressing(s) #11
Offsetted by -664:
01 [8f7b4ed7] (04/437) Accurately ripped as in pressing(s) #9
02 [0114d5b5] (04/439) Accurately ripped as in pressing(s) #9
03 [8e2265bb] (04/437) Accurately ripped as in pressing(s) #9
04 [eecb8acf] (04/439) Accurately ripped as in pressing(s) #9
05 [e712f5d3] (04/437) Accurately ripped as in pressing(s) #9
06 [c569c3fe] (04/435) Accurately ripped as in pressing(s) #9
07 [b055e8be] (04/438) Accurately ripped as in pressing(s) #9
08 [3fe75fa8] (05/430) Accurately ripped as in pressing(s) #8
Offsetted by -661:
01 [c0fa58f1] (00/437) No matches
02 [d75c18a1] (02/439) Partial match to pressing(s) #11
03 [f953ff0e] (02/437) Partial match to pressing(s) #11
04 [58283a40] (00/439) No matches
05 [a687e6a8] (00/437) No matches
06 [35f752df] (00/435) No matches
07 [d6538c0d] (00/438) No matches
08 [e3f9e49e] (00/430) No matches
Offsetted by -80:
01 [bcb86c44] (05/437) Accurately ripped as in pressing(s) #8
02 [9d87a8c8] (05/439) Accurately ripped as in pressing(s) #8
03 [40926762] (05/437) Accurately ripped as in pressing(s) #8
04 [1d4eeee5] (05/439) Accurately ripped as in pressing(s) #8
05 [39cc1bb7] (05/437) Accurately ripped as in pressing(s) #8
06 [07ded0b3] (05/435) Accurately ripped as in pressing(s) #8
07 [14141530] (05/438) Accurately ripped as in pressing(s) #8
08 [adfc7ab8] (04/430) Accurately ripped as in pressing(s) #9
Offsetted by -72:
01 [be098aef] (05/437) Partial match to pressing(s) #8
02 [daeb9b83] (05/439) Partial match to pressing(s) #8
03 [b3c0bc23] (05/437) Partial match to pressing(s) #8
04 [3c9ad0d7] (05/439) Partial match to pressing(s) #8
05 [b0410492] (05/437) Partial match to pressing(s) #8
06 [2cb94d18] (05/435) Partial match to pressing(s) #8
07 [edb427df] (05/438) Partial match to pressing(s) #8
08 [0e2ddd48] (03/430) Accurately ripped as in pressing(s) #10
Offsetted by -24:
01 [039da530] (06/437) Accurately ripped as in pressing(s) #7
02 [fbdf43bc] (06/439) Accurately ripped as in pressing(s) #7
03 [d3e44392] (06/437) Accurately ripped as in pressing(s) #7
04 [c3790505] (06/439) Accurately ripped as in pressing(s) #7
05 [d41d5d65] (06/437) Accurately ripped as in pressing(s) #7
06 [6f387f97] (06/435) Accurately ripped as in pressing(s) #7
07 [c506fd26] (06/438) Accurately ripped as in pressing(s) #7
08 [4f562ca8] (05/430) Accurately ripped as in pressing(s) #7
Offsetted by -18:
01 [79981983] (02/437) Accurately ripped as in pressing(s) #11
02 [d36f0cd0] (02/439) Accurately ripped as in pressing(s) #11
03 [7c08385b] (02/437) Accurately ripped as in pressing(s) #11
04 [90009734] (02/439) Accurately ripped as in pressing(s) #11
05 [8ff14e5f] (02/437) Accurately ripped as in pressing(s) #11
06 [979c6130] (02/435) Accurately ripped as in pressing(s) #11
07 [af480516] (02/438) Accurately ripped as in pressing(s) #11
08 [977b3694] (04/430) Partial match to pressing(s) #9
Offsetted by -12:
01 [4c7f5c0d] (19/437) Accurately ripped as in pressing(s) #4
02 [67ea23de] (21/439) Accurately ripped as in pressing(s) #4
03 [31d485b7] (20/437) Accurately ripped as in pressing(s) #4
04 [6bab803e] (20/439) Accurately ripped as in pressing(s) #4
05 [6f0d427f] (20/437) Accurately ripped as in pressing(s) #4
06 [8ce27f52] (20/435) Accurately ripped as in pressing(s) #4
07 [95faf3b8] (21/438) Accurately ripped as in pressing(s) #4
08 [dfa04080] (20/430) Accurately ripped as in pressing(s) #4
Offsetted by -6:
01 [9a4266ec] (143/437) Accurately ripped as in pressing(s) #2
02 [0966b238] (143/439) Accurately ripped as in pressing(s) #2
03 [ab145dd3] (142/437) Accurately ripped as in pressing(s) #2
04 [7f956406] (142/439) Accurately ripped as in pressing(s) #2
05 [93bcc6d4] (142/437) Accurately ripped as in pressing(s) #2
06 [c5f9472e] (140/435) Accurately ripped as in pressing(s) #2
07 [533db4a0] (142/438) Accurately ripped as in pressing(s) #2
08 [27c54a6c] (134/430) Accurately ripped as in pressing(s) #2

Track [ CRC32 ] [W/O NULL] [ LOG ]
– [19372E62] [1DAC95B5] CRC32
01 [F51C96E7] [C3621838]
02 [23AA6B5B] [6EC094E7]
03 [C3E28DFF] [30788E20]
04 [E541C56D] [AE888333]
05 [45503A3D] [7A55D0C2]
06 [A314BA57] [778B1215]
07 [8D91EB0C] [CFB098AD]
08 [0C2A4DDD] [1592A59D]

=================================

Dream Theater  - Discography on AH. Part 1: Studio Albums (1989 - 2011) Re-up

Dream Theater - Systematic Chaos (2007) [CD + DVD, Roadrunner 1686179822] Repost
Progressive Metal | EAC Rip | Flac(Image) + Cue + Log & MP3 CBR 320Kbps
Scans Included | Roadrunner 1686179822 | ~ 598 or 210 Mb
DVD-5: PAL 720 x 576 (4:3), VBR | PCM, 2 ch, 1536 Kbps / AC-3, 6ch, 448 Kbps-> ~ 4.22 Gb

Dream Theater  - Discography on AH. Part 1: Studio Albums (1989 - 2011) Re-up

Tracklist CD:

01. In The Presence of Enemies - Part I (09:00)
02. Forsaken (05:36)
03. Constant Motion (06:55)
04. The Dark Eternal Night (08:51)
05. Repentance (10:46)
06. Prophets of War (06:01)
07. The Ministry of Lost Souls (14:57)
08. In The Presence of Enemies - Part II (16:38)

Exact Audio Copy V1.0 beta 1 from 15. November 2010

EAC extraction logfile from 23. December 2010, 9:32

Dream Theater / Systematic Chaos

Used drive : PLEXTOR CD-R PX-240A Adapter: 1 ID: 1

Read mode : Secure
Utilize accurate stream : Yes
Defeat audio cache : Yes
Make use of C2 pointers : No

Read offset correction : 6
Overread into Lead-In and Lead-Out : No
Fill up missing offset samples with silence : Yes
Delete leading and trailing silent blocks : No
Null samples used in CRC calculations : Yes
Used interface : Installed external ASPI interface

Used output format : Internal WAV Routines
Sample format : 44.100 Hz; 16 Bit; Stereo


TOC of the extracted CD

Track | Start | Length | Start sector | End sector
––––––––––––––––––––––––––––-
1 | 0:00.00 | 9:00.05 | 0 | 40504
2 | 9:00.05 | 5:35.42 | 40505 | 65671
3 | 14:35.47 | 6:55.28 | 65672 | 96824
4 | 21:31.00 | 8:53.40 | 96825 | 136839
5 | 30:24.40 | 10:43.32 | 136840 | 185096
6 | 41:07.72 | 6:00.53 | 185097 | 212149
7 | 47:08.50 | 14:57.05 | 212150 | 279429
8 | 62:05.55 | 16:38.32 | 279430 | 354311


Range status and errors

Selected range

Filename Z:\data\mp3\Seeding\Dream Theater\Albums\2007-Systematic Chaos\systematic.wav

Peak level 100.0 %
Extraction speed 1.4 X
Range quality 100.0 %
Test CRC FEBA56DA
Copy CRC FEBA56DA
Copy OK

No errors occurred


AccurateRip summary

Track 1 accurately ripped (confidence 34) [D6FE3D53]
Track 2 accurately ripped (confidence 34) [B1F2458D]
Track 3 accurately ripped (confidence 34) [F1BFD2CD]
Track 4 accurately ripped (confidence 34) [0D66AE5C]
Track 5 accurately ripped (confidence 34) [278DAAF0]
Track 6 accurately ripped (confidence 34) [3F2AD364]
Track 7 accurately ripped (confidence 33) [0F07D769]
Track 8 accurately ripped (confidence 32) [FA56698C]

All tracks accurately ripped

End of status report

AUDIOCHECKER v2.0 beta (build 457) - by Dester - opdester@freemail.hu
~~~~~~~~~~~~~~~~~~~~~~~~~~~~~~~~~~
-=== DO NOT EDIT THIS FILE! ===-

Path: …\2007 - Systematic Chaos (Roadrunner1686179822)

1 -=- systematic.flac -=- CDDA (100%)

239049188

Verification date: 24.07.2011 12:19:25]
[Disc ID: 0014eacf-008ef73f-78127408]
Track [ CRC ] Status
01 [d6fe3d53] (34/546) Accurately ripped as in pressing(s) #3
02 [b1f2458d] (34/544) Accurately ripped as in pressing(s) #3
03 [f1bfd2cd] (34/542) Accurately ripped as in pressing(s) #3
04 [0d66ae5c] (34/545) Accurately ripped as in pressing(s) #3
05 [278daaf0] (34/540) Accurately ripped as in pressing(s) #3
06 [3f2ad364] (34/543) Accurately ripped as in pressing(s) #3
07 [0f07d769] (33/537) Accurately ripped as in pressing(s) #3
08 [fa56698c] (32/532) Accurately ripped as in pressing(s) #3
Offsetted by -680:
01 [90f64a5a] (05/546) Accurately ripped as in pressing(s) #11
02 [b2ffba08] (05/544) Accurately ripped as in pressing(s) #11
03 [52526565] (05/542) Accurately ripped as in pressing(s) #11
04 [d99248fa] (05/545) Accurately ripped as in pressing(s) #11
05 [8bb33821] (05/540) Accurately ripped as in pressing(s) #11
06 [faf9550d] (05/543) Accurately ripped as in pressing(s) #11
07 [968099d1] (05/537) Accurately ripped as in pressing(s) #11
08 [22eb439e] (04/532) Accurately ripped as in pressing(s) #11
Offsetted by -34:
01 [51ea1444] (02/546) Accurately ripped as in pressing(s) #17
02 [89f0f8d6] (02/544) Accurately ripped as in pressing(s) #17
03 [68c7fa6e] (02/542) Accurately ripped as in pressing(s) #17
04 [7e310919] (02/545) Accurately ripped as in pressing(s) #17
05 [a79307f2] (02/540) Accurately ripped as in pressing(s) #17
06 [71ebde33] (02/543) Accurately ripped as in pressing(s) #17
07 [c9ddbf42] (02/537) Accurately ripped as in pressing(s) #17
08 [45ab73e6] (02/532) Accurately ripped as in pressing(s) #17
Offsetted by -30:
01 [4c2f0d2f] (13/546) Partial match to pressing(s) #7
02 [f236b95a] (14/544) Partial match to pressing(s) #7
03 [bca8f91d] (14/542) Partial match to pressing(s) #7
04 [c93f9463] (14/545) Partial match to pressing(s) #7
05 [5de4266a] (14/540) Partial match to pressing(s) #7
06 [5a2da8b9] (13/543) Partial match to pressing(s) #7
07 [cf9e679e] (13/537) Partial match to pressing(s) #7
08 [4878b578] (00/532) No matches
Offsetted by -18:
01 [efee0f15] (02/546) Accurately ripped as in pressing(s) #16
02 [c7e8c509] (02/544) Accurately ripped as in pressing(s) #16
03 [82abca43] (02/542) Accurately ripped as in pressing(s) #16
04 [a9a61a94] (02/545) Accurately ripped as in pressing(s) #16
05 [86d408da] (02/540) Accurately ripped as in pressing(s) #16
06 [f049b996] (02/543) Accurately ripped as in pressing(s) #16
07 [22937151] (02/537) Accurately ripped as in pressing(s) #16
08 [5551dd80] (02/532) Accurately ripped as in pressing(s) #16
Offsetted by -16:
01 [4aad3628] (190/546) Accurately ripped as in pressing(s) #2
02 [d0e41ace] (187/544) Accurately ripped as in pressing(s) #2
03 [1c547a36] (185/542) Accurately ripped as in pressing(s) #2
04 [cf0dd6ad] (185/545) Accurately ripped as in pressing(s) #2
05 [712138f4] (182/540) Accurately ripped as in pressing(s) #2
06 [b139a4d9] (186/543) Accurately ripped as in pressing(s) #2
07 [f0528577] (183/537) Accurately ripped as in pressing(s) #2
08 [beae77a5] (180/532) Accurately ripped as in pressing(s) #2
Offsetted by -10:
01 [ca81706c] (03/546) Accurately ripped as in pressing(s) #13
02 [a879e532] (03/544) Accurately ripped as in pressing(s) #13
03 [2356e38b] (03/542) Accurately ripped as in pressing(s) #13
04 [44310adc] (03/545) Accurately ripped as in pressing(s) #13
05 [6e227c1e] (04/540) Accurately ripped as in pressing(s) #12
06 [7cf0c660] (03/543) Accurately ripped as in pressing(s) #13
07 [e00dc03c] (03/537) Accurately ripped as in pressing(s) #13
08 [97b3bf5b] (03/532) Accurately ripped as in pressing(s) #12
Offsetted by 5:
01 [4db48dfb] (18/546) Partial match to pressing(s) #6
02 [22fbac88] (18/544) Partial match to pressing(s) #6
03 [d0f013ac] (19/542) Partial match to pressing(s) #6
04 [73bffe6a] (19/545) Partial match to pressing(s) #6
05 [8548a546] (19/540) Partial match to pressing(s) #6
06 [4690d2e9] (19/543) Partial match to pressing(s) #6
07 [11978dfe] (18/537) Partial match to pressing(s) #6
08 [52895b3a] (00/532) No matches
Offsetted by 566:
01 [c8115faf] (20/546) Partial match to pressing(s) #5
02 [2cf96485] (20/544) Partial match to pressing(s) #5
03 [60d55af3] (20/542) Partial match to pressing(s) #5
04 [532117d6] (20/545) Partial match to pressing(s) #5
05 [cbe45c35] (20/540) Partial match to pressing(s) #5
06 [e17f4069] (19/543) Partial match to pressing(s) #5
07 [a1b8c829] (19/537) Partial match to pressing(s) #5
08 [df916ef2] (00/532) No matches
Offsetted by 646:
01 [e50c5883] (200/546) Partial match to pressing(s) #1
02 [a80fc7d2] (200/544) Partial match to pressing(s) #1
03 [fa82179e] (200/542) Partial match to pressing(s) #1
04 [983ad77a] (200/545) Partial match to pressing(s) #1
05 [d8b6ff5e] (200/540) Partial match to pressing(s) #1
06 [e77c886f] (200/543) Partial match to pressing(s) #1
07 [ee7b772c] (200/537) Partial match to pressing(s) #1
08 [ec312678] (00/532) No matches
Offsetted by 1186:
01 [9176150d] (06/546) Partial match to pressing(s) #10
02 [c5fc3440] (06/544) Partial match to pressing(s) #10
03 [599c15d3] (06/542) Partial match to pressing(s) #10
04 [75e87465] (06/545) Partial match to pressing(s) #10
05 [5421fa03] (06/540) Partial match to pressing(s) #10
06 [fd56776e] (06/543) Partial match to pressing(s) #10
07 [2d438a64] (06/537) Partial match to pressing(s) #10
08 [ab528ae8] (00/532) No matches

Track [ CRC32 ] [W/O NULL] [ LOG ]
– [FEBA56DA] [EB82E107] CRC32
01 [BDD42122] [84DD4936]
02 [5BCCF8BC] [CCF9D63F]
03 [58A94AAB] [C13AD6F0]
04 [9532D84F] [9BE41268]
05 [F4EC48C3] [7A336B8F]
06 [060D1EC2] [7BFEF63F]
07 [31FB246F] [D41FA395]
08 [370575FC] [BD37C702]

Dream Theater  - Discography on AH. Part 1: Studio Albums (1989 - 2011) Re-up

Tracklist DVD:

1. In The Presence of Enemies Pt.1
2. Forsaken
3. Constant Motion
4. The Dark Eternal Night
5. Repentance
6. Prophets of War
7. The Ministry of Lost Souls
8. In The Presence of Enemies Pt.2

Dream Theater  - Discography on AH. Part 1: Studio Albums (1989 - 2011) Re-up

Dream Theater  - Discography on AH. Part 1: Studio Albums (1989 - 2011) Re-up

Dream Theater  - Discography on AH. Part 1: Studio Albums (1989 - 2011) Re-up

Dream Theater  - Discography on AH. Part 1: Studio Albums (1989 - 2011) Re-up

=================================

Dream Theater  - Discography on AH. Part 1: Studio Albums (1989 - 2011) Re-up

Dream Theater - Greatest Hit (… & 21 Other Pretty Cool Songs)
2CD, 2008 | WavPack+CUE+LOG or mp3 CBR 320 | Covers | 1 GB or 327 MB

Go to original post by Rehabilly ==> Dream Theater - Greatest Hit (… & 21 Other Pretty Cool Songs)

=================================

Dream Theater  - Discography on AH. Part 1: Studio Albums (1989 - 2011) Re-up

CD13 - 14: Dream Theater - A Dramatic Turn Of Events (2011)
Progressive Metal | EAC Rip | Flac(Image) + Cue + Log & MP3 CBR 320Kbps
Roadrunner, RR7765-2 | ~ 603 or 255 Mb

Go to original post by v3122 ==> Dream Theater - A Dramatic Turn Of Events (2011)

All thanks go to the original releasers …

=============

Download Dream Theater - Discography on AH. Part 1: Studio Albums (1989 - 2011):