Subcategories

Dream Theater - Images and Words Demos 1989-1991 (2005) [Official Bootleg]

Posted By: gribovar
Dream Theater - Images and Words Demos 1989-1991 (2005) [Official Bootleg]

Dream Theater - Images and Words Demos 1989-1991 (2005) [Official Bootleg]
EAC Rip | FLAC (image+.cue+log) - 1,05 GB | MP3 CBR 320 kbps (LAME 3.93) - 346 MB | Covers (10 MB) included
Genre: Progressive Metal | RAR 3% Rec. | Label: Ytsejam Records (YTSEJAM007)

Images and Words Demos 1989-1991 is a collection of demos by Dream Theater released by Mike Portnoy on his YtseJam Records label. The album contains both instrumental and pre-production demos of songs from Images and Words as well as rare vocalist audition demos and The ATCO Demos.

CD 1 Tracklist:
01. Metropolis (Instrumental Demo)
02. Take The Time (Instrumental Demo)
03. Learning To Live (Instrumental Demo)
04. Under A Glass Moon (Instrumental Demo)
05. Don't Look Past Me (feat. John Hendricks)
06. To Live Forever (feat. John Hendricks)
07. To Live Forever (feat. Steve Stone)
08. A Change Of Seasons (feat. Chris Cintron)

Total time: 01:10:56

CD 2 Tracklist:
01. Metropolis (The ATCO Demo)
02. To Live Forever (The ATCO Demo)
03. Take The Time (The ATCO Demo)
04. Pull Me Under (Pre-Production Demo)
05. Another Day (Pre-Production Demo)
06. Surrounded (Pre-Production Demo)
07. Under A Glass Moon (Pre-Production Demo)
08. Wait For Sleep (Pre-Production Demo)
09. Learning To Live (Pre-Production Demo)
10. Oliver's Twist (Pre-Production Demo)

Total time: 01:11:16

Exact Audio Copy V1.0 beta 1 from 15. November 2010

EAC extraction logfile from 24. December 2010, 10:11

Dream Theater / Images And Words Demos (Official Bootleg) CD1

Used drive : PLEXTOR CD-R PX-240A Adapter: 1 ID: 1

Read mode : Secure
Utilize accurate stream : Yes
Defeat audio cache : Yes
Make use of C2 pointers : No

Read offset correction : 6
Overread into Lead-In and Lead-Out : No
Fill up missing offset samples with silence : Yes
Delete leading and trailing silent blocks : No
Null samples used in CRC calculations : Yes
Used interface : Installed external ASPI interface

Used output format : Internal WAV Routines
Sample format : 44.100 Hz; 16 Bit; Stereo


TOC of the extracted CD

Track | Start | Length | Start sector | End sector
––––––––––––––––––––––––––––-
1 | 0:00.00 | 9:26.72 | 0 | 42521
2 | 9:26.72 | 9:22.11 | 42522 | 84682
3 | 18:49.08 | 11:09.01 | 84683 | 134858
4 | 29:58.09 | 7:25.37 | 134859 | 168270
5 | 37:23.46 | 6:25.58 | 168271 | 197203
6 | 43:49.29 | 4:46.30 | 197204 | 218683
7 | 48:35.59 | 4:44.54 | 218684 | 240037
8 | 53:20.38 | 17:35.54 | 240038 | 319216


Range status and errors

Selected range

Filename Z:\data\mp3\Seeding\Dream Theater\Official Bootlegs\2005-Images And Words Demos 1989-1991\imagesdemos1.wav

Peak level 96.6 %
Extraction speed 2.0 X
Range quality 100.0 %
Test CRC 65DBB4EE
Copy CRC 65DBB4EE
Copy OK

No errors occurred


AccurateRip summary

Track 1 accurately ripped (confidence 11) [841838E0]
Track 2 accurately ripped (confidence 11) [D03F5DF5]
Track 3 accurately ripped (confidence 11) [0435FAE2]
Track 4 accurately ripped (confidence 11) [D7677C3C]
Track 5 accurately ripped (confidence 11) [7915D1CE]
Track 6 accurately ripped (confidence 11) [43326701]
Track 7 accurately ripped (confidence 11) [9E06D1CD]
Track 8 accurately ripped (confidence 10) [CC000A33]

All tracks accurately ripped

End of status report

[CUETools log; Date: 02.06.2019 0:31:46; Version: 2.1.4]
[CTDB TOCID: RR_L.JAsaD3e9b2Mx3wLK3lyqzs-] found.
Track | CTDB Status
1 | (25/25) Accurately ripped
2 | (25/25) Accurately ripped
3 | (25/25) Accurately ripped
4 | (25/25) Accurately ripped
5 | (25/25) Accurately ripped
6 | (25/25) Accurately ripped
7 | (25/25) Accurately ripped
8 | (25/25) Accurately ripped
[AccurateRip ID: 00157226-008ccb92-5710a008] found.
Track [ CRC | V2 ] Status
01 [841838e0|64a69235] (11+10/21) Accurately ripped
02 [d03f5df5|64e4251e] (11+10/21) Accurately ripped
03 [0435fae2|a4491c83] (11+10/21) Accurately ripped
04 [d7677c3c|077cf4d3] (11+10/21) Accurately ripped
05 [7915d1ce|2a489fb8] (11+10/21) Accurately ripped
06 [43326701|28460f50] (11+10/21) Accurately ripped
07 [9e06d1cd|38e7e893] (11+10/21) Accurately ripped
08 [cc000a33|db3acec3] (10+10/20) Accurately ripped

Track Peak [ CRC32 ] [W/O NULL] [ LOG ]
– 96,6 [65DBB4EE] [70FD3FE7] CRC32
01 96,6 [23C025C0] [445C5BD3]
02 96,6 [78848F57] [35F1B7FA]
03 96,6 [A04EC799] [63089E84]
04 96,6 [7A28E451] [2BD3F326]
05 96,6 [FC0971F7] [BD71F1A9]
06 96,6 [95C771C7] [BBE41FEF]
07 96,6 [E48170B2] [D8F4FE9D]
08 96,6 [CD76FE84] [1FC14082]

Exact Audio Copy V1.0 beta 1 from 15. November 2010

EAC extraction logfile from 24. December 2010, 10:11

Dream Theater / Images and Words Demos (Official Bootleg) CD2

Used drive : LITE-ON DVDRW LH-20A1L Adapter: 4 ID: 0

Read mode : Secure
Utilize accurate stream : Yes
Defeat audio cache : Yes
Make use of C2 pointers : No

Read offset correction : 6
Overread into Lead-In and Lead-Out : No
Fill up missing offset samples with silence : Yes
Delete leading and trailing silent blocks : No
Null samples used in CRC calculations : Yes
Used interface : Installed external ASPI interface

Used output format : Internal WAV Routines
Sample format : 44.100 Hz; 16 Bit; Stereo


TOC of the extracted CD

Track | Start | Length | Start sector | End sector
––––––––––––––––––––––––––––-
1 | 0:00.00 | 9:15.70 | 0 | 41694
2 | 9:15.70 | 4:30.49 | 41695 | 61993
3 | 13:46.44 | 7:58.43 | 61994 | 97886
4 | 21:45.12 | 7:38.05 | 97887 | 132241
5 | 29:23.17 | 4:27.59 | 132242 | 152325
6 | 33:51.01 | 5:42.19 | 152326 | 177994
7 | 39:33.20 | 7:12.40 | 177995 | 210434
8 | 46:45.60 | 2:38.72 | 210435 | 222356
9 | 49:24.57 | 12:08.05 | 222357 | 276961
10 | 61:32.62 | 9:42.68 | 276962 | 320679


Range status and errors

Selected range

Filename Z:\data\mp3\Seeding\Dream Theater\Official Bootlegs\2005-Images And Words Demos 1989-1991\imagesdemos2.wav

Peak level 97.7 %
Extraction speed 0.6 X
Range quality 100.0 %
Test CRC B80BA3B1
Copy CRC B80BA3B1
Copy OK

No errors occurred


AccurateRip summary

Track 1 accurately ripped (confidence 11) [307635C3]
Track 2 accurately ripped (confidence 11) [51C9D29F]
Track 3 accurately ripped (confidence 11) [CBE45B39]
Track 4 accurately ripped (confidence 11) [3FCDC45B]
Track 5 accurately ripped (confidence 11) [1395082D]
Track 6 accurately ripped (confidence 11) [A12AA3BC]
Track 7 accurately ripped (confidence 11) [191E6AD1]
Track 8 accurately ripped (confidence 11) [9949090F]
Track 9 accurately ripped (confidence 11) [3D56CEEA]
Track 10 accurately ripped (confidence 11) [F8D093AD]

All tracks accurately ripped

End of status report

[CUETools log; Date: 02.06.2019 0:35:39; Version: 2.1.4]
[CTDB TOCID: OjPiF_WErkew7CIPvh8.ERXySE4-] found.
Track | CTDB Status
1 | (24/24) Accurately ripped
2 | (24/24) Accurately ripped
3 | (24/24) Accurately ripped
4 | (24/24) Accurately ripped
5 | (24/24) Accurately ripped
6 | (24/24) Accurately ripped
7 | (24/24) Accurately ripped
8 | (24/24) Accurately ripped
9 | (24/24) Accurately ripped
10 | (24/24) Accurately ripped
[AccurateRip ID: 0019db6d-00cd7125-9a10b30a] found.
Track [ CRC | V2 ] Status
01 [307635c3|42004471] (11+10/21) Accurately ripped
02 [51c9d29f|54a3fc0f] (11+10/21) Accurately ripped
03 [cbe45b39|a249b97b] (11+10/21) Accurately ripped
04 [3fcdc45b|f77dc0b1] (11+10/21) Accurately ripped
05 [1395082d|592644a3] (11+10/21) Accurately ripped
06 [a12aa3bc|1e9443a1] (11+10/21) Accurately ripped
07 [191e6ad1|bb5fe0ec] (11+10/21) Accurately ripped
08 [9949090f|b38af5ab] (11+10/21) Accurately ripped
09 [3d56ceea|8f8c212d] (11+10/21) Accurately ripped
10 [f8d093ad|60e17966] (11+10/21) Accurately ripped

Track Peak [ CRC32 ] [W/O NULL] [ LOG ]
– 97,7 [B80BA3B1] [C9F87427] CRC32
01 96,6 [150B186B] [FC621EBC]
02 96,6 [36F90725] [4AF68812]
03 96,6 [98BB8E8B] [8C1EA05E]
04 96,6 [86B58F7F] [3C745539]
05 96,6 [217BC181] [2C7ABFF2]
06 96,6 [FE091130] [BCB79E9D]
07 96,6 [F8396519] [003386F5]
08 96,6 [C1D6AD14] [89B492DA]
09 96,6 [705CDEA5] [51E3820A]
10 97,7 [7ED2D1A3] [D92EBE59]

Thanks to hexonut

See also: