Subcategories
Please register here if you want to download anything!

If domain in your address bar is different from the list below
PLEASE LEAVE THAT SITE IMMEDIATELY
❗IT'S A DANGEROUS FAKE❗



Spicy Magazines for Men! ;-)

Duke Jordan Trio - Flight To Denmark (1973) Reissue 2008

Posted By: Designol
Duke Jordan Trio - Flight To Denmark (1973) Reissue 2008

Duke Jordan, Mads Vinding & Ed Thigpen - Flight To Denmark (1973) Reissue 2008
EAC | FLAC | Tracks (Cue&Log) ~ 399 Mb | Mp3 (CBR320) ~ 168 Mb | Scans included
Bop, Hard Bop, Piano Jazz | Label: SteepleChase | # SCCD 31011 | Time: 01:11:46

Upon Duke Jordan's initial visit to Copenhagen, Denmark, followed by his decision to make the move as an expatriate permanent, he was tempted to stay by playing with some extraordinary Scandinavian rhythm sections. Bassist Mads Vinding, one of many skilled Danish jazz bassists, is here on the date performing in fine style. Drummer Ed Thigpen, who left the U.S. to take up permanent residence in Europe, was an even bigger influence in making Jordan's decision a good one, and is an equally skillful musical partner on this date. This is an expanded edition from the previous original issue on the Steeplechase label; a Japanese import with several alternate takes. It's an understated session for the most part, equal parts melancholy and hopeful, as one might expect with the trepidation of leaving home for new, unknown horizons to be discovered in a foreign land. The upbeat songs, as the modal, popping, tom-tom driven "No Problem" (from the movie soundtrack Les Liason Dangereuses) and the famous bop flag-waver "Jordu," bookend the CD. The bulk of the recording showcases the softer side of Jordan, with takes of the somber ballad "Here's That Rainy Day," the slightly brighter "Everything Happens to Me," and two versions of the polite waltz "Glad I Met Pat," dedicated to a nine-year-old girl Jordan knew in New York City prior to her being kidnapped. The pianist employs chiming piano chords for "How Deep Is the Ocean?," is lighthearted in his slight interpretation of the well worn "On Green Dolphin Street," does two takes on the light, bluesy swinger "If I Did, Would You?," and ramps up to midtempo the bluesy original "Flight to Denmark," reflective of the insecurity and consequential optimism that followed his leaving the States. This is Duke Jordan at his most magnificent, with the ever-able Vinding and expert Thigpen playing their professional roles perfectly, producing perhaps the second best effort (next to Flight to Jordan from 13 years hence) from the famed bop pianist.

Review by Michael G. Nastos, Allmusic.com

Duke Jordan Trio - Flight To Denmark (1973) Reissue 2008



Duke Jordan - piano
Mads Vinding - bass
Ed Thigpen - drums

Recorded at "Sound Track", Copenhagen, November 25 & December 2, 1973.

Tracklist:

01. No Problem (06:47)
02. Here's That Rainy Day (07:23)
03. Everything Happens To Me (05:43)
04. Glad I Met Pat (take 3) (05:05)
05. Glad I Met Pat (take 4) (05:27)
06. How Deep is the Ocean (07:26)
07. On Green Dolphin Street (08:23)
08. If I Did - Would You (take 1) (03:44)
09. If I Did - Would You (take 2) (03:52)
10. Flight to Denmark (05:48)
11. No Problem (take 2) (07:11)
12. Jordu (take 1) (04:55)


Exact Audio Copy V0.99 prebeta 4 from 23. January 2008

EAC extraction logfile from 15. May 2009, 6:58

Duke Jordan / Flight To Denmark

Used drive : HL-DT-STDVDRAM GSA-4167B Adapter: 0 ID: 0

Read mode : Secure
Utilize accurate stream : Yes
Defeat audio cache : Yes
Make use of C2 pointers : No

Read offset correction : 667
Overread into Lead-In and Lead-Out : No
Fill up missing offset samples with silence : Yes
Delete leading and trailing silent blocks : No
Null samples used in CRC calculations : Yes
Used interface : Native Win32 interface for Win NT & 2000
Gap handling : Appended to previous track

Used output format : User Defined Encoder
Selected bitrate : 128 kBit/s
Quality : High
Add ID3 tag : No
Command line compressor : D:\Program Files\Exact Audio Copy\Flac\flac.exe
Additional command line options : -V -8 -T "ARTIST=%a" -T "TITLE=%t" -T "ALBUM=%g" -T "DATE=%y" -T "TRACKNUMBER=%n" -T "GENRE=%m" -T "COMMENT=EAC FLAC -8" %s


TOC of the extracted CD

Track | Start | Length | Start sector | End sector
––––––––––––––––––––––––––––-
1 | 0:00.33 | 6:47.00 | 33 | 30557
2 | 6:47.33 | 7:23.00 | 30558 | 63782
3 | 14:10.33 | 5:43.25 | 63783 | 89532
4 | 19:53.58 | 5:05.12 | 89533 | 112419
5 | 24:58.70 | 5:27.38 | 112420 | 136982
6 | 30:26.33 | 7:26.30 | 136983 | 170462
7 | 37:52.63 | 8:23.32 | 170463 | 208219
8 | 46:16.20 | 3:44.13 | 208220 | 225032
9 | 50:00.33 | 3:52.00 | 225033 | 242432
10 | 53:52.33 | 5:48.12 | 242433 | 268544
11 | 59:40.45 | 7:11.03 | 268545 | 300872
12 | 66:51.48 | 4:55.12 | 300873 | 323009


Track 1

Filename H:\0 Rip\01 - No Problem.wav

Pre-gap length 0:00:02.44

Peak level 99.4 %
Track quality 100.0 %
Test CRC 8EC2A023
Copy CRC 8EC2A023
Copy OK

Track 2

Filename H:\0 Rip\02 - Here's That Rainy Day.wav

Pre-gap length 0:00:03.36

Peak level 80.6 %
Track quality 100.0 %
Test CRC 93F54004
Copy CRC 93F54004
Copy OK

Track 3

Filename H:\0 Rip\03 - Everything Happens To Me.wav

Pre-gap length 0:00:02.64

Peak level 86.7 %
Track quality 99.9 %
Test CRC 9F37080E
Copy CRC 9F37080E
Copy OK

Track 4

Filename H:\0 Rip\04 - Glad I Met Pat (take 3).wav

Pre-gap length 0:00:02.80

Peak level 99.4 %
Track quality 99.9 %
Test CRC 7FB42327
Copy CRC 7FB42327
Copy OK

Track 5

Filename H:\0 Rip\05 - Glad I Met Pat (take 4).wav

Pre-gap length 0:00:02.85

Peak level 99.5 %
Track quality 100.0 %
Test CRC 19E332E0
Copy CRC 19E332E0
Copy OK

Track 6

Filename H:\0 Rip\06 - How Deep is the Ocean.wav

Pre-gap length 0:00:02.44

Peak level 94.0 %
Track quality 100.0 %
Test CRC 310408DA
Copy CRC 310408DA
Copy OK

Track 7

Filename H:\0 Rip\07 - On Green Dolphin Street.wav

Pre-gap length 0:00:02.84

Peak level 99.8 %
Track quality 100.0 %
Test CRC 9EAE95C5
Copy CRC 9EAE95C5
Copy OK

Track 8

Filename H:\0 Rip\08 - If I Did - Would You (take 1).wav

Pre-gap length 0:00:02.53

Peak level 87.7 %
Track quality 100.0 %
Test CRC EDA14733
Copy CRC EDA14733
Copy OK

Track 9

Filename H:\0 Rip\09 - If I Did - Would You (take 2).wav

Pre-gap length 0:00:02.97

Peak level 87.9 %
Track quality 100.0 %
Test CRC 8564107B
Copy CRC 8564107B
Copy OK

Track 10

Filename H:\0 Rip\10 - Flight to Denmark.wav

Pre-gap length 0:00:02.64

Peak level 99.9 %
Track quality 100.0 %
Test CRC C491775B
Copy CRC C491775B
Copy OK

Track 11

Filename H:\0 Rip\11 - No Problem (take 2).wav

Pre-gap length 0:00:02.49

Peak level 90.7 %
Track quality 99.9 %
Test CRC 5FEBA35D
Copy CRC 5FEBA35D
Copy OK

Track 12

Filename H:\0 Rip\12 - Jordu (take 1).wav

Pre-gap length 0:00:02.50

Peak level 98.6 %
Track quality 100.0 %
Test CRC 0A0F2103
Copy CRC 0A0F2103
Copy OK

No errors occurred

End of status report

[CUETools log; Date: 10.08.2016 18:13:42; Version: 2.1.4]
Pregap length 00:00:33.
[CTDB TOCID: zcuz4StL3gkqxM.8oEi.uRyw6Tg-] found.
Track | CTDB Status
1 | ( 8/14) Accurately ripped
2 | ( 8/14) Accurately ripped
3 | ( 8/14) Accurately ripped
4 | ( 8/14) Accurately ripped
5 | ( 8/14) Accurately ripped
6 | ( 8/14) Accurately ripped
7 | ( 8/14) Accurately ripped
8 | ( 8/14) Accurately ripped
9 | ( 8/14) Accurately ripped
10 | ( 8/14) Accurately ripped
11 | ( 8/14) Accurately ripped
12 | ( 8/14) Accurately ripped
[AccurateRip ID: 002123ef-01323229-9910d20c] found.
Track [ CRC | V2 ] Status
01 [7d2e1417|9ba6ba71] (09+09/23) Accurately ripped
02 [68e5d192|d4b27180] (11+09/25) Accurately ripped
03 [0c8a14ca|db50ed95] (11+09/25) Accurately ripped
04 [879711c8|07c04308] (10+09/23) Accurately ripped
05 [ff848d50|90b2c738] (11+09/25) Accurately ripped
06 [a037396e|431b522d] (11+09/25) Accurately ripped
07 [a02a19ba|75bc0f06] (11+09/25) Accurately ripped
08 [38de22dc|9a20ebc1] (11+09/24) Accurately ripped
09 [c4b94e0e|243c4e0a] (11+09/25) Accurately ripped
10 [bb542872|c9281939] (11+09/25) Accurately ripped
11 [4f490569|c2f951b0] (10+08/23) Accurately ripped
12 [77c25608|77929412] (11+09/25) Accurately ripped

Track Peak [ CRC32 ] [W/O NULL] [ LOG ]
– 99,9 [C72FA764] [2B55E14D]
01 99,4 [8EC2A023] [24564719] CRC32
02 80,6 [93F54004] [AA992199] CRC32
03 86,7 [9F37080E] [8D565857] CRC32
04 99,4 [7FB42327] [08C37216] CRC32
05 99,5 [19E332E0] [F1A1FA41] CRC32
06 94,0 [310408DA] [A3F553D2] CRC32
07 99,8 [9EAE95C5] [B7918087] CRC32
08 87,7 [EDA14733] [7233DF8A] CRC32
09 87,9 [8564107B] [A4E871DB] CRC32
10 99,9 [C491775B] [CC942040] CRC32
11 90,7 [5FEBA35D] [56B16804] CRC32
12 98,6 [0A0F2103] [4849A9EB] CRC32

foobar2000 1.2 / Dynamic Range Meter 1.1.1
log date: 2016-08-10 16:10:03

––––––––––––––––––––––––––––––––––––––––
Analyzed: Duke Jordan / Flight To Denmark
––––––––––––––––––––––––––––––––––––––––

DR Peak RMS Duration Track
––––––––––––––––––––––––––––––––––––––––
DR10 -0.05 dB -12.36 dB 6:47 01-No Problem
DR13 -1.87 dB -17.57 dB 7:23 02-Here's That Rainy Day
DR12 -1.23 dB -15.79 dB 5:43 03-Everything Happens To Me
DR10 -0.05 dB -12.48 dB 5:05 04-Glad I Met Pat (take 3)
DR10 -0.04 dB -12.17 dB 5:28 05-Glad I Met Pat (take 4)
DR13 -0.53 dB -16.24 dB 7:26 06-How Deep is the Ocean
DR10 -0.01 dB -13.06 dB 8:23 07-On Green Dolphin Street
DR11 -1.13 dB -14.65 dB 3:44 08-If I Did - Would You (take 1)
DR11 -1.11 dB -14.41 dB 3:52 09-If I Did - Would You (take 2)
DR12 -0.01 dB -14.01 dB 5:48 10-Flight to Denmark
DR13 -0.84 dB -16.69 dB 7:11 11-No Problem (take 2)
DR11 -0.12 dB -13.50 dB 4:55 12-Jordu (take 1)
––––––––––––––––––––––––––––––––––––––––

Number of tracks: 12
Official DR value: DR11

Samplerate: 44100 Hz
Channels: 2
Bits per sample: 16
Bitrate: 824 kbps
Codec: FLAC
================================================================================

Duke Jordan Trio - Flight To Denmark (1973) Reissue 2008

Duke Jordan Trio - Flight To Denmark (1973) Reissue 2008

All thanks to original releaser - udonthaveto

More interesting music in My Blog