Subcategories

Duke Robillard & Herb Ellis - More Conversations In Swing Guitar (2003)

Posted By: Designol
Duke Robillard & Herb Ellis - More Conversations In Swing Guitar (2003)

Duke Robillard & Herb Ellis - More Conversations In Swing Guitar (2003)
EAC | FLAC | Image (Cue&Log) ~ 257 Mb | Mp3 (CBR320) ~ 113 Mb | Scans included
Guitar Jazz, Swing, Jazz Blues | Label: Stony Plain | # SPCD 1292 | 00:41:36

Many improvisers would agree that having the feeling of the blues is a crucial part of jazz expression; however, the jazz and blues worlds don't interact nearly as often as they should. There are jazz musicians who will play Miles Davis' "All Blues" or Charlie Parker's "Parker's Mood" on a regular basis but wouldn't know John Lee Hooker from Little Milton; there are blues artists who are much more likely to work with a rock musician than a jazz musician. So it is a rare treat to hear a blues-oriented guitarist and a jazz-oriented guitarist co-leading a session, which is exactly what happens on More Conversations in Swing Guitar. This 2003 release is a sequel to bluesman Duke Robillard and jazzman Herb Ellis' 1999 encounter Conversations in Swing Guitar, and the CD proves that good things can happen when jazz and blues players interact. More Conversations in Swing Guitar is an album of very blues-minded instrumental jazz – it's hardly a carbon copy of Robillard's work with the Fabulous Thunderbirds, but the bluesman has no problem appearing in a jazz-oriented setting. Despite their different backgrounds and age differences – Robillard was born in 1948, Ellis in 1921 – the two guitarists have no problem finding common ground, and they enjoy a strong rapport on three Robillard originals ("Blues for Terry," "End of Session Jump," and "Train to Texas") as well as Benny Moten's "Moten Swing" and Sir Charles Thompson's "Robbin's Nest." Few surprises occur, but the guitarists always sound inspired and enthusiastic on this solid, if somewhat predictable, outing.

Review by Alex Henderson, Allmusic.com

On the surface, the pairing of these two guitarists from different generations might seem an odd match. Duke Robillard is the founder of Roomful of Blues, has played with Eddie "Cleanhead" Vinson, Big Joe Turner, the Fabulous Thunderbirds, Bob Dylan. Herb Ellis, the elder half of this duo, has played with everyone from Louis Armstrong to Oscar Peterson, from Billie Holiday to Ella Fitzgerald. But from the very opening notes of More Conversations in Swing Guitar (the follow-up to '99s Conversation in Swing Guitar ), it's obvious that the two string men are musically very simpatico.

Though Robillard is more versed in the blues, he can swing, with the best of them, as the opener, "Moten Swing," attests. The guitarists are featured on separate stereo channels, which gives the listener (especially on headphones) the opportunity to hear the contrast in "conversational" styles—Robillard's fuller and more blues tinges; Ellis's tangy and looser, swinging just a bit freer than his younger counterpart.

The set is full of relaxed grooves, swinging easy, with superb accompaniment of Terry Homes on rhythm guitar, Marty Ballou on bass and Marty Richards on drums. A classy set of sounds that has that effortless feel only a group of consumate musicians can create. An essential disc for fans of swing guitar.

Review by Dan McClenaghan, All About Jazz

Duke Robillard & Herb Ellis - More Conversations In Swing Guitar (2003)



Duke Robillard, guitar
Herb Ellis, guitar
Terry Holmes, acoustic rhythm guitar
Marty Ballou, bass
Marty Richards, drums

Tracklist:

01. Moten Swing (7:32)
02. Train to Texas (7:22)
03. Robbin's Nest (6:47)
04. Just You Just Me (5:40)
05. Blues for Terry (7:37)
06. End of Session Jump (6:38)


Exact Audio Copy V1.0 beta 6 from 9. April 2015

Отчёт EAC об извлечении, выполненном 18. мая 2017, 13:08

Duke Robillard / More Conversations in Swing Guitar

Дисковод: ASUS DRW-24F1ST a Adapter: 1 ID: 0

Режим чтения : Достоверность
Использование точного потока : Да
Отключение кэша аудио : Да
Использование указателей C2 : Нет

Коррекция смещения при чтении : 6
Способность читать области Lead-in и Lead-out : Нет
Заполнение пропущенных сэмплов тишиной : Да
Удаление блоков с тишиной в начале и конце : Нет
При вычислениях CRC использовались нулевые сэмплы : Да
Интерфейс : Встроенный Win32-интерфейс для Win NT/2000

Выходной формат : Пользовательский кодировщик
Выбранный битрейт : 768 kBit/s
Качество : Высокий
Добавление ID3-тега : Нет
Утилита сжатия : D:\05. Other\10. КОМПЬЮТЕР\Exact Audio Copy\FLAC\FLAC.EXE
Дополнительные параметры : -6 -V -T "ARTIST=%artist%" -T "TITLE=%title%" -T "ALBUM=%albumtitle%" -T "DATE=%year%" -T "TRACKNUMBER=%tracknr%" -T "GENRE=%genre%" -T "COMMENT=%comment%" -T "BAND=%albuminterpret%" -T "ALBUMARTIST=%albuminterpret%" -T "COMPOSER=%composer%" %haslyrics%–tag-from-file=LYRICS="%lyricsfile%"%haslyrics% -T "DISCNUMBER=%cdnumber%" -T "TOTALDISCS=%totalcds%" -T "TOTALTRACKS=%numtracks%" %hascover%–picture="%coverfile%"%hascover% %source% -o %dest%


TOC извлечённого CD

Трек | Старт | Длительность | Начальный сектор | Конечный сектор
––––––––––––––––––––––––––––––––––-
1 | 0:00.00 | 7:32.07 | 0 | 33906
2 | 7:32.07 | 7:22.13 | 33907 | 67069
3 | 14:54.20 | 6:47.22 | 67070 | 97616
4 | 21:41.42 | 5:39.52 | 97617 | 123093
5 | 27:21.19 | 7:36.72 | 123094 | 157365
6 | 34:58.16 | 6:37.60 | 157366 | 187200


Характеристики диапазона извлечения и сообщения об ошибках

Выбранный диапазон

Имя файла D:\Duke Robillard & Herb Ellis - More Conversations In Swing Guitar (2003)\Duke Robillard - More Conversations in Swing Guitar.wav

Пиковый уровень 100.0 %
Скорость извлечения 2.7 X
Качество диапазона 99.9 %
CRC теста B6AE1C3C
CRC копии B6AE1C3C
Копирование… OK

Ошибок не произошло


AccurateRip: сводка

Трек 1 : извлечено точно (доверие 8) [BCE931DF] (AR v2)
Трек 2 : извлечено точно (доверие 8) [33B7BA1D] (AR v2)
Трек 3 : извлечено точно (доверие 8) [B8ECE996] (AR v2)
Трек 4 : извлечено точно (доверие 8) [ECCEE43B] (AR v2)
Трек 5 : извлечено точно (доверие 8) [15282D20] (AR v2)
Трек 6 : извлечено точно (доверие 8) [3928DEF5] (AR v2)

Все треки извлечены точно

Конец отчёта

==== Контрольная сумма отчёта 13B3B9DFDE369E7FC51D3C5A1D0A824CBFBB4A668393E5FAFFFE6C0C79059A66 ====

foobar2000 1.2 / Dynamic Range Meter 1.1.1
log date: 2017-08-30 16:20:52

––––––––––––––––––––––––––––––––––––––––
Analyzed: Duke Robillard / More Conversations in Swing Guitar
––––––––––––––––––––––––––––––––––––––––

DR Peak RMS Duration Track
––––––––––––––––––––––––––––––––––––––––
DR14 -0.72 dB -17.95 dB 7:32 01-Moten Swing
DR15 0.00 dB -18.30 dB 7:22 02-Train to Texas
DR14 -2.25 dB -20.93 dB 6:47 03-Robbin's Nest
DR14 -0.82 dB -20.06 dB 5:40 04-Just You Just Me
DR15 -1.00 dB -19.76 dB 7:37 05-Blues for Terry
DR14 -0.22 dB -18.72 dB 6:38 06-End of Session Jump
––––––––––––––––––––––––––––––––––––––––

Number of tracks: 6
Official DR value: DR14

Samplerate: 44100 Hz
Channels: 2
Bits per sample: 16
Bitrate: 804 kbps
Codec: FLAC
================================================================================

Duke Robillard & Herb Ellis - More Conversations In Swing Guitar (2003)

Duke Robillard & Herb Ellis - More Conversations In Swing Guitar (2003)