Subcategories

Duke Ellington & John Coltrane - Duke Ellington & John Coltrane (1963) [Reissue 2010] (Repost)

Posted By: gribovar
Duke Ellington & John Coltrane - Duke Ellington & John Coltrane (1963) [Reissue 2010] (Repost)

Duke Ellington & John Coltrane - Duke Ellington & John Coltrane (1963) [Reissue 2010]
EAC Rip | FLAC (tracks+.cue+log) - 209 MB | MP3 CBR 320 kbps (LAME 3.93) - 82 MB | Covers - 26 MB
Genre: Jazz | RAR 3% Rec. | Label: Analogue Productions (CIPJ 30 SA)

The classic 1963 album Duke Ellington & John Coltrane showcased the rising jazz saxophone innovator performing alongside the long-established piano institution. While the pairing might have portended a dynamic clash of the musical generations, instead we got a casual, respectful, and musically generous meeting of like-minded souls. Similarly, while one might have assumed that Ellington would use his sidemen, instead producer Bob Thiele (who also produced similar albums for Ellington including pairings with Louis Armstrong and Coleman Hawkins) chose to bring in Coltrane's own outfit for the proceedings. Consequently, the duo is backed here at various times by bassist Jimmy Garrison and drummer Elvin Jones, as well as alternates bassist Aaron Bell and drummer Sam Woodyard. The most surprising aspect of the Ellington/Coltrane date is how well suited Coltrane and his group are at playing what largely ends up being Ellington's own material. While he was certainly in the nascency of his more avant-garde period in 1962, Coltrane had a deep understanding of traditional jazz vocabulary, having played in a swing band in the Navy in the 1940s and studied the style of artists like Hawkins and Ben Webster while coming up in Philadelphia. Similarly, though an icon of the big-band era by the 1960s, Ellington had been on the upswing of a career resurgence ever since his dynamic performance at the 1958 Newport Jazz Festival, later released as Ellington at Newport. His meeting with Coltrane was emblematic of his renewed creativity and was one of several albums he recorded in his latter life with theretofore unexpected artists, not the least of which his other 1962 date, Money Jungle with bassist Charles Mingus and drummer Max Roach. Here, Ellington and Coltrane play a handful of well-known Ellington book numbers, including a supremely lyrical "In a Sentimental Mood" and a soulful, half-lidded version of Billy Strayhorn's "My Little Brown Book." Ellington even supplied the brisk original "Take the Coltrane," allowing plenty of room for Coltrane to let loose with knotty, angular lines.
Tracklist:
01. In a Sentimental Mood
02. Take the Coltrane
03. Big Nick
04. Stevie
05. My Little Brown Book
06. Angelica
07. The Feeling of Jazz

Total time: 34:58

Exact Audio Copy V1.0 beta 1 from 15. November 2010

EAC extraction logfile from 26. February 2011, 11:43

Duke Ellington & John Coltrane / Duke Ellington & John Coltrane

Used drive : HL-DT-STDVDRAM GP08NU6B Adapter: 1 ID: 0

Read mode : Secure
Utilize accurate stream : Yes
Defeat audio cache : Yes
Make use of C2 pointers : No

Read offset correction : 103
Overread into Lead-In and Lead-Out : No
Fill up missing offset samples with silence : Yes
Delete leading and trailing silent blocks : No
Null samples used in CRC calculations : Yes
Used interface : Native Win32 interface for Win NT & 2000
Gap handling : Appended to previous track

Used output format : User Defined Encoder
Selected bitrate : 128 kBit/s
Quality : High
Add ID3 tag : No
Command line compressor : C:\Program Files\FLAC\flac.exe
Additional command line options : -8 -V -T "ARTIST=%a" -T "TITLE=%t" -T "ALBUM=%g" -T "DATE=%y" -T "TRACKNUMBER=%n" -T "TOTALTRACKS=%x" -T "GENRE=%m" -T "ALBUM ARTIST=%v" -T "ALBUMARTIST=%v" -T "COMMENT=L2Bits, EAC V1.0 beta 1, Secure Mode, Test & Copy, Acc


TOC of the extracted CD

Track | Start | Length | Start sector | End sector
––––––––––––––––––––––––––––-
1 | 0:00.30 | 4:17.73 | 30 | 19377
2 | 4:18.28 | 4:44.56 | 19378 | 40733
3 | 9:03.09 | 4:31.03 | 40734 | 61061
4 | 13:34.12 | 4:26.15 | 61062 | 81026
5 | 18:00.27 | 5:23.23 | 81027 | 105274
6 | 23:23.50 | 5:57.03 | 105275 | 132052
7 | 29:20.53 | 5:38.05 | 132053 | 157407


Track 1

Filename D:\Bezz Rip\01 - Duke Ellington & John Coltrane - In A Sentimental Mood.wav

Pre-gap length 0:00:02.30

Peak level 74.8 %
Extraction speed 1.3 X
Track quality 100.0 %
Test CRC 58A6BA86
Copy CRC 58A6BA86
Track not present in AccurateRip database
Copy OK

Track 2

Filename D:\Bezz Rip\02 - Duke Ellington & John Coltrane - Take The Coltrane.wav

Pre-gap length 0:00:01.52

Peak level 100.0 %
Extraction speed 1.5 X
Track quality 100.0 %
Test CRC 29FC50A9
Copy CRC 29FC50A9
Track not present in AccurateRip database
Copy OK

Track 3

Filename D:\Bezz Rip\03 - Duke Ellington & John Coltrane - Big Nick.wav

Pre-gap length 0:00:02.17

Peak level 100.0 %
Extraction speed 1.6 X
Track quality 100.0 %
Test CRC 896FF615
Copy CRC 896FF615
Track not present in AccurateRip database
Copy OK

Track 4

Filename D:\Bezz Rip\04 - Duke Ellington & John Coltrane - Stevie.wav

Pre-gap length 0:00:02.17

Peak level 96.3 %
Extraction speed 1.7 X
Track quality 100.0 %
Test CRC 7A5B4E01
Copy CRC 7A5B4E01
Track not present in AccurateRip database
Copy OK

Track 5

Filename D:\Bezz Rip\05 - Duke Ellington & John Coltrane - My Little Brown Book.wav

Pre-gap length 0:00:02.11

Peak level 100.0 %
Extraction speed 1.9 X
Track quality 100.0 %
Test CRC FC24ACA2
Copy CRC FC24ACA2
Track not present in AccurateRip database
Copy OK

Track 6

Filename D:\Bezz Rip\06 - Duke Ellington & John Coltrane - Angelica.wav

Pre-gap length 0:00:02.55

Peak level 76.3 %
Extraction speed 2.1 X
Track quality 100.0 %
Test CRC D0800FCE
Copy CRC D0800FCE
Track not present in AccurateRip database
Copy OK

Track 7

Filename D:\Bezz Rip\07 - Duke Ellington & John Coltrane - The Feeling Of Jazz.wav

Pre-gap length 0:00:01.20

Peak level 100.0 %
Extraction speed 2.0 X
Track quality 99.9 %
Test CRC 4FB47AFB
Copy CRC 4FB47AFB
Track not present in AccurateRip database
Copy OK


None of the tracks are present in the AccurateRip database

No errors occurred

End of status report

==== Log checksum FF5CC7CE5BDBD99B6BA7EEF945BBBB7DD1CFE352B0B10B8763DA3058EEED5B4F ====

[CUETools log; Date: 13.06.2019 0:35:45; Version: 2.1.4]
Pregap length 00:00:30.
[CTDB TOCID: brZOC.kNUd4XArv4GZPln5eEIB4-] found.
Track | CTDB Status
1 | (14/14) Accurately ripped
2 | (14/14) Accurately ripped
3 | (14/14) Accurately ripped
4 | (14/14) Accurately ripped
5 | (14/14) Accurately ripped
6 | (14/14) Accurately ripped
7 | (14/14) Accurately ripped
[AccurateRip ID: 00091be7-003752b8-4c083207] found.
Track [ CRC | V2 ] Status
01 [ffca8d96|f3621ce9] (04+23/27) Accurately ripped
02 [040f6c72|69c80a80] (04+22/26) Accurately ripped
03 [249da8a8|cf54941a] (04+22/26) Accurately ripped
04 [a55ed328|91f894c6] (04+22/26) Accurately ripped
05 [a65234e0|b54bbcce] (04+22/26) Accurately ripped
06 [af08e544|4a968ab4] (04+22/26) Accurately ripped
07 [2e1cfc9e|bb5e5a50] (04+22/26) Accurately ripped

Track Peak [ CRC32 ] [W/O NULL] [ LOG ]
– 100,0 [E627A6B1] [6FA4C486]
01 74,8 [58A6BA86] [3BE99463] CRC32
02 100,0 [29FC50A9] [4C0C00E3] CRC32
03 100,0 [896FF615] [4C44A447] CRC32
04 96,3 [7A5B4E01] [674CF2AD] CRC32
05 100,0 [FC24ACA2] [E281E8C8] CRC32
06 76,3 [D0800FCE] [7B175FC4] CRC32
07 100,0 [4FB47AFB] [EF3D4931] CRC32

Thanks to Bezz

See also:

Duke Ellington - Duke Ellington at the Bal Masque (1958)
Duke Ellington and His Orchestra featuring Mahalia Jackson - Black, Brown and Beige (1958) [Reissue 1999]
Duke Ellington - Jazz Party (1959)
Duke Ellington & Johnny Hodges - Side By Side (1959) [Reissue 1999]
Duke Ellington And His Orchestra - Peer Gynt Suites Nos. 1 & 2 / Suite Thursday (1960)
Duke Ellington - Blues In Orbit (1960) [Reissue 2009]
Duke Ellington & Coleman Hawkins - Duke Ellington Meets Coleman Hawkins (1963) [Reissue 2010]
Duke Ellington - Soul Call (1967) [Reissue 1999]
Duke Ellington - The Popular Duke Ellington (1967) [Reissue 2002]
Duke Ellington - Orchestral Works (1970) [Reissue 1989]
Duke Ellington - The Afro-Eurasian Eclipse (1971)
Duke Ellington - Love You Madly (1974) [Reissue 2002]
Duke Ellington - Recollections of the Big Band Era (1974) [Reissue 2012]
Duke Ellington - The Best of Duke Ellington (1980) [Reissue 1991]
Ella Fitzgerald & Duke Ellington - The Stockholm Concert, 1966 (1984)
Duke Ellington and His Orchestra - Harlem [Recorded 1964] (1985)
Duke Ellington - In the Uncommon Market [Recorded 1963-1966] (1986)
Duke Ellington - Great Original Performances 1927-1934 (1986)
The Duke Ellington Small Bands - The Intimacy Of The Blues (1986)
Duke Ellington - Compact Jazz: Duke Ellington & Friends [Recorded 1953-1966] (1987)
Duke Ellington - Swing 1930 to 1938 (1989)
Duke Ellington and His Orchestra - Early Ellington (1927-1934) (1989)
Duke Ellington - 40 Great Jazz Performances [3CD] (1990)
Duke Ellington and His Orchestra - 1927-1928 (1990)
Duke Ellington and His Orchestra - 1928 (1990)
Duke Ellington and His Orchestra - 1928-1929 (1990)
Duke Ellington and His Orchestra - 1929-1930 (1991)
Duke Ellington - Standards: Live At The Salle Pleyel [Recorded 1969] (1991)
Duke Ellington - Never-Before-Released Recordings (1965-1972) (1991)
Duke Ellington & His Orchestra - Happy Birthday, Duke! Vol. 1-5 (1992)
Duke Ellington and His Orchestra - 1932-1933 (1992)
Duke Ellington and His Orchestra - 1933 (1992)
Duke Ellington & Ella Fitzgerald - Duke & Ella In Concerto [Recorded 1966] (1993)
Duke Ellington and His Orchestra - 1937 Vol. 2 (1993)
Duke Ellington and His Orchestra - 1938 (1993)
Duke Ellington and His Orchestra - 1938 Vol. 3 (1993)
Duke Ellington and His Orchestra - 1939 (1994)
Duke Ellington and His Orchestra - 1939 Vol. 2 (1994)
Duke Ellington - Live in Europe (Guest Star Ella Fitzgerald) [Recorded 1967] (1994)
Duke Ellington - Le Jazz de A à Z [Recorded 1940-1945] (1994)
Duke Ellington - Duke Ellington and His Great Vocalists [Recorded 1932-1959] (1995)
Duke Ellington - Cornell University [Recorded 1948] (1995)
Duke Ellington - New York Concert [Recorded 1964] (1995)
Duke Ellington and His Orchestra - 1940 (1995)
Duke Ellington and His Orchestra - 1940 Vol. 2 (1995)
Duke Ellington and His Orchestra - 1941 (1995)
Duke Ellington and His Orchestra - 1942-1944 (1996)
Duke Ellington and His Orchestra - 1944-1945 (1996)
Duke Ellington and His Orchestra - 1945 (1996)
Duke Ellington - This Is Jazz [Recorded 1927-1959] (1996)
Duke Ellington - Sophisticated Lady [Recorded 1940-1946] (1996)
Duke Ellington and His Orchestra - 1945 Vol. 2 (1997)
Duke Ellington - Jazz Masters 1953-1955 (1997)
Duke Ellington - Jazz Profile [Recorded 1953-1971] (1997)
Duke Ellington - Mellow (1997)
Duke Ellington and His Orchestra - 1945-1946 (1998)
Duke Ellington - This Is Jazz - Duke Ellington Plays Standards [Recorded 1935-1964] (1998)
Duke Ellington - Live in Mexico [Recorded 1968] (1998)
Duke Ellington - The Duke in Washington [Recorded 1943-1969] (1999)
Duke Ellington - Masterpieces 1926-1949 [4CD Box Set] (2001)
Duke Ellington - Love Songs [Recorded 1941-1963] (2001)
Duke Ellington - Alhambra - Oct. 29th, 1958 [2CD] (2002)
Duke Ellington - Never No Lament: The Blanton-Webster Band [Recorded 1940-1942, 3CD Box Set] (2003)
Duke Ellington - The Essential Duke Ellington [Recorded 1927-1960] (2005)
Duke Ellington And His Orchestra - Live in Zurich, Switzerland 2.5.1950 (2007)
Duke Ellington - Columbia Jazz Profiles [Recorded 1931-1960] (2008)
Duke Ellington - Live in Warsaw October 30, 1971 (2009)
Duke Ellington Orchestra - Bigbands Live: Liederhalle Stuttgart, March 6, 1967 (2011)
Duke Ellington - Blue Note Jazz Inspiration [Recorded 1953-1969] (2012)
Duke Ellington - The Complete Newport 1958 Performances (2014)

John Coltrane & Paul Quinichette - Cattin' With Coltrane And Quinichette (1959) [DCC 24 KT Gold CD, 1995]
John Coltrane - Settin' The Pace (1961) [XRCD, Reissue 1998]
John Coltrane - Lush Life (1961) [Japanese Edition 2007]
John Coltrane - Black Pearls (1964) [XRCD, Reissue 1998]
John Coltrane - Ascension (1965) [Japanese Edition 2001]
John Coltrane - Coltrane For You [Recorded 1956-1965] (2010)