Subcategories

Duran Duran - Greatest (1998) [Repost, New Rip]

Posted By: Designol
Duran Duran - Greatest (1998) [Repost, New Rip]

Duran Duran - Greatest (1998)
EAC | FLAC | Tracks (Cue&Log) ~ 571 Mb (incl 5%) | Mp3 (CBR320) ~ 188 Mb (incl 5%) | Scans ~ 59 Mb
New Wave, Dance Rock, SynthPop, Pop/Rock | Label: EMI | # 7243 4 96239 2 7 | Time: 01:18:21

Twenty years since their pop music debut, Duran Duran issued another greatest-hits collection. As if 1989's Decade weren't stellar enough, this select package was much more solid. Greatest showcased the band's early days of glam rock décor and new romanticism to the alluring sophistication Duran Duran exuded throughout the '90s. The typical synth-powered pop hits are included – "Girls on Film," "Rio," "A View to a Kill" – as well as the signature ballads – "Save a Prayer" – but it might also receive criticism due to its chronological disarray. Still, that gives no reason to fret, for other goodies can be found throughout. The much-neglected "New Moon on Monday" is featured, as well as the band's mature eclecticism of such songs from the self-titled Wedding Album – "Ordinary World" and "Come Undone." The band's experimentation with new millennium electronica found on "Electric Barbarella" again refocuses on Simon LeBon as the center of the band. A continuity blatantly obvious on Greatest and the strong commercialism that progressed throughout the band's healthy evolvement is not denied. Those chart-smashing singles from the 1980s made them a force to be reckoned with and an arena favorite. The songs are nearly ageless and they get their due here. It's a cheeky production and a definitive depiction of one of rock's biggest pop bands.

Review by MacKenzie Wilson, Allmusic.com

Duran Duran - Greatest (1998) [Repost, New Rip]



Tracklist:

01. Is There Something I Should Know (04:10)
02. The Reflex (04:24)
03. A View to A Kill (03:34)
04. Ordinary World (Single Version) (04:42)
05. Save A Prayer (U.S. Single Version) (03:47)
06. Rio (U.S. Edit) (04:45)
07. Hungry Like The Wolf (03:25)
08. Girls On Film (03:27)
09. Planet Earth (Single Version) (03:57)
10. Union Of The Snake (04:22)
11. New Moon On Monday (04:16)
12. Wild Boys (04:17)
13. Notorious (04:00)
14. I Don't Want Your Love (Shep Pettibone 7'' Mix) (03:48)
15. All She Wants Is (45 Mix) (04:26)
16. Electric Barbarella (Edit) (04:17)
17. Serious (Edit) (03:56)
18. Skin Trade (Radio Cut) (04:26)
19. Come Undone (Edit) (04:15)


Exact Audio Copy V1.0 beta 4 from 7. December 2014

EAC extraction logfile from 9. April 2016, 0:27

Duran Duran / Greatest

Used drive : TSSTcorpCDDVDW SH-224DB Adapter: 1 ID: 0

Read mode : Secure
Utilize accurate stream : Yes
Defeat audio cache : Yes
Make use of C2 pointers : No

Read offset correction : 6
Overread into Lead-In and Lead-Out : No
Fill up missing offset samples with silence : Yes
Delete leading and trailing silent blocks : No
Null samples used in CRC calculations : Yes
Used interface : Native Win32 interface for Win NT & 2000
Gap handling : Appended to previous track

Used output format : User Defined Encoder
Selected bitrate : 896 kBit/s
Quality : High
Add ID3 tag : No
Command line compressor : C:\Program Files\Exact Audio Copy\Flac\flac.exe
Additional command line options : -6 -V -T "ARTIST=%artist%" -T "TITLE=%title%" -T "ALBUM=%albumtitle%" -T "DATE=%year%" -T "TRACKNUMBER=%tracknr%" -T "GENRE=%genre%" -T "COMMENT=%comment%" %source% -o %dest%


TOC of the extracted CD

Track | Start | Length | Start sector | End sector
––––––––––––––––––––––––––––-
1 | 0:00.00 | 4:10.27 | 0 | 18776
2 | 4:10.27 | 4:24.03 | 18777 | 38579
3 | 8:34.30 | 3:34.72 | 38580 | 54701
4 | 12:09.27 | 4:42.53 | 54702 | 75904
5 | 16:52.05 | 3:47.30 | 75905 | 92959
6 | 20:39.35 | 4:45.10 | 92960 | 114344
7 | 25:24.45 | 3:25.15 | 114345 | 129734
8 | 28:49.60 | 3:27.57 | 129735 | 145316
9 | 32:17.42 | 3:57.45 | 145317 | 163136
10 | 36:15.12 | 4:22.10 | 163137 | 182796
11 | 40:37.22 | 4:16.03 | 182797 | 201999
12 | 44:53.25 | 4:17.25 | 202000 | 221299
13 | 49:10.50 | 4:00.67 | 221300 | 239366
14 | 53:11.42 | 3:48.05 | 239367 | 256471
15 | 56:59.47 | 4:26.63 | 256472 | 276484
16 | 61:26.35 | 4:17.15 | 276485 | 295774
17 | 65:43.50 | 3:56.67 | 295775 | 313541
18 | 69:40.42 | 4:26.03 | 313542 | 333494
19 | 74:06.45 | 4:15.25 | 333495 | 352644


Track 1

Filename C:\New Folder\01 - Is There Something I Should Know.wav

Pre-gap length 0:00:02.00

Peak level 99.9 %
Extraction speed 1.9 X
Track quality 100.0 %
Test CRC 26E5E9EF
Copy CRC 26E5E9EF
Accurately ripped (confidence 200) [DB8DF8C3] (AR v2)
Copy OK

Track 2

Filename C:\New Folder\02 - The Reflex.wav

Pre-gap length 0:00:00.47

Peak level 99.9 %
Extraction speed 2.1 X
Track quality 100.0 %
Test CRC BD2AC462
Copy CRC BD2AC462
Accurately ripped (confidence 200) [B315E9E1] (AR v2)
Copy OK

Track 3

Filename C:\New Folder\03 - A View to A Kill.wav

Pre-gap length 0:00:00.28

Peak level 99.9 %
Extraction speed 2.2 X
Track quality 100.0 %
Test CRC 9C5411FF
Copy CRC 9C5411FF
Accurately ripped (confidence 200) [7709E27B] (AR v2)
Copy OK

Track 4

Filename C:\New Folder\04 - Ordinary World (Single Version).wav

Pre-gap length 0:00:00.07

Peak level 99.9 %
Extraction speed 2.5 X
Track quality 100.0 %
Test CRC EDA1746F
Copy CRC EDA1746F
Accurately ripped (confidence 200) [002C56EB] (AR v2)
Copy OK

Track 5

Filename C:\New Folder\05 - Save A Prayer (U.S. Single Version).wav

Pre-gap length 0:00:01.65

Peak level 99.9 %
Extraction speed 2.0 X
Track quality 99.9 %
Test CRC 7D109105
Copy CRC 7D109105
Accurately ripped (confidence 200) [21B9923F] (AR v2)
Copy OK

Track 6

Filename C:\New Folder\06 - Rio (U.S. Edit).wav

Pre-gap length 0:00:01.10

Peak level 99.9 %
Extraction speed 2.7 X
Track quality 100.0 %
Test CRC 1D0513F8
Copy CRC 1D0513F8
Accurately ripped (confidence 200) [1F9A553C] (AR v2)
Copy OK

Track 7

Filename C:\New Folder\07 - Hungry Like The Wolf.wav

Pre-gap length 0:00:00.50

Peak level 99.9 %
Extraction speed 2.2 X
Track quality 99.9 %
Test CRC E5D3077C
Copy CRC E5D3077C
Accurately ripped (confidence 200) [9198566A] (AR v2)
Copy OK

Track 8

Filename C:\New Folder\08 - Girls On Film.wav

Pre-gap length 0:00:00.40

Peak level 99.9 %
Extraction speed 2.9 X
Track quality 100.0 %
Test CRC 10FEACBA
Copy CRC 10FEACBA
Accurately ripped (confidence 200) [B82890F9] (AR v2)
Copy OK

Track 9

Filename C:\New Folder\09 - Planet Earth (Single Version).wav

Pre-gap length 0:00:00.22

Peak level 99.9 %
Extraction speed 3.0 X
Track quality 100.0 %
Test CRC FF4488CF
Copy CRC FF4488CF
Accurately ripped (confidence 200) [404B8492] (AR v2)
Copy OK

Track 10

Filename C:\New Folder\10 - Union Of The Snake.wav

Pre-gap length 0:00:02.25

Peak level 99.9 %
Extraction speed 3.2 X
Track quality 100.0 %
Test CRC 10897AC4
Copy CRC 10897AC4
Accurately ripped (confidence 200) [6F9E910B] (AR v2)
Copy OK

Track 11

Filename C:\New Folder\11 - New Moon On Monday.wav

Pre-gap length 0:00:00.22

Peak level 99.9 %
Extraction speed 3.3 X
Track quality 100.0 %
Test CRC 733E8748
Copy CRC 733E8748
Accurately ripped (confidence 200) [A32784AE] (AR v2)
Copy OK

Track 12

Filename C:\New Folder\12 - Wild Boys.wav

Pre-gap length 0:00:00.48

Peak level 99.9 %
Extraction speed 3.4 X
Track quality 100.0 %
Test CRC 82F62FE3
Copy CRC 82F62FE3
Accurately ripped (confidence 200) [69672A80] (AR v2)
Copy OK

Track 13

Filename C:\New Folder\13 - Notorious.wav

Pre-gap length 0:00:00.20

Peak level 99.9 %
Extraction speed 3.5 X
Track quality 100.0 %
Test CRC 35DDD686
Copy CRC 35DDD686
Accurately ripped (confidence 200) [7330CB6B] (AR v2)
Copy OK

Track 14

Filename C:\New Folder\14 - I Don't Want Your Love (Shep Pettibone 7'' Mix).wav

Pre-gap length 0:00:02.02

Peak level 99.9 %
Extraction speed 2.7 X
Track quality 99.9 %
Test CRC 0BF2136B
Copy CRC 0BF2136B
Accurately ripped (confidence 200) [28BBB48F] (AR v2)
Copy OK

Track 15

Filename C:\New Folder\15 - All She Wants Is (45 Mix).wav

Pre-gap length 0:00:00.50

Peak level 99.9 %
Extraction speed 3.7 X
Track quality 100.0 %
Test CRC C2CCEFA6
Copy CRC C2CCEFA6
Accurately ripped (confidence 200) [4BF804AC] (AR v2)
Copy OK

Track 16

Filename C:\New Folder\16 - Electric Barbarella (Edit).wav

Pre-gap length 0:00:00.33

Peak level 99.9 %
Extraction speed 3.8 X
Track quality 100.0 %
Test CRC 21423108
Copy CRC 21423108
Accurately ripped (confidence 200) [B9E93FA3] (AR v2)
Copy OK

Track 17

Filename C:\New Folder\17 - Serious (Edit).wav

Pre-gap length 0:00:00.10

Peak level 99.9 %
Extraction speed 3.9 X
Track quality 100.0 %
Test CRC A2656F76
Copy CRC A2656F76
Accurately ripped (confidence 200) [3765E65E] (AR v2)
Copy OK

Track 18

Filename C:\New Folder\18 - Skin Trade (Radio Cut).wav

Pre-gap length 0:00:00.07

Peak level 99.9 %
Extraction speed 4.0 X
Track quality 100.0 %
Test CRC 528AD692
Copy CRC 528AD692
Accurately ripped (confidence 200) [D5EC6E04] (AR v2)
Copy OK

Track 19

Filename C:\New Folder\19 - Come Undone (Edit).wav

Pre-gap length 0:00:00.10

Peak level 99.9 %
Extraction speed 3.0 X
Track quality 99.9 %
Test CRC A5BBB442
Copy CRC A5BBB442
Accurately ripped (confidence 200) [4E41F41C] (AR v2)
Copy OK


All tracks accurately ripped

No errors occurred

End of status report

–– CUETools DB Plugin V2.1.4

[CTDB TOCID: stFvu0tGKfxTwem.3P7wmokSH7U-] found
Submit result: stFvu0tGKfxTwem.3P7wmokSH7U- has been confirmed
Track | CTDB Status
1 | (739/857) Accurately ripped
2 | (737/857) Accurately ripped
3 | (738/857) Accurately ripped
4 | (735/857) Accurately ripped
5 | (738/857) Accurately ripped
6 | (735/857) Accurately ripped
7 | (736/857) Accurately ripped
8 | (735/857) Accurately ripped
9 | (731/857) Accurately ripped
10 | (734/857) Accurately ripped
11 | (733/857) Accurately ripped
12 | (734/857) Accurately ripped
13 | (730/857) Accurately ripped
14 | (734/857) Accurately ripped
15 | (726/857) Accurately ripped
16 | (725/857) Accurately ripped, or (5/857) differs in 11 samples @01:53:74
17 | (721/857) Accurately ripped, or (5/857) differs in 12 samples @00:48:70
18 | (725/857) Accurately ripped
19 | (716/857) Accurately ripped


==== Log checksum 2BD80FB63A1B6BEBD7247D0837E0895DF17E7A0BE22264900AF4A6D4E5E970FF ====

foobar2000 1.2 / Dynamic Range Meter 1.1.1
log date: 2016-10-13 18:19:39

––––––––––––––––––––––––––––––––––––––––
Analyzed: Duran Duran / Greatest
––––––––––––––––––––––––––––––––––––––––

DR Peak RMS Duration Track
––––––––––––––––––––––––––––––––––––––––
DR11 0.00 dB -11.95 dB 4:10 01-Is There Something I Should Know
DR9 0.00 dB -10.57 dB 4:24 02-The Reflex
DR11 0.00 dB -12.89 dB 3:35 03-A View to A Kill
DR9 0.00 dB -12.11 dB 4:43 04-Ordinary World (Single Version)
DR10 0.00 dB -12.35 dB 3:47 05-Save A Prayer (U.S. Single Version)
DR10 0.00 dB -11.72 dB 4:45 06-Rio (U.S. Edit)
DR11 0.00 dB -12.43 dB 3:25 07-Hungry Like The Wolf
DR12 0.00 dB -13.19 dB 3:28 08-Girls On Film
DR12 0.00 dB -12.90 dB 3:58 09-Planet Earth (Single Version)
DR10 0.00 dB -11.93 dB 4:22 10-Union Of The Snake
DR9 0.00 dB -10.76 dB 4:16 11-New Moon On Monday
DR11 0.00 dB -12.16 dB 4:17 12-Wild Boys
DR13 0.00 dB -14.21 dB 4:01 13-Notorious
DR11 0.00 dB -12.75 dB 3:48 14-I Don't Want Your Love (Shep Pettibone 7'' Mix)
DR12 0.00 dB -14.14 dB 4:27 15-All She Wants Is (45 Mix)
DR8 0.00 dB -9.22 dB 4:17 16-Electric Barbarella (Edit)
DR11 0.00 dB -12.44 dB 3:57 17-Serious (Edit)
DR12 0.00 dB -13.94 dB 4:26 18-Skin Trade (Radio Cut)
DR10 0.00 dB -11.52 dB 4:15 19-Come Undone (Edit)
––––––––––––––––––––––––––––––––––––––––

Number of tracks: 19
Official DR value: DR11

Samplerate: 44100 Hz
Channels: 2
Bits per sample: 16
Bitrate: 1021 kbps
Codec: FLAC
================================================================================

Duran Duran - Greatest (1998) [Repost, New Rip]

Duran Duran - Greatest (1998) [Repost, New Rip]

All thanks to original releaser - alekow

More interesting music in My Blog