Subcategories

Duran Duran - Arena (1984) (2004 Remaster)

Posted By: uff
Duran Duran - Arena (1984) (2004 Remaster)

Duran Duran - Arena (1984) (2004 Remaster)
New Wave | 1cd | EAC Rip | Flac + Cue + Log | covers
EMI 7243 5 78085 2 | rel: 2004 | 495Mb

The 20th anniversary reissue of Duran Duran's live CD, digitally remastered and with two bonus tracks: the live versions of "Girls on Film" and "Rio." Thanks to the remastering, the sound quality is a huge improvement over the original 1984 recording. The bonus tracks, especially the dynamic live version of "Girls on Film," are so good that they're almost worth the price of this CD. It makes you wonder why they weren't included in the first place. And, of course, we have the Nile Rodgers-produced "Wild Boys," a killer studio track that went to Number Two in the fall of 1984.
With a few exceptions, the audience is eliminated from the recording. As a result, you don't really feel a connection between the band and their fans. Also, the live versions are, for the most part, note-for-note replicas of the originals, although the kickass "Careless Memories" is a true standout.
Worth a purchase only for Duran Duran fans, even if they already have the original release. While its flaws remain, the remastering is top-notch, and the two extra tracks are worth checking out. ~Amazon

Track listing
01. Is There Something I Should Know? (4:34)
02. Hungry Like The Wolf (4:01)
03. New Religion (5:37)
04. Save A Prayer (6:12)
05. Wild Boys (4:19)
06. The Seventh Stranger (5:06)
07. The Chauffeur (5:24)
08. Union Of The Snake (4:09)
09. Planet Earth (4:31)
10. Careless Memories (4:07)
11. Girls On Film (5:59)
12. Rio (5:56)
~ (59:56)

Personnel
- Simon Le Bon – vocals
- Nick Rhodes – keyboards
- John Taylor – bass guitar
- Roger Taylor – drums
- Andy Taylor – guitar


EAC extraction logfile from 6. October 2007, 12:02 for CD
Duran Duran / Arena

Used drive : SONY DVD RW DW-G121A Adapter: 4 ID: 0
Read mode : Secure with NO C2, accurate stream, disable cache
Read offset correction : 6
Overread into Lead-In and Lead-Out : No

Used output format : C:\Program Files\FLAC\flac.exe (User Defined Encoder)
128 kBit/s
Additional command line options : -V -8 -T "artist=%a" -T "title=%t" -T "album=%g" -T "date=%y" -T "tracknumber=%n" -T "genre=%m" %s

Other options :
Fill up missing offset samples with silence : Yes
Delete leading and trailing silent blocks : No
Native Win32 interface for Win NT & 2000


Track 1
Filename C:\Duran Duran - Arena\01 - Is There Something I Should Know.wav

Pre-gap length 0:00:02.00

Peak level 98.4 %
Track quality 100.0 %
Test CRC CF5F22C3
Copy CRC CF5F22C3
Copy OK

Track 2
Filename C:\Duran Duran - Arena\02 - Hungry Like The Wolf.wav

Peak level 98.2 %
Track quality 100.0 %
Test CRC 7306537E
Copy CRC 7306537E
Copy OK

Track 3
Filename C:\Duran Duran - Arena\03 - New Religion.wav

Peak level 98.0 %
Track quality 100.0 %
Test CRC F5228A0F
Copy CRC F5228A0F
Copy OK

Track 4
Filename C:\Duran Duran - Arena\04 - Save A Prayer.wav

Peak level 98.0 %
Track quality 100.0 %
Test CRC AE0FD6CB
Copy CRC AE0FD6CB
Copy OK

Track 5
Filename C:\Duran Duran - Arena\05 - The Wild Boys.wav

Pre-gap length 0:00:00.84

Peak level 99.2 %
Track quality 99.9 %
Test CRC 78E10528
Copy CRC 78E10528
Copy OK

Track 6
Filename C:\Duran Duran - Arena\06 - The Seventh Stranger.wav

Pre-gap length 0:00:01.13

Peak level 98.1 %
Track quality 100.0 %
Test CRC 7B3B7E18
Copy CRC 7B3B7E18
Copy OK

Track 7
Filename C:\Duran Duran - Arena\07 - The Chauffeur.wav

Peak level 98.0 %
Track quality 100.0 %
Test CRC CFEB96F0
Copy CRC CFEB96F0
Copy OK

Track 8
Filename C:\Duran Duran - Arena\08 - The Union Of The Snake.wav

Peak level 98.9 %
Track quality 100.0 %
Test CRC 7279E65B
Copy CRC 7279E65B
Copy OK

Track 9
Filename C:\Duran Duran - Arena\09 - Planet Earth.wav

Pre-gap length 0:00:00.12

Peak level 98.9 %
Track quality 100.0 %
Test CRC 9503198F
Copy CRC 9503198F
Copy OK

Track 10
Filename C:\Duran Duran - Arena\10 - Careless Memories.wav

Pre-gap length 0:00:00.01

Peak level 98.5 %
Track quality 100.0 %
Test CRC B497A7BD
Copy CRC B497A7BD
Copy OK

Track 11
Filename C:\Duran Duran - Arena\11 - Girls On Film.wav

Pre-gap length 0:00:00.10

Peak level 98.1 %
Track quality 100.0 %
Test CRC 8995E118
Copy CRC 8995E118
Copy OK

Track 12
Filename C:\Duran Duran - Arena\12 - Rio.wav

Pre-gap length 0:00:00.50

Peak level 98.5 %
Track quality 100.0 %
Test CRC DD1B6BAC
Copy CRC DD1B6BAC
Copy OK

No errors occured


End of status report



[CUETools log; Date: 2015.08.19. 10:11:59; Version: 2.1.5]
[CTDB TOCID: UO_Frs7tT9NZEjYqp4JAGSRDw3E-] found.
Track | CTDB Status
1 | (23/23) Accurately ripped
2 | (22/23) Accurately ripped
3 | (23/23) Accurately ripped
4 | (23/23) Accurately ripped
5 | (23/23) Accurately ripped
6 | (23/23) Accurately ripped
7 | (23/23) Accurately ripped
8 | (23/23) Accurately ripped
9 | (22/23) Accurately ripped
10 | (23/23) Accurately ripped
11 | (23/23) Accurately ripped
12 | (22/23) Accurately ripped
[AccurateRip ID: 001a486a-00f5e9e0-a50e0c0c] found.
Track [ CRC | V2 ] Status
01 [a446457f|dc821026] (04+04/49) Accurately ripped
02 [b598e55d|7df71a64] (04+04/48) Accurately ripped
03 [51b23b41|ab1a7286] (05+04/50) Accurately ripped
04 [c3301fcd|a6d7cc6d] (05+04/50) Accurately ripped
05 [a5a3e29a|c3124d06] (05+04/50) Accurately ripped
06 [77bfdc3d|159626a1] (04+04/49) Accurately ripped
07 [6b305a1a|638b3bd8] (05+04/50) Accurately ripped
08 [dd55a015|32cb4a30] (05+04/50) Accurately ripped
09 [bef41a98|d4e6f160] (05+04/50) Accurately ripped
10 [b2770477|3a13e7f0] (05+04/50) Accurately ripped
11 [41553d97|b7bab7f1] (06+04/51) Accurately ripped
12 [44bd92a3|2da870d6] (06+04/51) Accurately ripped
Offsetted by -664:
01 [ef332869] (04/49) Accurately ripped
02 [29655210] (04/48) Accurately ripped
03 [4a28d0d6] (04/50) Accurately ripped
04 [0ffe4417] (04/50) Accurately ripped
05 [a41016c2] (04/50) Accurately ripped
06 [309e1ad0] (04/49) Accurately ripped
07 [252de8f6] (04/50) Accurately ripped
08 [c82ad0af] (04/50) Accurately ripped
09 [b7e8116c] (04/50) Accurately ripped
10 [043c0272] (04/50) Accurately ripped
11 [d774cf3f] (04/51) Accurately ripped
12 [2eb4a6d3] (04/51) Accurately ripped
Offsetted by -68:
01 [49d61526] (11/49) Accurately ripped
02 [355fdb9f] (11/48) Accurately ripped
03 [219c4064] (11/50) Accurately ripped
04 [cc288001] (11/50) Accurately ripped
05 [a8901f76] (11/50) Accurately ripped
06 [f30a93cd] (11/49) Accurately ripped
07 [d68c519c] (11/50) Accurately ripped
08 [745a10f3] (11/50) Accurately ripped
09 [a6399fc6] (11/50) Accurately ripped
10 [a2b8fc81] (11/50) Accurately ripped
11 [6e021cb3] (11/51) Accurately ripped
12 [0f97a5ab] (11/51) Accurately ripped
Offsetted by -42:
01 [ac4cd6e1] (00/49) No match (V2 was not tested)
02 [7330914b] (00/48) No match (V2 was not tested)
03 [996047a4] (00/50) No match (V2 was not tested)
04 [889928de] (00/50) No match (V2 was not tested)
05 [36811740] (00/50) No match (V2 was not tested)
06 [ebce0f71] (00/49) No match (V2 was not tested)
07 [a227a5e8] (00/50) No match (V2 was not tested)
08 [128e54dc] (00/50) No match (V2 was not tested)
09 [657b6602] (00/50) No match (V2 was not tested)
10 [978bc79c] (00/50) No match (V2 was not tested)
11 [ebfc3fdd] (00/51) No match (V2 was not tested)
12 [2b717137] (00/51) No match (V2 was not tested)

Track Peak [ CRC32 ] [W/O NULL] [ LOG ]
– 99,2 [06567E16] [B34EBD2E]
01 98,4 [CF5F22C3] [DFBE5C04] CRC32
02 98,2 [7306537E] [BED8C523] CRC32
03 98,0 [F5228A0F] [C66330DF] CRC32
04 98,0 [AE0FD6CB] [55E41C32] CRC32
05 99,2 [78E10528] [33974350] CRC32
06 98,1 [7B3B7E18] [5FD6D273] CRC32
07 98,0 [CFEB96F0] [B8C8CECE] CRC32
08 98,9 [7279E65B] [A27935D2] CRC32
09 98,9 [9503198F] [8A1A7EA1] CRC32
10 98,5 [B497A7BD] [0E57B28A] CRC32
11 98,1 [8995E118] [D7F8A045] CRC32
12 98,5 [DD1B6BAC] [BE29FC76] CRC32



original uploader unknown
Uploadable

Yunfile


password: asd