Subcategories

Dvorak - Piano Trios - Beaux Arts Trio

Posted By: daksya
Dvorak - Piano Trios - Beaux Arts Trio

Antonín Dvořák's Piano Trios - Beaux Arts Trios: Menahem Pressler, Isidore Cohen, Bernard Greenhouse
2 CDs, 134:19 | A D D | Philips | EAC, FLAC image, CUE, Logs | Scans | RS | 611 MB
Classical - Romantic period | Chamber Music - Piano Trio | Composed 1871-91 | Recording 1969


Classics Today:
The Beaux Arts Trio performs all of this music with their customary musicality and expertise - David Hurwitz

Trio for Piano and Strings no 1 in B-flat major Op. 21/B 51
Trio for Piano and Strings no 2 in G minor Op. 26/B 56
Trio for Piano and Strings no 3 in F minor Op. 65/B 130
Trio for Piano and Strings no 4 in E minor Op. 90/B 166 "Dumky"

Exact Audio Copy V0.99 prebeta 4 from 23. January 2008

EAC extraction logfile from 27. May 2008, 14:06

Beaux Arts Trio / Dvorak - Complete Piano Trios [Disc 1]

Used drive : PHILIPS SPD3100L Adapter: 3 ID: 0

Read mode : Secure
Utilize accurate stream : Yes
Defeat audio cache : Yes
Make use of C2 pointers : No

Read offset correction : 6
Overread into Lead-In and Lead-Out : No
Fill up missing offset samples with silence : Yes
Delete leading and trailing silent blocks : No
Null samples used in CRC calculations : No
Used interface : Native Win32 interface for Win NT & 2000

Used output format : User Defined Encoder
Selected bitrate : 1024 kBit/s
Quality : High
Add ID3 tag : No
Command line compressor : C:\Program Files\Exact Audio Copy\FLAC\FLAC.EXE
Additional command line options : -6 -V -T "artist=%a" -T "title=%t" -T "album=%g" -T "date=%y" -T "tracknumber=%n" -T "genre=%m" -T comment="%e" -T "comment=EAC (Secure Mode)" %s


TOC of the extracted CD

Track | Start | Length | Start sector | End sector
––––––––––––––––––––––––––––-
1 | 0:00.32 | 9:04.00 | 32 | 40831
2 | 9:04.32 | 8:12.00 | 40832 | 77731
3 | 17:16.32 | 6:39.00 | 77732 | 107656
4 | 23:55.32 | 6:00.00 | 107657 | 134656
5 | 29:55.32 | 12:12.00 | 134657 | 189556
6 | 42:07.32 | 8:24.00 | 189557 | 227356
7 | 50:31.32 | 5:25.00 | 227357 | 251731
8 | 55:56.32 | 6:04.00 | 251732 | 279031


Range status and errors

Selected range

Filename C:\Music\Beaux Arts Trio - Dvorak - Complete Piano Trios [Disc 1].wav

Peak level 96.0 %
Range quality 99.9 %
Copy CRC F2C23078
Copy OK

No errors occurred


AccurateRip summary

Track 1 not present in database
Track 2 not present in database
Track 3 not present in database
Track 4 not present in database
Track 5 not present in database
Track 6 not present in database
Track 7 not present in database
Track 8 not present in database

None of the tracks are present in the AccurateRip database

End of status report

Exact Audio Copy V0.99 prebeta 4 from 23. January 2008

EAC extraction logfile from 27. May 2008, 15:15

Beaux Arts Trio / Dvorak - Complete Piano Trios [Disc 2]

Used drive : PHILIPS SPD3100L Adapter: 3 ID: 0

Read mode : Secure
Utilize accurate stream : Yes
Defeat audio cache : Yes
Make use of C2 pointers : No

Read offset correction : 6
Overread into Lead-In and Lead-Out : No
Fill up missing offset samples with silence : Yes
Delete leading and trailing silent blocks : No
Null samples used in CRC calculations : No
Used interface : Native Win32 interface for Win NT & 2000

Used output format : User Defined Encoder
Selected bitrate : 1024 kBit/s
Quality : High
Add ID3 tag : No
Command line compressor : C:\Program Files\Exact Audio Copy\FLAC\FLAC.EXE
Additional command line options : -6 -V -T "artist=%a" -T "title=%t" -T "album=%g" -T "date=%y" -T "tracknumber=%n" -T "genre=%m" -T comment="%e" -T "comment=EAC (Secure Mode)" %s


TOC of the extracted CD

Track | Start | Length | Start sector | End sector
––––––––––––––––––––––––––––-
1 | 0:00.32 | 13:36.00 | 32 | 61231
2 | 13:36.32 | 7:04.00 | 61232 | 93031
3 | 20:40.32 | 9:06.00 | 93032 | 133981
4 | 29:46.32 | 9:03.00 | 133982 | 174706
5 | 38:49.32 | 4:32.00 | 174707 | 195106
6 | 43:21.32 | 7:32.70 | 195107 | 229076
7 | 50:54.27 | 6:30.05 | 229077 | 258331
8 | 57:24.32 | 6:04.00 | 258332 | 285631
9 | 63:28.32 | 4:04.00 | 285632 | 303931
10 | 67:32.32 | 4:47.00 | 303932 | 325456


Range status and errors

Selected range

Filename C:\Music\Beaux Arts Trio - Dvorak - Complete Piano Trios [Disc 2].wav

Peak level 99.9 %
Range quality 99.9 %
Copy CRC E71FCAB3
Copy OK

No errors occurred


AccurateRip summary

Track 1 cannot be verified as accurate (confidence 2) [51B43E9C], AccurateRip returned [234AA571]
Track 2 cannot be verified as accurate (confidence 2) [2A384EA1], AccurateRip returned [B177CA0A]
Track 3 cannot be verified as accurate (confidence 2) [1B879A82], AccurateRip returned [566EDD1B]
Track 4 cannot be verified as accurate (confidence 2) [8B3C0585], AccurateRip returned [163FFFA9]
Track 5 cannot be verified as accurate (confidence 2) [72645ACE], AccurateRip returned [04E3E1CF]
Track 6 cannot be verified as accurate (confidence 2) [41BDE8E1], AccurateRip returned [A7E3B9C6]
Track 7 cannot be verified as accurate (confidence 2) [2521FAB9], AccurateRip returned [C97644D9]
Track 8 cannot be verified as accurate (confidence 2) [E572DE87], AccurateRip returned [C2298E2C]
Track 9 cannot be verified as accurate (confidence 2) [30360507], AccurateRip returned [3830D8A5]
Track 10 cannot be verified as accurate (confidence 2) [82F242E4], AccurateRip returned [9D13A3D4]

No tracks could be verified as accurate
You may have a different pressing from the one(s) in the database

End of status report

Please, only non-RS mirrors
Not my rip.
7-Zip recommended