Subcategories

Emerson, Lake & Palmer - Tarkus (1971) [Reissue 2011]

Posted By: Andi_Deris
Emerson, Lake & Palmer - Tarkus (1971) [Reissue 2011]

Emerson, Lake & Palmer - Tarkus (1971) [Reissue 2011]
EAC Rip | FLAC: Image+Cue+Log | MP3 CBR 320 kbps | Scans
262 Mb | 100 Mb | Time: 38:55
Leadclass Ltd./Sony Music | 88697830082
Progressive Rock, Art Rock, Symphonic Prog

Tarkus is the second album by the English progressive rock band Emerson, Lake & Palmer, released in June 1971 on Island Records. Following their 1970 European tour, the group returned to Advision Studios in January 1971 to prepare material for a new album. The first side is the seven-part "Tarkus", with a collection of shorter tracks on side two. Tarkus went to number one in the UK Albums Chart and peaked at number 9 in the US.

Emerson, Lake & Palmer - Tarkus (1971) [Reissue 2011]




Emerson, Lake & Palmer - Tarkus (1971) [Reissue 2011]


Track Listing

01. Tarkus (20:44)
a) Eruption
b) Stones Of Years
c) Iconoclast
d) Mass
e) Manticore
f) The Battlefield
g) Aquatarkus

02. Jeremy Bender (01:50)
03. Bitches Crystal (03:58)
04. The Only Way (Hymn) (03:47)
05. Infinite Space (Conclusion) (03:23)
06. A Time And A Place (03:02)
07. Are You Ready Eddy? (02:12)

Produced by Greg Lake

Personnel

• Keith Emerson - Hammond organ, St. Mark's Church organ, piano, celesta, Moog modular synthesizer
• Greg Lake - vocals, bass guitar, electric and acoustic guitar
• Carl Palmer - drums, assorted percussion[

Notes

Reissue, Remastered

℗ 1971 Leadclass Limited under exclusive license to Sony Music Entertainment UK Limited.
© 2011 Leadclass Limited under exclusive license to Sony Music Entertainment UK Limited.
Distributed by Sony Music Entertainment.
Made In The EU.


Exact Audio Copy V1.0 beta 3 from 29. August 2011

EAC extraction logfile from 30. September 2014, 9:34

Emerson, Lake & Palmer / Tarkus (2011, 886978300829)

Used drive : ATAPI iHAS124 B Adapter: 1 ID: 0

Read mode : Secure
Utilize accurate stream : Yes
Defeat audio cache : Yes
Make use of C2 pointers : No

Read offset correction : 6
Overread into Lead-In and Lead-Out : No
Fill up missing offset samples with silence : Yes
Delete leading and trailing silent blocks : No
Null samples used in CRC calculations : Yes
Used interface : Installed external ASPI interface

Used output format : User Defined Encoder
Selected bitrate : 128 kBit/s
Quality : High
Add ID3 tag : Yes
Command line compressor : C:\Program Files (x86)\Exact Audio Copy\Flac\flac.exe
Additional command line options : -V -8 -T "Date=%year%" -T "Genre=%genre%" %source%


TOC of the extracted CD

Track | Start | Length | Start sector | End sector
––––––––––––––––––––––––––––-
1 | 0:00.00 | 20:43.47 | 0 | 93271
2 | 20:43.47 | 1:50.15 | 93272 | 101536
3 | 22:33.62 | 3:58.01 | 101537 | 119387
4 | 26:31.63 | 3:46.48 | 119388 | 136385
5 | 30:18.36 | 3:22.36 | 136386 | 151571
6 | 33:40.72 | 3:01.44 | 151572 | 165190
7 | 36:42.41 | 2:11.40 | 165191 | 175055


Range status and errors

Selected range

Filename G:\CD\ELP - Tarkus.wav

Peak level 96.5 %
Extraction speed 5.3 X
Range quality 100.0 %
Test CRC 37F65C4C
Copy CRC 37F65C4C
Copy OK

No errors occurred


AccurateRip summary

Track 1 accurately ripped (confidence 61) [3F1A6503] (AR v2)
Track 2 accurately ripped (confidence 61) [7C2EF545] (AR v2)
Track 3 accurately ripped (confidence 61) [0F4663A6] (AR v2)
Track 4 accurately ripped (confidence 60) [F09C090A] (AR v2)
Track 5 accurately ripped (confidence 61) [3E514A34] (AR v2)
Track 6 accurately ripped (confidence 61) [02BBF68D] (AR v2)
Track 7 accurately ripped (confidence 61) [8A1A709A] (AR v2)

All tracks accurately ripped

End of status report

–– CUETools DB Plugin V2.1.3

[CTDB TOCID: MrMxuH3m8qc2ZoSKhrLaQ2eZ.yE-] found, Submit result: MrMxuH3m8qc2ZoSKhrLaQ2eZ.yE- has been confirmed
[61259b41] (44/45) Accurately ripped
[c52e1fae] (01/45) No match


==== Log checksum 99CA70184405CB473C750DAC927871E27DF339D413161D07C7330A4DD7BB9FC5 ====


Many thanks to the original uploader: gerrV





Password: pass