Subcategories

Earth, Wind & Fire - Gold (2020) {3CD Box Set}

Posted By: popsakov
Earth, Wind & Fire - Gold (2020) {3CD Box Set}

Earth, Wind & Fire - Gold (2020) {3CD Box Set}
EAC Rip | FLAC (Img) + Cue + Log ~ 1,44 Gb | MP3 CBR320 ~ 499 Mb
Full Scans ~ 304 Mb | 03:26:54 | RAR 5% Recovery
Funk, Disco | Crimson Productions #CRIMCD678

The popularity of Earth, Wind & Fire's biggest hits - 'September', 'Boogie Wonderland', 'Let's Groove', 'Got To Get You Into My Life', 'Fantasy' and 'After The Love Has Gone' - will never diminish! Formed in Chicago in 1969 by Maurice White, with a blend of soul, funk, R&B, pop, rock, jazz and ultimately disco, they had hits in the US and UK through the '70s and '80s. Aside from the unique combination of White's baritone and Philip Bailey's falsetto vocals, the ensemble also featured the tightest horn section ever, playing the most exciting arrangements. The band won six Grammys, and sold over 90 million records. This 45-track compilation contains their 17 UK hits and 38 US hits, and features extended 12" versions of 'Boogie Wonderland' and 'Let's Groove'.
***************

Earth, Wind & Fire - Gold (2020) {3CD Box Set}

Track List CD1:

01. Boogie Wonderland [4:50]
02. Let's Groove [5:33]
03. Shining Star [2:50]
04. That's The Way Of The World [5:48]
05. Sing A Song [3:25]
06. Can't Hide Love [4:11]
07. Getaway [3:47]
08. Gratitude [3:30]
09. Love's Holiday [4:23]
10. Reasons [5:01]
11. Runnin' [5:52]
12. Mom [5:51]
13. Evil [4:59]
14. Keep Your Head To The Sky [5:11]
15. Mighty Mighty [3:04]
16. Kalimba Story [4:03]
17. Devotion [4:49]

Exact Audio Copy V1.1 from 23. June 2015

EAC extraction logfile from 23. October 2020, 18:50

Earth Wind And Fire / Gold - CD1

Used drive : MATSHITADVD+-RW SW830 Adapter: 1 ID: 0

Read mode : Secure
Utilize accurate stream : Yes
Defeat audio cache : Yes
Make use of C2 pointers : No

Read offset correction : 6
Overread into Lead-In and Lead-Out : No
Fill up missing offset samples with silence : Yes
Delete leading and trailing silent blocks : No
Null samples used in CRC calculations : Yes
Used interface : Native Win32 interface for Win NT & 2000

Used output format : User Defined Encoder
Selected bitrate : 768 kBit/s
Quality : High
Add ID3 tag : No
Command line compressor : C:\Program Files (x86)\Exact Audio Copy\FLAC\FLAC.EXE
Additional command line options : -6 -V -T "ARTIST=%artist%" -T "TITLE=%title%" -T "ALBUM=%albumtitle%" -T "DATE=%year%" -T "TRACKNUMBER=%tracknr%" -T "GENRE=%genre%" -T "COMMENT=%comment%" -T "BAND=%albuminterpret%" -T "ALBUMARTIST=%albuminterpret%" -T "COMPOSER=%composer%" %haslyrics%–tag-from-file=LYRICS="%lyricsfile%"%haslyrics% -T "DISCNUMBER=%cdnumber%" -T "TOTALDISCS=%totalcds%" -T "TOTALTRACKS=%numtracks%" %hascover%–picture="%coverfile%"%hascover% %source% -o %dest%


TOC of the extracted CD

Track | Start | Length | Start sector | End sector
––––––––––––––––––––––––––––-
1 | 0:00.00 | 4:49.67 | 0 | 21741
2 | 4:49.67 | 5:33.32 | 21742 | 46748
3 | 10:23.24 | 2:50.13 | 46749 | 59511
4 | 13:13.37 | 5:47.43 | 59512 | 85579
5 | 19:01.05 | 3:25.30 | 85580 | 100984
6 | 22:26.35 | 4:11.35 | 100985 | 119844
7 | 26:37.70 | 3:46.74 | 119845 | 136868
8 | 30:24.69 | 3:29.41 | 136869 | 152584
9 | 33:54.35 | 4:23.10 | 152585 | 172319
10 | 38:17.45 | 5:01.19 | 172320 | 194913
11 | 43:18.64 | 5:52.15 | 194914 | 221328
12 | 49:11.04 | 5:51.15 | 221329 | 247668
13 | 55:02.19 | 4:58.61 | 247669 | 270079
14 | 60:01.05 | 5:11.11 | 270080 | 293415
15 | 65:12.16 | 3:04.00 | 293416 | 307215
16 | 68:16.16 | 4:02.74 | 307216 | 325439
17 | 72:19.15 | 4:49.19 | 325440 | 347133


Range status and errors

Selected range

Filename C:\Users\Boris\Desktop\lossless\EaWi&FiGold\CD1\Earth Wind And Fire - Gold - CD1.wav

Peak level 99.9 %
Extraction speed 3.5 X
Range quality 99.9 %
Test CRC EAD82165
Copy CRC EAD82165
Copy OK

No errors occurred


AccurateRip summary

Track 1 not present in database
Track 2 not present in database
Track 3 not present in database
Track 4 not present in database
Track 5 not present in database
Track 6 not present in database
Track 7 not present in database
Track 8 not present in database
Track 9 not present in database
Track 10 not present in database
Track 11 not present in database
Track 12 not present in database
Track 13 not present in database
Track 14 not present in database
Track 15 not present in database
Track 16 not present in database
Track 17 not present in database

None of the tracks are present in the AccurateRip database

End of status report

–– CUETools DB Plugin V2.1.6

[CTDB TOCID: Zqzd20TlGP2sSSMcuIBCqJMxYv0-] found
Submit result: Zqzd20TlGP2sSSMcuIBCqJMxYv0- has been confirmed
Track | CTDB Status
1 | (3/3) Accurately ripped
2 | (3/3) Accurately ripped
3 | (3/3) Accurately ripped
4 | (3/3) Accurately ripped
5 | (3/3) Accurately ripped
6 | (3/3) Accurately ripped
7 | (3/3) Accurately ripped
8 | (3/3) Accurately ripped
9 | (3/3) Accurately ripped
10 | (3/3) Accurately ripped
11 | (3/3) Accurately ripped
12 | (3/3) Accurately ripped
13 | (3/3) Accurately ripped
14 | (3/3) Accurately ripped
15 | (3/3) Accurately ripped
16 | (3/3) Accurately ripped
17 | (3/3) Accurately ripped


==== Log checksum 61ED8FECA4C88ECA60B42FE297ED7FF80AC02FD2CA273E8A7EC5A01AC3C408F3 ====

Track List CD2:

01. September [3:36]
02. After The Love Has Gone [4:38]
03. Let Your Feelings Show [5:14]
04. Jupiter [3:12]
05. Magic Mind [3:40]
06. Star [4:25]
07. Can't Let Go [3:30]
08. Let Me Talk [4:10]
09. Side By Side [5:58]
10. Spread Your Love [3:53]
11. Magnetic [4:21]
12. Touch [4:54]
13. System Of Survival [5:00]
14. Thinking Of You [4:42]
15. Let's Groove (Holiday Version Remix) [6:43]

Exact Audio Copy V1.1 from 23. June 2015

EAC extraction logfile from 23. October 2020, 20:30

Earth Wind And Fire / Gold - CD2

Used drive : MATSHITADVD+-RW SW830 Adapter: 1 ID: 0

Read mode : Secure
Utilize accurate stream : Yes
Defeat audio cache : Yes
Make use of C2 pointers : No

Read offset correction : 6
Overread into Lead-In and Lead-Out : No
Fill up missing offset samples with silence : Yes
Delete leading and trailing silent blocks : No
Null samples used in CRC calculations : Yes
Used interface : Native Win32 interface for Win NT & 2000

Used output format : User Defined Encoder
Selected bitrate : 768 kBit/s
Quality : High
Add ID3 tag : No
Command line compressor : C:\Program Files (x86)\Exact Audio Copy\FLAC\FLAC.EXE
Additional command line options : -6 -V -T "ARTIST=%artist%" -T "TITLE=%title%" -T "ALBUM=%albumtitle%" -T "DATE=%year%" -T "TRACKNUMBER=%tracknr%" -T "GENRE=%genre%" -T "COMMENT=%comment%" -T "BAND=%albuminterpret%" -T "ALBUMARTIST=%albuminterpret%" -T "COMPOSER=%composer%" %haslyrics%–tag-from-file=LYRICS="%lyricsfile%"%haslyrics% -T "DISCNUMBER=%cdnumber%" -T "TOTALDISCS=%totalcds%" -T "TOTALTRACKS=%numtracks%" %hascover%–picture="%coverfile%"%hascover% %source% -o %dest%


TOC of the extracted CD

Track | Start | Length | Start sector | End sector
––––––––––––––––––––––––––––-
1 | 0:00.00 | 3:35.60 | 0 | 16184
2 | 3:35.60 | 4:38.08 | 16185 | 37042
3 | 8:13.68 | 5:14.31 | 37043 | 60623
4 | 13:28.24 | 3:11.71 | 60624 | 75019
5 | 16:40.20 | 3:40.16 | 75020 | 91535
6 | 20:20.36 | 4:25.18 | 91536 | 111428
7 | 24:45.54 | 3:29.48 | 111429 | 127151
8 | 28:15.27 | 4:09.39 | 127152 | 145865
9 | 32:24.66 | 5:57.46 | 145866 | 172686
10 | 38:22.37 | 3:52.49 | 172687 | 190135
11 | 42:15.11 | 4:21.04 | 190136 | 209714
12 | 46:36.15 | 4:54.30 | 209715 | 231794
13 | 51:30.45 | 4:59.52 | 231795 | 254271
14 | 56:30.22 | 4:41.44 | 254272 | 275390
15 | 61:11.66 | 6:42.49 | 275391 | 305589


Range status and errors

Selected range

Filename C:\Users\Boris\Desktop\lossless\EaWi&FiGold\CD2\Earth Wind And Fire - Gold - CD2.wav

Peak level 94.3 %
Extraction speed 7.3 X
Range quality 99.9 %
Test CRC E44371D7
Copy CRC E44371D7
Copy OK

No errors occurred


AccurateRip summary

Track 1 not present in database
Track 2 not present in database
Track 3 not present in database
Track 4 not present in database
Track 5 not present in database
Track 6 not present in database
Track 7 not present in database
Track 8 not present in database
Track 9 not present in database
Track 10 not present in database
Track 11 not present in database
Track 12 not present in database
Track 13 not present in database
Track 14 not present in database
Track 15 not present in database

None of the tracks are present in the AccurateRip database

End of status report

–– CUETools DB Plugin V2.1.6

[CTDB TOCID: u4zZqKoy.qdwtq.0P.6yTUpUI_M-] found
Submit result: u4zZqKoy.qdwtq.0P.6yTUpUI_M- has been confirmed
Track | CTDB Status
1 | (3/3) Accurately ripped
2 | (3/3) Accurately ripped
3 | (3/3) Accurately ripped
4 | (3/3) Accurately ripped
5 | (3/3) Accurately ripped
6 | (3/3) Accurately ripped
7 | (3/3) Accurately ripped
8 | (3/3) Accurately ripped
9 | (3/3) Accurately ripped
10 | (3/3) Accurately ripped
11 | (3/3) Accurately ripped
12 | (3/3) Accurately ripped
13 | (3/3) Accurately ripped
14 | (3/3) Accurately ripped
15 | (3/3) Accurately ripped


==== Log checksum DCBA61EB3D60DD4A9C7B528CB83DAC59F505D634E87E90E6476576BE7A3D2363 ====

Track List CD3:

01. Got To Get You Into My Life [4:04]
02. Fantasy [4:38]
03. Saturday Nite [4:03]
04. Serpentine Fire [3:52]
05. On Your Face [4:34]
06. You [5:12]
07. And Love Goes On [4:05]
08. Back On The Road [3:35]
09. Wanna Be With You [4:36]
10. I've Had Enough [4:36]
11. Fall In Love With Me [5:51]
12. In The Stone [4:50]
13. Boogie Wonderland (Special Disco Version) [8:16]

Exact Audio Copy V1.1 from 23. June 2015

EAC extraction logfile from 23. October 2020, 21:01

Earth Wind And Fire / Gold - CD3

Used drive : MATSHITADVD+-RW SW830 Adapter: 1 ID: 0

Read mode : Secure
Utilize accurate stream : Yes
Defeat audio cache : Yes
Make use of C2 pointers : No

Read offset correction : 6
Overread into Lead-In and Lead-Out : No
Fill up missing offset samples with silence : Yes
Delete leading and trailing silent blocks : No
Null samples used in CRC calculations : Yes
Used interface : Native Win32 interface for Win NT & 2000

Used output format : User Defined Encoder
Selected bitrate : 768 kBit/s
Quality : High
Add ID3 tag : No
Command line compressor : C:\Program Files (x86)\Exact Audio Copy\FLAC\FLAC.EXE
Additional command line options : -6 -V -T "ARTIST=%artist%" -T "TITLE=%title%" -T "ALBUM=%albumtitle%" -T "DATE=%year%" -T "TRACKNUMBER=%tracknr%" -T "GENRE=%genre%" -T "COMMENT=%comment%" -T "BAND=%albuminterpret%" -T "ALBUMARTIST=%albuminterpret%" -T "COMPOSER=%composer%" %haslyrics%–tag-from-file=LYRICS="%lyricsfile%"%haslyrics% -T "DISCNUMBER=%cdnumber%" -T "TOTALDISCS=%totalcds%" -T "TOTALTRACKS=%numtracks%" %hascover%–picture="%coverfile%"%hascover% %source% -o %dest%


TOC of the extracted CD

Track | Start | Length | Start sector | End sector
––––––––––––––––––––––––––––-
1 | 0:00.00 | 4:04.37 | 0 | 18336
2 | 4:04.37 | 4:37.64 | 18337 | 39175
3 | 8:42.26 | 4:03.28 | 39176 | 57428
4 | 12:45.54 | 3:51.57 | 57429 | 74810
5 | 16:37.36 | 4:34.16 | 74811 | 95376
6 | 21:11.52 | 5:11.44 | 95377 | 118745
7 | 26:23.21 | 4:05.17 | 118746 | 137137
8 | 30:28.38 | 3:35.04 | 137138 | 153266
9 | 34:03.42 | 4:36.27 | 153267 | 173993
10 | 38:39.69 | 4:35.45 | 173994 | 194663
11 | 43:15.39 | 5:51.17 | 194664 | 221005
12 | 49:06.56 | 4:49.54 | 221006 | 242734
13 | 53:56.35 | 8:15.66 | 242735 | 279925


Range status and errors

Selected range

Filename C:\Users\Boris\Desktop\lossless\EaWi&FiGold\CD3\Earth Wind And Fire - Gold - CD3.wav

Peak level 99.9 %
Extraction speed 7.3 X
Range quality 99.9 %
Test CRC 81E83F5C
Copy CRC 81E83F5C
Copy OK

No errors occurred


AccurateRip summary

Track 1 not present in database
Track 2 not present in database
Track 3 not present in database
Track 4 not present in database
Track 5 not present in database
Track 6 not present in database
Track 7 not present in database
Track 8 not present in database
Track 9 not present in database
Track 10 not present in database
Track 11 not present in database
Track 12 not present in database
Track 13 not present in database

None of the tracks are present in the AccurateRip database

End of status report

–– CUETools DB Plugin V2.1.6

[CTDB TOCID: DkZ3ETdDh6_N52toD6_Wcu9Ko7E-] found
Submit result: DkZ3ETdDh6_N52toD6_Wcu9Ko7E- has been confirmed
Track | CTDB Status
1 | (3/3) Accurately ripped
2 | (3/3) Accurately ripped
3 | (3/3) Accurately ripped
4 | (3/3) Accurately ripped
5 | (3/3) Accurately ripped
6 | (3/3) Accurately ripped
7 | (3/3) Accurately ripped
8 | (3/3) Accurately ripped
9 | (3/3) Accurately ripped
10 | (3/3) Accurately ripped
11 | (3/3) Accurately ripped
12 | (3/3) Accurately ripped
13 | (3/3) Accurately ripped


==== Log checksum 2479A68580CF961CED7052049BCAA8CB1351B77CD401617AF65D925286592D81 ====

Earth, Wind & Fire - Gold (2020) {3CD Box Set}


See also:

Earth, Wind & Fire - The Dutch Collection (1999)

All thanks go to Boris1

>>> My Blog <<<

DOWNLOAD: