Subcategories

Earth, Wind & Fire - Illumination (2004) [2005, Japan]

Posted By: BlondStyle
Earth, Wind & Fire - Illumination (2004) [2005, Japan]

Earth, Wind & Fire - Illumination (2004) [2005, Japan]
R&B, Soul/Funk, Hip-Hop | EAC Rip | FLAC, Img+CUE+LOG+Full Scans-600dpi (PNG) | 69:01 Min | 984,75 Mb
Label: Sanctuary / BMG Japan Inc. (Japan) | Released: 2005-10-05
Earth, Wind & Fire - Illumination (2004) [2005, Japan]

Illumination is the 19th album by R&B band Earth, Wind & Fire. It was released in September 2004 on Sanctuary Records. It featured collaborations with several artists including Jimmy Jam and Terry Lewis, Kenny G, Kelly Rowland, will.i.am, and Brian McKnight. Illumination debuted at #32 on the Billboard 200 Chart, and #8 on the Top R&B/Hip-Hop Albums Chart. ~Wikipedia~
Earth, Wind & Fire - Illumination (2004) [2005, Japan]

Earth, Wind & Fire - Illumination (2004) [2005, Japan]


Release of the album: 2004 [CD Sanctuary Records, Cat.# 06076-87513-2, USA]
Release of this CD: 2005, October, 5 [CD Sanctuary / BMG Japan Inc. (Japan), Cat.# SANCD312 / EAN: 4988017626429]
℗ & © 2004 P. Bailey Entertainment Group, Inc. and Maurice White/Sanctuary Records Group Inc.
under exclusive license from Sanctuary Records Group Limited.
Manufactured by BMG JAPAN, INC., Tokyo, Japan.
Printed in Japan Pressed by Sonopress, HK
Made in Japan


Credits:
A&R [A&R Direction] – Damien Smith
Cover [Art], Artwork – Heavyweight
Design – GOLDFINGER c.s.
Executive-Producer – Damien Smith, Maurice White, Philip Bailey
Featuring [Uncredited] – Musiq Soulchild (tracks: 15)
Liner Notes – EWF, Maurice White, Ralph Johnson
Liner Notes [歌詞ワーディング], Liner Notes [対訳] – Kana Muramatsu
Liner Notes [解説] – 内本順一
Management [Marketing Consultant] – Davett Singletary
Management [Promotion] – Wayman Jones
Management [Publicist] – Mark Young
Mastered By – Brian Gardner
Other [Album Images Inspired By] – Pamela Springsteen Photography
Producer [Produced By] – Jimmy Jam & Terry Lewis (tracks: 2, 4), Organized Noize (tracks: 6, 9), Raphael Saadiq (tracks: 5, 7, 8, 14)


Tracklist:

01. Lovely People (feat. Will.I.Am) [0:04:28.70]
02. Pure Gold [0:04:40.37]
03. A Talking Voice (Interlude) [0:00:19.68]
04. Love's Dance [0:04:28.35]
05. Show Me The Way (feat. Raphael Saadiq) [0:07:47.44]
06. This Is How I Feel (feat. Big Boi, Kelly Rowland and Sleepy Brown) [0:04:21.27]
07. Work It Out [0:04:29.49]
08. Pass You By [0:04:59.40]
09. The One [0:05:11.33]
10. Elevated (feat. Floetry) [0:04:37.63]
11. Liberation [0:05:25.37]
12. To You (feat. Brian McKnight) [0:04:37.09]
13. The Way You Move (feat. Kenny G) [0:04:36.51]
14. Love Together [0:04:18.74]
15. Autumn [0:04:37.25]

Exact Audio Copy V1.3 from 2. September 2016

EAC extraction logfile from 20. October 2016, 23:20

Earth, Wind And Fire / Illumination

Used drive : PLEXTOR DVDR PX-810SA Adapter: 1 ID: 0

Read mode : Secure
Utilize accurate stream : Yes
Defeat audio cache : Yes
Make use of C2 pointers : No

Read offset correction : 48
Overread into Lead-In and Lead-Out : No
Fill up missing offset samples with silence : Yes
Delete leading and trailing silent blocks : No
Null samples used in CRC calculations : Yes
Used interface : Installed external ASPI interface

Used output format : User Defined Encoder
Selected bitrate : 1024 kBit/s
Quality : High
Add ID3 tag : No
Command line compressor : C:\Program Files (x86)\Exact Audio Copy\Flac\flac.exe
Additional command line options : -8 -V -T "Date=%year%" -T "Genre=%genre%" -T "COMMENT=ripped by bvstudio®" %source%

TOC of the extracted CD

Track | Start | Length | Start sector | End sector
––––––––––––––––––––––––––––-
1 | 0:00.00 | 4:28.70 | 0 | 20169
2 | 4:28.70 | 4:40.37 | 20170 | 41206
3 | 9:09.32 | 0:19.68 | 41207 | 42699
4 | 9:29.25 | 4:28.35 | 42700 | 62834
5 | 13:57.60 | 7:47.44 | 62835 | 97903
6 | 21:45.29 | 4:21.27 | 97904 | 117505
7 | 26:06.56 | 4:29.49 | 117506 | 137729
8 | 30:36.30 | 4:59.40 | 137730 | 160194
9 | 35:35.70 | 5:11.33 | 160195 | 183552
10 | 40:47.28 | 4:37.63 | 183553 | 204390
11 | 45:25.16 | 5:25.37 | 204391 | 228802
12 | 50:50.53 | 4:37.09 | 228803 | 249586
13 | 55:27.62 | 4:36.51 | 249587 | 270337
14 | 60:04.38 | 4:18.74 | 270338 | 289761
15 | 64:23.37 | 4:37.25 | 289762 | 310561

Range status and errors

Selected range

Filename F:\Earth, Wind And Fire\2005 - Illumination (2005 - Sanctuary • BMG Japan - BVCM-41012)\Earth, Wind And Fire - Illumination.wav

Peak level 100.0 %
Extraction speed 7.4 X
Range quality 100.0 %
Test CRC 4755D73F
Copy CRC 4755D73F
Copy OK

No errors occurred

AccurateRip summary

Track 1 accurately ripped (confidence 2) [1A02C38D] (AR v2)
Track 2 accurately ripped (confidence 3) [D7176937] (AR v2)
Track 3 accurately ripped (confidence 3) [8C9B7DCC] (AR v2)
Track 4 accurately ripped (confidence 3) [38B0507A] (AR v2)
Track 5 accurately ripped (confidence 2) [A519D898] (AR v2)
Track 6 accurately ripped (confidence 3) [03C0D454] (AR v2)
Track 7 accurately ripped (confidence 2) [CD62A26B] (AR v2)
Track 8 accurately ripped (confidence 2) [2953A783] (AR v2)
Track 9 accurately ripped (confidence 2) [50A6A6FD] (AR v2)
Track 10 accurately ripped (confidence 3) [DC63B30F] (AR v2)
Track 11 accurately ripped (confidence 3) [AD3D326B] (AR v2)
Track 12 accurately ripped (confidence 2) [CB9C794B] (AR v2)
Track 13 accurately ripped (confidence 2) [5ED17535] (AR v2)
Track 14 accurately ripped (confidence 2) [9BB8DD15] (AR v2)
Track 15 accurately ripped (confidence 2) [8711551C] (AR v2)

All tracks accurately ripped

End of status report

–– CUETools DB Plugin V2.1.6

[CTDB TOCID: 8ye3l49f2YcMSCJdlAJwA529WLU-] found
Submit result: already submitted
Track | CTDB Status
1 | (13/13) Accurately ripped
2 | (13/13) Accurately ripped
3 | (13/13) Accurately ripped
4 | (13/13) Accurately ripped
5 | (13/13) Accurately ripped
6 | (13/13) Accurately ripped
7 | (13/13) Accurately ripped
8 | (13/13) Accurately ripped
9 | (13/13) Accurately ripped
10 | (13/13) Accurately ripped
11 | (13/13) Accurately ripped
12 | (13/13) Accurately ripped
13 | (13/13) Accurately ripped
14 | (13/13) Accurately ripped
15 | (13/13) Accurately ripped

==== Log checksum 28DA4E3F8FD77ADFB6A08C5A72240771149E25E157937A49F7130C175A34FC94 ====

foobar2000 1.3.13 beta 2 / Dynamic Range Meter 1.1.1
log date: 2016-10-21 01:46:47

––––––––––––––––––––––––––––––––––––––––
Analyzed: Earth, Wind And Fire / Illumination
––––––––––––––––––––––––––––––––––––––––

DR Peak RMS Duration Track
––––––––––––––––––––––––––––––––––––––––
DR5 -0.10 dB -6.68 dB 4:29 01-Lovely People (feat. Will.I.Am)
DR7 0.00 dB -8.92 dB 4:40 02-Pure Gold
DR13 -2.26 dB -17.55 dB 0:20 03-A Talking Voice (Interlude)
DR7 -0.10 dB -8.70 dB 4:28 04-Love's Dance
DR6 -1.10 dB -9.20 dB 7:48 05-Show Me The Way (feat. Raphael Saadiq)
DR6 0.00 dB -7.52 dB 4:21 06-This Is How I Feel (feat. Big Boi, Kelly Rowland and Sleepy Brown)
DR6 -0.30 dB -7.53 dB 4:30 07-Work It Out
DR9 -0.06 dB -10.25 dB 5:00 08-Pass You By
DR6 -0.10 dB -7.49 dB 5:11 09-The One
DR6 -0.10 dB -8.45 dB 4:38 10-Elevated (feat. Floetry)
DR5 -0.45 dB -7.65 dB 5:25 11-Liberation
DR6 -0.10 dB -9.07 dB 4:37 12-To You (feat. Brian McKnight)
DR6 -0.10 dB -7.68 dB 4:37 13-The Way You Move (feat. Kenny G)
DR8 -0.10 dB -8.91 dB 4:19 14-Love Together
DR6 -0.10 dB -8.28 dB 4:37 15-Autumn
––––––––––––––––––––––––––––––––––––––––

Number of tracks: 15
Official DR value: DR7

Samplerate: 44100 Hz
Channels: 2
Bits per sample: 16
Bitrate: 945 kbps
Codec: FLAC
================================================================================

All thanks to bvstudio
Nitroflare
password: BlondStyle