Subcategories

Echoes - The Black Cat's Step (2011)

Posted By: gribovar
Echoes - The Black Cat's Step (2011)

Echoes - The Black Cat's Step (2011)
EAC Rip | FLAC (image+.cue+log) - 295 MB | MP3 CBR 320 kbps (LAME 3.93) - 98 MB | Covers (3 MB) included
Genre: Progressive Rock | RAR 3% Rec. | Label: Musea Parallele

In the wake of the 2007 album titled "Rachel", Echoes comes back with "The Black Cat's Step", published in the year 2011 on the Musea Parallele label. The quartet from Rouen, France, strikes an acid and psychedelic rock, in which insistent guitar riffs filled with reverberation, and potent ambiance of Hammond organ melt down into a hypnotic trance, sprinkled with vocal arrangements that remain the band's personal signature. The band brings a French touch to the psychedelic temple that is being constructed on the other side of the Atlantic Ocean, with bands like The Black Angels or Sleepy Sun, and immerses us in the delightful sounds of its glorious elders, from The Velvet Underground to King Crimson, from Syd Barrett to The Doors. If you fancy saturated atmospheres and shamanic inspirations, depart with Echoes in the footsteps of the dark feline.

Tracklist:
01. It's Knocking Outside
02. Tear Down My Home
03. There Is Nothing But Love
04. Right I Left
05. Iron Bird
06. Don't Spoil My Fun
07. Mandala
08. So Pale So Cold
09. The Black Cat's Step

Total time: 40:36

Exact Audio Copy V0.99 prebeta 4 from 23. January 2008

Отчёт EAC об извлечении, выполненном 17. февраля 2012, 18:49

Echoes / The Black Cat's Step

Дисковод: ASUS DRW-24B1ST Adapter: 4 ID: 0

Режим чтения : Достоверность
Использование точного потока : Да
Отключение кэша аудио : Да
Использование указателей C2 : Нет

Коррекция смещения при чтении : 6
Способность читать области Lead-in и Lead-out : Нет
Заполнение пропущенных сэмплов тишиной : Да
Удаление блоков с тишиной в начале и конце : Нет
При вычислениях CRC использовались нулевые сэмплы : Да
Интерфейс : Встроенный Win32-интерфейс для Win NT/2000

Выходной формат : Пользовательский кодировщик
Выбранный битрейт : 768 kBit/s
Качество : Высокий
Добавление ID3-тэга : Нет
Утилита сжатия : C:\Program Files\Exact Audio Copy\FLAC\FLAC.EXE
Дополнительные параметры : -6 -V -T "ARTIST=%a" -T "TITLE=%t" -T "ALBUM=%g" -T "DATE=%y" -T "TRACKNUMBER=%n" -T "GENRE=%m" -T "COMMENT=%e" %s -o %d


TOC извлечённого CD

Трек | Старт | Длительность | Начальный сектор | Конечный сектор
––––––––––––––––––––––––––––––––––-
1 | 0:00.00 | 3:23.11 | 0 | 15235
2 | 3:23.11 | 5:33.36 | 15236 | 40246
3 | 8:56.47 | 5:34.08 | 40247 | 65304
4 | 14:30.55 | 4:10.65 | 65305 | 84119
5 | 18:41.45 | 5:51.38 | 84120 | 110482
6 | 24:33.08 | 3:41.13 | 110483 | 127070
7 | 28:14.21 | 4:09.71 | 127071 | 145816
8 | 32:24.17 | 4:28.30 | 145817 | 165946
9 | 36:52.47 | 3:43.05 | 165947 | 182676


Характеристики диапазона извлечения и сообщения об ошибках

Выбранный диапазон

Имя файла C:\Torrent\purple\Echoes - The Black Cat's Step.wav

Пиковый уровень 98.8 %
Качество диапазона 99.9 %
CRC теста A2CF3C6C
CRC копии A2CF3C6C
Копирование… OK

Ошибок не произошло


AccurateRip: сводка

Трек 1 нет в базе данных
Трек 2 нет в базе данных
Трек 3 нет в базе данных
Трек 4 нет в базе данных
Трек 5 нет в базе данных
Трек 6 нет в базе данных
Трек 7 нет в базе данных
Трек 8 нет в базе данных
Трек 9 нет в базе данных

Ни одного трека нет в базе AccurateRip

Конец отчёта

[CUETools log; Date: 04.02.2018 11:28:00; Version: 2.1.4]
[CTDB TOCID: _6lTTWu8kvv0Unl37SeQHwS51ww-] found.
Track | CTDB Status
1 | (1/1) Accurately ripped
2 | (1/1) Accurately ripped
3 | (1/1) Accurately ripped
4 | (1/1) Accurately ripped
5 | (1/1) Accurately ripped
6 | (1/1) Accurately ripped
7 | (1/1) Accurately ripped
8 | (1/1) Accurately ripped
9 | (1/1) Accurately ripped
[AccurateRip ID: 000e4bc7-0068dcc2-75098309] found.
Track [ CRC | V2 ] Status
01 [7dc5a5ed|86ba59d7] (1+0/1) Accurately ripped
02 [be696318|7834cf8b] (1+0/1) Accurately ripped
03 [e808835b|1fd3d9e0] (1+0/1) Accurately ripped
04 [46033d44|c80693e7] (1+0/1) Accurately ripped
05 [e617e705|084e858a] (1+0/1) Accurately ripped
06 [22ea9d07|8a4495f7] (1+0/1) Accurately ripped
07 [727484cd|93876dad] (1+0/1) Accurately ripped
08 [2359c03f|b6da728d] (1+0/1) Accurately ripped
09 [1ead2c75|d273c3bb] (1+0/1) Accurately ripped

Track Peak [ CRC32 ] [W/O NULL] [ LOG ]
– 98,8 [A2CF3C6C] [BB57C507] CRC32
01 98,8 [79B158A7] [90B2FB98]
02 98,8 [54B2EC92] [06040B92]
03 98,8 [7CB777C2] [7C07BD97]
04 98,8 [CF0CDB7F] [7CFDA6CB]
05 98,8 [A65EF1D6] [6F7BF34A]
06 98,8 [0489E230] [29924BA5]
07 98,8 [D25D93A6] [738F2D89]
08 98,8 [3768706E] [CCB1A108]
09 98,8 [8D01ACE2] [DACCE20B]

Thanks to pppurple

See also:
Echoes - Rachel (2007)