Subcategories

Eddie Higgins - My Foolish Heart (2003) [Japanese edition]

Posted By: v3122
Eddie Higgins - My Foolish Heart (2003) [Japanese edition]

Eddie Higgins - My Foolish Heart (2003)
EAC | Flac(Image) + Cue + Log & MP3 CBR 320Kbps
Venus Records, TKCV-35532 | ~ 448 or 177 Mb | Scans(jpg) -> 26 Mb
Jazz, Hard Bop, Post Bop

Eddie Higgins has been a solid bop pianist for decades, though he seems most appreciated by the folks who run the Japanese label Venus, for whom he has recorded frequently in his golden years. Joined by two-thirds of Phil Woods' longtime rhythm section (Steve Gilmore and Bill Goodwin), along with special guest Scott Hamilton on tenor sax, Higgins explores a dozen ballads, most of which have been favorites of jazz musicians longer than the pianist has been playing professionally. Higgins doesn't mind taking a back seat to Hamilton's Ben Webster-inspired tenor, though he can also wail when he chooses to do so. The snappy take of "Russian Lullaby" is a highlight, featuring all four of the musicians in turn. One can hear Higgins singing softly to himself as he introduces his lush arrangement of "Embraceable You." While there is nothing groundbreaking about any of the selections, this is excellent music that will provide a perfect backdrop for any jazz fan's romantic evening.

by Ken Dryden, allmusic
Eddie Higgins - My Foolish Heart (2003):

Eddie Higgins - My Foolish Heart (2003) [Japanese edition]

Tracklist:

01. My Foolish Heart [5:30]
02. Russian Lullaby [7:59]
03. What Is There To Say [5:40]
04. That Old Black Magic [5:22]
05. Skylark [5:58]
06. Night And Day [5:48]
07. Embraceable You [6:27]
08. Am I Blue [6:04]
09. These Foolish Things [6:10]
10. The More I See You [6:23]
11. The Song Is You [5:47]
12. This Love Of Mine [6:23]

Exact Audio Copy V1.3 from 2. September 2016

EAC extraction logfile from 14. April 2017, 9:58

EDDIE HIGGINS / «My Foolish Heart» (Japan, Venus, TKCV-35532)

Used drive : ASUS DRW-24B3ST Adapter: 1 ID: 1

Read mode : Secure
Utilize accurate stream : Yes
Defeat audio cache : Yes
Make use of C2 pointers : No

Read offset correction : 6
Overread into Lead-In and Lead-Out : No
Fill up missing offset samples with silence : Yes
Delete leading and trailing silent blocks : No
Null samples used in CRC calculations : Yes
Used interface : Native Win32 interface for Win NT & 2000

Used output format : User Defined Encoder
Selected bitrate : 1024 kBit/s
Quality : High
Add ID3 tag : No
Command line compressor : C:\Program Files\EAC(v.1.3)\WV\wavpack.exe
Additional command line options : -h -hh -m %source%


TOC of the extracted CD

Track | Start | Length | Start sector | End sector
––––––––––––––––––––––––––––-
1 | 0:00.00 | 5:29.41 | 0 | 24715
2 | 5:29.41 | 7:58.65 | 24716 | 60630
3 | 13:28.31 | 5:39.68 | 60631 | 86123
4 | 19:08.24 | 5:22.06 | 86124 | 110279
5 | 24:30.30 | 5:58.09 | 110280 | 137138
6 | 30:28.39 | 5:48.34 | 137139 | 163272
7 | 36:16.73 | 6:27.07 | 163273 | 192304
8 | 42:44.05 | 6:04.32 | 192305 | 219636
9 | 48:48.37 | 6:09.48 | 219637 | 247359
10 | 54:58.10 | 6:22.50 | 247360 | 276059
11 | 61:20.60 | 5:46.45 | 276060 | 302054
12 | 67:07.30 | 6:22.48 | 302055 | 330752


Range status and errors

Selected range

Filename F:\EDDIE HIGGINS QUARTET «My Foolish Heart» (2003) (JP 2005 Venus Records, Inc., Tokyo • TKCV-35532)\EDDIE HIGGINS - «My Foolish Heart» (Japan, Venus, TKCV-35532).wav

Peak level 100.0 %
Extraction speed 8.3 X
Range quality 100.0 %
Test CRC 0103D9B6
Copy CRC 0103D9B6
Copy OK

No errors occurred


AccurateRip summary

Track 1 accurately ripped (confidence 1) [7CE5B14D] (AR v2)
Track 2 accurately ripped (confidence 1) [9A3EE27D] (AR v2)
Track 3 accurately ripped (confidence 1) [06E1D3DA] (AR v2)
Track 4 accurately ripped (confidence 1) [EBD575EF] (AR v2)
Track 5 accurately ripped (confidence 1) [F719BD02] (AR v2)
Track 6 accurately ripped (confidence 1) [F81C903B] (AR v2)
Track 7 accurately ripped (confidence 1) [AEF0C9A3] (AR v2)
Track 8 accurately ripped (confidence 1) [4453A500] (AR v2)
Track 9 accurately ripped (confidence 1) [50D2B8B0] (AR v2)
Track 10 accurately ripped (confidence 1) [B9EE611B] (AR v2)
Track 11 accurately ripped (confidence 1) [F9C76C9C] (AR v2)
Track 12 accurately ripped (confidence 1) [C84D414C] (AR v2)

All tracks accurately ripped

End of status report

==== Log checksum 208A4C98FCAE50D665549D6355B107201F27873F69924A63302D3A55F55CD2E1 ====


[CUETools log; Date: 19.01.2018 23:16:46; Version: 2.1.5]
[AccurateRip ID: 0020cfbd-0131d461-8e113a0c] found.
Track [ CRC | V2 ] Status
01 [3c9ad1a1|7ce5b14d] (0+2/2) Accurately ripped
02 [92a84c56|9a3ee27d] (0+2/2) Accurately ripped
03 [d2b23fd0|06e1d3da] (0+2/2) Accurately ripped
04 [1e98e8fe|ebd575ef] (0+2/2) Accurately ripped
05 [1199c0a3|f719bd02] (0+2/2) Accurately ripped
06 [bffaebea|f81c903b] (0+2/2) Accurately ripped
07 [49571c97|aef0c9a3] (0+2/2) Accurately ripped
08 [42399112|4453a500] (0+2/2) Accurately ripped
09 [9ead6008|50d2b8b0] (0+2/2) Accurately ripped
10 [de956975|b9ee611b] (0+2/2) Accurately ripped
11 [730a2121|f9c76c9c] (0+2/2) Accurately ripped
12 [bb5ef362|c84d414c] (0+2/2) Accurately ripped

Track Peak [ CRC32 ] [W/O NULL] [ LOG ]
– 100,0 [0103D9B6] [2E2C2830] CRC32
01 100,0 [75796B2D] [65AD9CCC]
02 100,0 [89C9BFEB] [26BC1053]
03 99,9 [CAB92C7E] [C35F6BBE]
04 100,0 [E21E11D3] [72D43EF3]
05 99,9 [DD748801] [5943BA9B]
06 100,0 [AD6A2FA6] [CAF156C0]
07 100,0 [AB1E3246] [54A59446]
08 100,0 [66FB099C] [5EE40289]
09 100,0 [4AB4AF5D] [118512D7]
10 100,0 [865E74B2] [6A12D885]
11 100,0 [D5A9E384] [ED457EFE]
12 100,0 [D009C377] [38F6444D]


Eddie Higgins - My Foolish Heart (2003) [Japanese edition]

All thanks go to the original releaser

Eddie Higgins or Eddie Higgins in my Blog

Download Eddie Higgins - My Foolish Heart (2003):