Subcategories

Eddie Higgins Trio - A Fine Romance (2006) [Venus TKCV-35385, Japan]

Posted By: v3122
Eddie Higgins Trio - A Fine Romance (2006) [Venus TKCV-35385, Japan]

Eddie Higgins Trio - A Fine Romance (2006)
EAC | Flac(Image) + Cue + Log & MP3 CBR 320Kbps
2007 | Venus, TKCV-35385 | ~ 395 or 151 Mb | Scans(jpg) -> 52 Mb
Jazz, Hard Bop, Post Bop

A solid bop-based pianist, Eddie Higgins has never become a major name, but he has been well-respected by his fellow musicians for decades. After growing up in New England, he moved to Chicago, where he played in all types of situations before settling in to a long stint as the leader of the house trio at the London House (1957-1969). Higgins moved back to Massachusetts in 1970 and went on to freelance, often accompanying his wife, vocalist Meredith D'Ambrosio, and appearing at jazz parties and festivals. Eddie Higgins has led sessions of his own for Replica (1958), Vee-Jay (1960), Atlantic, and Sunnyside; back in 1960, he recorded as a sideman for Vee-Jay with Lee Morgan and Wayne Shorter.

by Scott Yanow, allmusic
Eddie Higgins Trio - A Fine Romance (2006):

Eddie Higgins Trio - A Fine Romance (2006) [Venus TKCV-35385, Japan]

Tracklist:

01. I Concentrate On You [4:55]
02. Yesterdays [3:52]
03. A Fine Romance [5:23]
04. Girl Talk [3:36]
05. September In The Rain [4:54]
06. I Fall In Love Too Easily [4:19]
07. Gypsy In My Soul [3:42]
08. Born To Be Blue [5:40]
09. Here's That Rainy Day [3:26]
10. Exactly Like You [4:41]
11. Willow Weep For Me [6:59]
12. I'll Remeber April [4:29]
13. In Love In Vain [6:35]

Exact Audio Copy V1.3 from 2. September 2016

EAC extraction logfile from 14. April 2017, 9:57

EDDIE HIGGINS / «A Fine Romance» (Japan, Venus, TKCV-35385)

Used drive : ASUS DRW-24B3ST Adapter: 1 ID: 2

Read mode : Secure
Utilize accurate stream : Yes
Defeat audio cache : Yes
Make use of C2 pointers : No

Read offset correction : 6
Overread into Lead-In and Lead-Out : No
Fill up missing offset samples with silence : Yes
Delete leading and trailing silent blocks : No
Null samples used in CRC calculations : Yes
Used interface : Native Win32 interface for Win NT & 2000

Used output format : User Defined Encoder
Selected bitrate : 1024 kBit/s
Quality : High
Add ID3 tag : No
Command line compressor : C:\Program Files\EAC(v.1.3)\WV\wavpack.exe
Additional command line options : -h -hh -m %source%


TOC of the extracted CD

Track | Start | Length | Start sector | End sector
––––––––––––––––––––––––––––-
1 | 0:00.00 | 4:55.00 | 0 | 22124
2 | 4:55.00 | 3:52.00 | 22125 | 39524
3 | 8:47.00 | 5:23.00 | 39525 | 63749
4 | 14:10.00 | 3:36.00 | 63750 | 79949
5 | 17:46.00 | 4:54.01 | 79950 | 102000
6 | 22:40.01 | 4:19.00 | 102001 | 121425
7 | 26:59.01 | 3:42.00 | 121426 | 138075
8 | 30:41.01 | 5:40.01 | 138076 | 163576
9 | 36:21.02 | 3:26.00 | 163577 | 179026
10 | 39:47.02 | 4:41.00 | 179027 | 200101
11 | 44:28.02 | 6:59.01 | 200102 | 231527
12 | 51:27.03 | 4:29.00 | 231528 | 251702
13 | 55:56.03 | 6:35.17 | 251703 | 281344


Range status and errors

Selected range

Filename F:\EDDIE HIGGINS TRIO «A Fine Romance» (2006) (JP 2007 Venus Records, Inc., Tokyo • TKCV-35385)\EDDIE HIGGINS - «A Fine Romance» (Japan, Venus, TKCV-35385).wav

Peak level 100.0 %
Extraction speed 7.8 X
Range quality 99.9 %
Test CRC 5AAA9094
Copy CRC 5AAA9094
Copy OK

No errors occurred


AccurateRip summary

Track 1 accurately ripped (confidence 8) [87F99404] (AR v2)
Track 2 accurately ripped (confidence 9) [93348965] (AR v2)
Track 3 accurately ripped (confidence 9) [8B52D541] (AR v2)
Track 4 accurately ripped (confidence 9) [7732CAEB] (AR v2)
Track 5 accurately ripped (confidence 9) [DFD57113] (AR v2)
Track 6 accurately ripped (confidence 9) [F44776C3] (AR v2)
Track 7 accurately ripped (confidence 9) [1ABF03DB] (AR v2)
Track 8 accurately ripped (confidence 9) [7F15D008] (AR v2)
Track 9 accurately ripped (confidence 9) [9B94CFEE] (AR v2)
Track 10 accurately ripped (confidence 9) [DF7EB19A] (AR v2)
Track 11 accurately ripped (confidence 9) [70449477] (AR v2)
Track 12 accurately ripped (confidence 9) [10C23753] (AR v2)
Track 13 accurately ripped (confidence 9) [B0280EC3] (AR v2)

All tracks accurately ripped

End of status report

==== Log checksum 602A45DF068ECC32C0483EAF0FF05E68E20B853B80CD0D526B8F8E19FAF1FC05 ====


[CUETools log; Date: 02.11.2017 19:13:07; Version: 2.1.5]
[AccurateRip ID: 001c98d7-011f6e46-c20ea70d] found.
Track [ CRC | V2 ] Status
01 [9172f5ff|87f99404] (11+10/23) Accurately ripped
02 [7255bc55|93348965] (11+11/24) Accurately ripped
03 [1253a8da|8b52d541] (11+11/28) Accurately ripped
04 [cbec3f1b|7732caeb] (11+11/29) Accurately ripped
05 [7b81b2ea|dfd57113] (11+11/29) Accurately ripped
06 [907c44b1|f44776c3] (11+11/29) Accurately ripped
07 [249411d3|1abf03db] (11+11/29) Accurately ripped
08 [d61a8b55|7f15d008] (11+11/29) Accurately ripped
09 [72b6d8c2|9b94cfee] (11+11/29) Accurately ripped
10 [e30e05f2|df7eb19a] (11+11/29) Accurately ripped
11 [1b24237d|70449477] (11+11/29) Accurately ripped
12 [a662ae20|10c23753] (11+11/29) Accurately ripped
13 [62e86a83|b0280ec3] (09+11/26) Accurately ripped
Offsetted by -678:
01 [bf578ab5] (02/23) Accurately ripped
02 [94b4b1a3] (02/24) Accurately ripped
03 [6754db9c] (04/28) Accurately ripped
04 [ddcd38ed] (05/29) Accurately ripped
05 [5c90118e] (05/29) Accurately ripped
06 [91a7a7f3] (05/29) Accurately ripped
07 [818822c1] (05/29) Accurately ripped
08 [8bc6b4a9] (05/29) Accurately ripped
09 [49c30526] (05/29) Accurately ripped
10 [0ffed8ae] (05/29) Accurately ripped
11 [15582d99] (05/29) Accurately ripped
12 [643e9ebe] (05/29) Accurately ripped
13 [413af68c] (04/26) Accurately ripped
Offsetted by -30:
01 [1ff09d6d] (00/23) No match (V2 was not tested)
02 [fbc8f23b] (00/24) No match (V2 was not tested)
03 [3edde844] (00/28) No match (V2 was not tested)
04 [2e213ed5] (00/29) No match (V2 was not tested)
05 [9796b95e] (00/29) No match (V2 was not tested)
06 [79e1de9b] (00/29) No match (V2 was not tested)
07 [c74683d9] (00/29) No match (V2 was not tested)
08 [53f29639] (00/29) No match (V2 was not tested)
09 [4a638ff6] (00/29) No match (V2 was not tested)
10 [b577d45e] (00/29) No match (V2 was not tested)
11 [4831c4c9] (00/29) No match (V2 was not tested)
12 [9a659d96] (00/29) No match (V2 was not tested)
13 [fa7a5cbb] (00/26) No match (V2 was not tested)

Track Peak [ CRC32 ] [W/O NULL] [ LOG ]
– 100,0 [5AAA9094] [09FA2B91] CRC32
01 100,0 [874EEB8D] [BAEB4A4F]
02 99,4 [6F3AC402] [3D0BF717]
03 100,0 [7DA24E2F] [683DC835]
04 100,0 [FF50437D] [8307501D]
05 100,0 [7E3034D2] [82D6324D]
06 99,3 [0B016440] [81DB5685]
07 100,0 [95D74CA0] [886557AB]
08 100,0 [02650E22] [016BF7E1]
09 99,5 [1672B40A] [2C7B4717]
10 100,0 [448F9841] [2D6621D4]
11 99,4 [4A6FE564] [C8B2CAB1]
12 100,0 [DB2FA551] [AD6FB82A]
13 100,0 [ED95A6A4] [229FC07B]


Eddie Higgins Trio - A Fine Romance (2006) [Venus TKCV-35385, Japan]

All thanks go to the original releaser

Eddie Higgins or Eddie Higgins in my Blog

Download Eddie Higgins Trio - A Fine Romance (2006):