Subcategories

Eddie Taylor Jr. - So Called Friends (2011) [Chicago Blues Session Vol. 78]

Posted By: v3122
Eddie Taylor Jr. - So Called Friends (2011) [Chicago Blues Session Vol. 78]

Eddie Taylor Jr. - So Called Friends (2011)
EAC | Flac(Image) + Cue + Log & M4A(Tracks) & MP3 CBR 320Kbps
Wolf Records, 120.826 CD | ~ 454 or 456 or 177 Mb | Scans(jpg, 600dpi) Included
Electric Chicago Blues

Eddie Taylor Jr. was born in March 27, 1972 in Chicago Ill.. He was the son of the late great Eddie Taylor, the legendary Big Town Playboy and creator of the Jimmy Reed Sound. Eddie Taylor Jr. has inherited his extraordinary talent from his father, blues god Eddie Taylor. When Eddie Taylor Jr. was 13 years old he began to teach himself how to play the guitar by listening to his father’s songs. Taylor’s sophisticated playing allows him to bring back old favorites and add his own new tunes, which are too tricky for average blues bands. Other so-called “blues-artists” often mix their music with R&B, funk, jazz, or swing, but Eddie Taylor Jr. stands for pure blues.

In 1990 Eddie Taylor Jr. recorded his first song for Wolf Records “Ride ´em on down”, a song long associated with his father. Since that time there are … CDs which he recorded with Wolf Records. In Chicago Eddie Taylor Jr. played with every important musician like Willie Kent, Johnny B. Moore, Jimmy Burns, John Primer or Hubert Sumlin and learned a lot from them. He is the only one from the young Blues guitarists in Chicago who still plays the traditional Chicago style with his own influences!

On this new CD “So Called Friends” Eddie Taylor Jr. plays his 15 best songs. This CD is tying in with his last successes like “From The Country To The City”, together with Harmonica Hinds and Tre, and “I Got To Make This Money Baby”. There are also 5 new recorded songs with Otis Rush’s guitar player, Antony Palmer, Roosevelt Purifoy, the young great piano player, and Eddie’s brother Tim on drums. This is no funk-blues, no soul-blues, just the real deal – original Chicago blues at his best!!

~ wolfrec
Eddie Taylor Jr. - So Called Friends (2011):

Eddie Taylor Jr. - So Called Friends (2011) [Chicago Blues Session Vol. 78]

Tracklist:

01. Wild about You Baby - 5:06
02. Welfare Blues - 4:19
03. You Sweet - 3:58
04. Mistress Blues - 4:01
05. So Called Ftiends - 3:40
06. Use What You Got - 3:35
07. Goin' Upside Your Head - 6:00
08. Easy Baby.aiff - 6:52
09. I've Made Nights By Myself - 4:06
10. Stop Breakin' Down - 4:21
11. Blues In Your Life - 6:30
12. Pink Champagne - 3:02
13. My Little Machine - 3:53
14. Got To Make This Money , Baby - 4:48
15. 44 Blues - 6:49

Exact Audio Copy V1.0 beta 3 from 29. August 2011

EAC extraction logfile from 11. February 2014, 21:31

Eddie Taylor Jr. / So Called Friends - His Best 15 Songs

Used drive : ATAPI iHAS124 B Adapter: 2 ID: 0

Read mode : Secure
Utilize accurate stream : Yes
Defeat audio cache : Yes
Make use of C2 pointers : No

Read offset correction : 6
Overread into Lead-In and Lead-Out : No
Fill up missing offset samples with silence : Yes
Delete leading and trailing silent blocks : No
Null samples used in CRC calculations : Yes
Used interface : Native Win32 interface for Win NT & 2000

Used output format : User Defined Encoder
Selected bitrate : 1024 kBit/s
Quality : High
Add ID3 tag : No
Command line compressor : C:\Program Files (x86)\Exact Audio Copy\FLAC\FLAC.EXE
Additional command line options : -V -8 -T "Date=%year%" -T "Genre=%genre%" %source%


TOC of the extracted CD

Track | Start | Length | Start sector | End sector
––––––––––––––––––––––––––––-
1 | 0:00.00 | 5:05.69 | 0 | 22943
2 | 5:05.69 | 4:19.18 | 22944 | 42386
3 | 9:25.12 | 3:57.46 | 42387 | 60207
4 | 13:22.58 | 4:01.01 | 60208 | 78283
5 | 17:23.59 | 3:39.74 | 78284 | 94782
6 | 21:03.58 | 3:35.26 | 94783 | 110933
7 | 24:39.09 | 6:00.23 | 110934 | 137956
8 | 30:39.32 | 6:51.64 | 137957 | 168845
9 | 37:31.21 | 4:05.71 | 168846 | 187291
10 | 41:37.17 | 4:21.31 | 187292 | 206897
11 | 45:58.48 | 6:30.36 | 206898 | 236183
12 | 52:29.09 | 3:02.24 | 236184 | 249857
13 | 55:31.33 | 3:53.37 | 249858 | 267369
14 | 59:24.70 | 4:48.16 | 267370 | 288985
15 | 64:13.11 | 6:49.25 | 288986 | 319685


Range status and errors

Selected range

Filename G:\CD\Eddie Taylor Jr. - So Called Friends.wav

Peak level 100.0 %
Extraction speed 6.9 X
Range quality 100.0 %
Test CRC CB25DDE4
Copy CRC CB25DDE4
Copy OK

No errors occurred


AccurateRip summary

Track 1 accurately ripped (confidence 1) [6631F885] (AR v2)
Track 2 accurately ripped (confidence 1) [B224C683] (AR v2)
Track 3 accurately ripped (confidence 1) [A1C22774] (AR v2)
Track 4 accurately ripped (confidence 1) [CE22A3D8] (AR v2)
Track 5 accurately ripped (confidence 1) [72CE199C] (AR v2)
Track 6 accurately ripped (confidence 1) [C62146EB] (AR v2)
Track 7 accurately ripped (confidence 1) [F8CD007C] (AR v2)
Track 8 accurately ripped (confidence 1) [6F783B2B] (AR v2)
Track 9 accurately ripped (confidence 1) [970CF9F6] (AR v2)
Track 10 accurately ripped (confidence 1) [AAA42F34] (AR v2)
Track 11 accurately ripped (confidence 1) [51F29638] (AR v2)
Track 12 accurately ripped (confidence 1) [7B0B21F6] (AR v2)
Track 13 accurately ripped (confidence 1) [B18619C6] (AR v2)
Track 14 accurately ripped (confidence 1) [868C7F63] (AR v2)
Track 15 accurately ripped (confidence 1) [FEE54423] (AR v2)

All tracks accurately ripped

End of status report

foobar2000 1.2.9 / Dynamic Range Meter 1.1.1
log date: 2014-02-12 09:14:10

––––––––––––––––––––––––––––––––––––––––
Analyzed: Eddie Taylor Jr. / So Called Friends - His Best 15 Songs
––––––––––––––––––––––––––––––––––––––––

DR Peak RMS Duration Track
––––––––––––––––––––––––––––––––––––––––
DR8 -0.35 dB -9.57 dB 5:06 01-Wild about You Baby
DR8 -0.35 dB -10.09 dB 4:19 02-Welfare Blues
DR9 -0.35 dB -10.30 dB 3:58 03-You Sweet
DR8 -0.35 dB -9.92 dB 4:01 04-Mistress Blues
DR8 -0.35 dB -9.71 dB 3:40 05-So Called Ftiends
DR13 -0.30 dB -14.29 dB 3:35 06-Use What You Got
DR11 -0.13 dB -12.63 dB 6:00 07-Goin' Upside Your Head
DR11 -0.50 dB -13.21 dB 6:52 08-Easy Baby.aiff
DR14 -0.30 dB -14.69 dB 4:06 09-I've Made Nights By Myself
DR12 -0.12 dB -13.61 dB 4:21 10-Stop Breakin' Down
DR10 -0.50 dB -11.88 dB 6:30 11-Blues In Your Life
DR12 -0.30 dB -14.07 dB 3:02 12-Pink Champagne
DR8 0.00 dB -9.56 dB 3:53 13-My Little Machine
DR8 0.00 dB -9.05 dB 4:48 14-Got To Make This Money , Baby
DR13 0.00 dB -15.05 dB 6:49 15-44 Blues
––––––––––––––––––––––––––––––––––––––––

Number of tracks: 15
Official DR value: DR10

Samplerate: 44100 Hz
Channels: 2
Bits per sample: 16
Bitrate: 848 kbps
Codec: FLAC

Eddie Taylor Jr. - So Called Friends (2011) [Chicago Blues Session Vol. 78]

All thanks go to gerrV