Subcategories

Electric Light Orchestra - Live At The BBC (1999) Repost

Posted By: v3122
Electric Light Orchestra - Live At The BBC (1999) Repost

Electric Light Orchestra - Live At The BBC (1999)
EAC | Flac(Image) + Cue + Log & MP3 CBR 320Kbps
2CD | Eagle Records, 74321 67770 2 | ~ 802 or 300 Mb | Scans(jpg) -> 20 Mb
Progressive Rock

Live at the BBC is a Live two disc compilation album featuring various line ups of the rock group Electric Light Orchestra (ELO). Released in 1999 and featuring various live BBC sessions as well as Live concert segments recorded by the BBC…

~ wiki
Electric Light Orchestra - Live At The BBC (1999):

Electric Light Orchestra - Live At The BBC (1999) Repost

Tracklist CD1:

(recorded 19.04.1973 - 12.05.1973)

1. From The Sun To The World - 11.39
2. Kuiama - 10.26
3. In The Hall Of The Mountain King - 8.10
4. Roll Over Beethoven - 5.09

(recorded 25.01.1974 - 02.02.1974)

5. King Of The Universe - 4.54
6. Bluebird Is Dead - 4.09
7. Oh No Not Susan - 2.43
8. New World Rising - 6.39
9. Violin Solo/ Orange Blossom Special - 2.37
10. In The Hall Of The Mountain King - 4.56
11. Great Balls Of Fire - 3.25

Converted to Image (CUETools 2.1.4)

Exact Audio Copy V0.99 prebeta 4 from 23. January 2008

Отчёт EAC об извлечении, выполненном 29. ноября 2010, 3:10

Electric Light Orchestra / Live At The BBC (CD 1)

Дисковод: HL-DT-STDVDRAM GSA-E40N Adapter: 2 ID: 0

Режим чтения : Достоверность
Использование точного потока : Да
Отключение кэша аудио : Да
Использование указателей C2 : Нет

Коррекция смещения при чтении : 667
Способность читать области Lead-in и Lead-out : Нет
Заполнение пропущенных сэмплов тишиной : Да
Удаление блоков с тишиной в начале и конце : Нет
При вычислениях CRC использовались нулевые сэмплы : Да
Интерфейс : Встроенный Win32-интерфейс для Win NT/2000
Обработка зазоров : Добавлено к предыдущему треку

Выходной формат : Пользовательский кодировщик
Выбранный битрейт : 128 kBit/s
Качество : Высокий
Добавление ID3-тэга : Нет
Утилита сжатия : C:\Program Files\Exact Audio Copy\FLAC\FLAC.EXE
Дополнительные параметры : -6 -V -T "ARTIST=%a" -T "TITLE=%t" -T "ALBUM=%g" -T "DATE=%y" -T "TRACKNUMBER=%n" -T "GENRE=%m" -T "COMMENT=%e" %s -o %d


TOC извлечённого CD

Трек | Старт | Длительность | Начальный сектор | Конечный сектор
––––––––––––––––––––––––––––––––––-
1 | 0:00.00 | 11:39.13 | 0 | 52437
2 | 11:39.13 | 10:26.43 | 52438 | 99430
3 | 22:05.56 | 8:09.55 | 99431 | 136160
4 | 30:15.36 | 5:09.27 | 136161 | 159362
5 | 35:24.63 | 4:53.45 | 159363 | 181382
6 | 40:18.33 | 4:09.20 | 181383 | 200077
7 | 44:27.53 | 2:42.68 | 200078 | 212295
8 | 47:10.46 | 6:39.25 | 212296 | 242245
9 | 53:49.71 | 2:36.62 | 242246 | 254007
10 | 56:26.58 | 4:55.50 | 254008 | 276182
11 | 61:22.33 | 3:24.47 | 276183 | 291529


Трек 1

Имя файла G:\ELO - All Live lossless\1976 - Live At BBC 1973-1976 (2CD edition 1999)\CD 1\01 - From The Sun To The World.wav

Длина предзазора 0:00:02.00

Пиковый уровень 75.9 %
Качество трека 100.0 %
CRC теста E81F12E9
CRC копии E81F12E9
Копирование… OK

Трек 2

Имя файла G:\ELO - All Live lossless\1976 - Live At BBC 1973-1976 (2CD edition 1999)\CD 1\02 - Kuiama.wav

Пиковый уровень 78.0 %
Качество трека 99.9 %
CRC теста 7FAA27B4
CRC копии 7FAA27B4
Копирование… OK

Трек 3

Имя файла G:\ELO - All Live lossless\1976 - Live At BBC 1973-1976 (2CD edition 1999)\CD 1\03 - In The Hall Of The Mountain King.wav

Пиковый уровень 89.9 %
Качество трека 100.0 %
CRC теста 94F3D42D
CRC копии 94F3D42D
Копирование… OK

Трек 4

Имя файла G:\ELO - All Live lossless\1976 - Live At BBC 1973-1976 (2CD edition 1999)\CD 1\04 - Roll Over Beethoven.wav

Пиковый уровень 85.5 %
Качество трека 100.0 %
CRC теста 99A4D480
CRC копии 99A4D480
Копирование… OK

Трек 5

Имя файла G:\ELO - All Live lossless\1976 - Live At BBC 1973-1976 (2CD edition 1999)\CD 1\05 - King Of The Universe.wav

Длина предзазора 0:00:02.80

Пиковый уровень 69.8 %
Качество трека 100.0 %
CRC теста 808FC456
CRC копии 808FC456
Копирование… OK

Трек 6

Имя файла G:\ELO - All Live lossless\1976 - Live At BBC 1973-1976 (2CD edition 1999)\CD 1\06 - Bluebird Is Dead.wav

Пиковый уровень 74.3 %
Качество трека 100.0 %
CRC теста 88279F49
CRC копии 88279F49
Копирование… OK

Трек 7

Имя файла G:\ELO - All Live lossless\1976 - Live At BBC 1973-1976 (2CD edition 1999)\CD 1\07 - Oh No Not Susan.wav

Пиковый уровень 69.8 %
Качество трека 100.0 %
CRC теста F1270EE6
CRC копии F1270EE6
Копирование… OK

Трек 8

Имя файла G:\ELO - All Live lossless\1976 - Live At BBC 1973-1976 (2CD edition 1999)\CD 1\08 - New World Rising.wav

Пиковый уровень 95.6 %
Качество трека 100.0 %
CRC теста AF525D10
CRC копии AF525D10
Копирование… OK

Трек 9

Имя файла G:\ELO - All Live lossless\1976 - Live At BBC 1973-1976 (2CD edition 1999)\CD 1\09 - Violin Solo , Orange Blossom Special.wav

Пиковый уровень 96.5 %
Качество трека 100.0 %
CRC теста C7705FAA
CRC копии C7705FAA
Копирование… OK

Трек 10

Имя файла G:\ELO - All Live lossless\1976 - Live At BBC 1973-1976 (2CD edition 1999)\CD 1\10 - In The Hall Of The Mountain King.wav

Пиковый уровень 94.0 %
Качество трека 100.0 %
CRC теста 15121933
CRC копии 15121933
Копирование… OK

Трек 11

Имя файла G:\ELO - All Live lossless\1976 - Live At BBC 1973-1976 (2CD edition 1999)\CD 1\11 - Great Balls Of Fire.wav

Пиковый уровень 96.4 %
Качество трека 100.0 %
CRC теста 2CAACB25
CRC копии 2CAACB25
Копирование… OK

Ошибок не произошло

Конец отчёта


[CUETools log; Date: 27.01.2018 14:36:25; Version: 2.1.5]
[AccurateRip ID: 00201f1d-0106469c-950f2f0b] found.
Track [ CRC | V2 ] Status
01 [80e548de|57ef278b] (04+09/13) Accurately ripped
02 [869a198e|a7a27870] (00+00/13) No match
03 [f6911c05|3dfd01d3] (04+09/13) Accurately ripped
04 [cd7915ae|5f38608e] (04+09/13) Accurately ripped
05 [40233fe4|635fcd2b] (04+09/13) Accurately ripped
06 [05e17466|811f481b] (04+09/13) Accurately ripped
07 [22e84f01|b1e90ba4] (04+09/13) Accurately ripped
08 [01e8047b|af4dfb39] (04+09/13) Accurately ripped
09 [05f0f0a9|5a2ee828] (04+09/13) Accurately ripped
10 [1345b5eb|a28f0b6a] (04+09/13) Accurately ripped
11 [ebc0b428|afeb2ea3] (04+09/13) Accurately ripped

Track Peak [ CRC32 ] [W/O NULL] [ LOG ]
– 96,5 [620DF1CC] [1D47D6B9]
01 75,9 [E81F12E9] [41AFD8C0] CRC32
02 78,0 [7FAA27B4] [24516983] CRC32
03 89,9 [94F3D42D] [212A5E34] CRC32
04 85,5 [99A4D480] [A31C9552] CRC32
05 69,8 [808FC456] [211C7497] CRC32
06 74,3 [88279F49] [3BCFC4FC] CRC32
07 69,8 [F1270EE6] [6A15A5DF] CRC32
08 95,6 [AF525D10] [890A90C5] CRC32
09 96,5 [C7705FAA] [E8DAFEEE] CRC32
10 94,0 [15121933] [2BF40325] CRC32
11 96,4 [2CAACB25] [2F272247] CRC32


Electric Light Orchestra - Live At The BBC (1999) Repost

Tracklist CD2:

(recorded 22.06.1976 - 06.11.1976)

1. Fire On High - 5.35
2. Poker - 4.20
3. Nightrider - 4.59
4. Medley - On The Third Day - 13.14
Ocean Break Up
King Of The Universe
Oh No Not Susan
Bluebird Is Dead
Oh No Not Susan
New World Rising
Ocean Break Up (Reprise)
5. Showdown - 4.45
6. Eldorado - 6.05
7. Poor Boy (The Greenwood) - 2.43

8. Illusions In G Major - 3.39
9. Strange Magic - 3.37
10. Evil Woman - 5.19
11. Ma Ma Ma Belle - 5.32

Converted to Image (CUETools 2.1.4)

Exact Audio Copy V0.99 prebeta 4 from 23. January 2008

Отчёт EAC об извлечении, выполненном 29. ноября 2010, 3:33

Electric Light Orchestra / Live At The BBC (CD 2)

Дисковод: HL-DT-STDVDRAM GSA-E40N Adapter: 2 ID: 0

Режим чтения : Достоверность
Использование точного потока : Да
Отключение кэша аудио : Да
Использование указателей C2 : Нет

Коррекция смещения при чтении : 667
Способность читать области Lead-in и Lead-out : Нет
Заполнение пропущенных сэмплов тишиной : Да
Удаление блоков с тишиной в начале и конце : Нет
При вычислениях CRC использовались нулевые сэмплы : Да
Интерфейс : Встроенный Win32-интерфейс для Win NT/2000
Обработка зазоров : Добавлено к предыдущему треку

Выходной формат : Пользовательский кодировщик
Выбранный битрейт : 128 kBit/s
Качество : Высокий
Добавление ID3-тэга : Нет
Утилита сжатия : C:\Program Files\Exact Audio Copy\FLAC\FLAC.EXE
Дополнительные параметры : -6 -V -T "ARTIST=%a" -T "TITLE=%t" -T "ALBUM=%g" -T "DATE=%y" -T "TRACKNUMBER=%n" -T "GENRE=%m" -T "COMMENT=%e" %s -o %d


TOC извлечённого CD

Трек | Старт | Длительность | Начальный сектор | Конечный сектор
––––––––––––––––––––––––––––––––––-
1 | 0:00.00 | 5:35.26 | 0 | 25150
2 | 5:35.26 | 4:20.17 | 25151 | 44667
3 | 9:55.43 | 4:58.55 | 44668 | 67072
4 | 14:54.23 | 13:13.58 | 67073 | 126605
5 | 28:08.06 | 4:45.30 | 126606 | 148010
6 | 32:53.36 | 6:05.15 | 148011 | 175400
7 | 38:58.51 | 2:42.60 | 175401 | 187610
8 | 41:41.36 | 3:39.32 | 187611 | 204067
9 | 45:20.68 | 3:36.18 | 204068 | 220285
10 | 48:57.11 | 5:19.00 | 220286 | 244210
11 | 54:16.11 | 5:32.19 | 244211 | 269129


Трек 1

Имя файла G:\ELO - All Live lossless\1976 - Live At BBC 1973-1976 (2CD edition 1999)\CD 2\01 - Fire On High.wav

Длина предзазора 0:00:02.00

Пиковый уровень 89.5 %
Качество трека 99.9 %
CRC теста 79ED050A
CRC копии 79ED050A
Копирование… OK

Трек 2

Имя файла G:\ELO - All Live lossless\1976 - Live At BBC 1973-1976 (2CD edition 1999)\CD 2\02 - Poker.wav

Пиковый уровень 87.8 %
Качество трека 100.0 %
CRC теста 295ADD7A
CRC копии 295ADD7A
Копирование… OK

Трек 3

Имя файла G:\ELO - All Live lossless\1976 - Live At BBC 1973-1976 (2CD edition 1999)\CD 2\03 - Nightrider.wav

Пиковый уровень 100.0 %
Качество трека 100.0 %
CRC теста 2384486A
CRC копии 2384486A
Копирование… OK

Трек 4

Имя файла G:\ELO - All Live lossless\1976 - Live At BBC 1973-1976 (2CD edition 1999)\CD 2\04 - Medley - On The Third Day.wav

Пиковый уровень 94.1 %
Качество трека 100.0 %
CRC теста 0AD548C0
CRC копии 0AD548C0
Копирование… OK

Трек 5

Имя файла G:\ELO - All Live lossless\1976 - Live At BBC 1973-1976 (2CD edition 1999)\CD 2\05 - Showdown.wav

Пиковый уровень 96.8 %
Качество трека 100.0 %
CRC теста B1139E79
CRC копии B1139E79
Копирование… OK

Трек 6

Имя файла G:\ELO - All Live lossless\1976 - Live At BBC 1973-1976 (2CD edition 1999)\CD 2\06 - Eldorado.wav

Пиковый уровень 68.1 %
Качество трека 100.0 %
CRC теста 1EBC2B91
CRC копии 1EBC2B91
Копирование… OK

Трек 7

Имя файла G:\ELO - All Live lossless\1976 - Live At BBC 1973-1976 (2CD edition 1999)\CD 2\07 - Poor Boy (The Greenwood).wav

Пиковый уровень 74.8 %
Качество трека 100.0 %
CRC теста 17AE1C10
CRC копии 17AE1C10
Копирование… OK

Трек 8

Имя файла G:\ELO - All Live lossless\1976 - Live At BBC 1973-1976 (2CD edition 1999)\CD 2\08 - Illusions In G Major.wav

Пиковый уровень 75.5 %
Качество трека 100.0 %
CRC теста 3D948C8D
CRC копии 3D948C8D
Копирование… OK

Трек 9

Имя файла G:\ELO - All Live lossless\1976 - Live At BBC 1973-1976 (2CD edition 1999)\CD 2\09 - Strange Magic.wav

Пиковый уровень 74.4 %
Качество трека 100.0 %
CRC теста C3C9B7CB
CRC копии C3C9B7CB
Копирование… OK

Трек 10

Имя файла G:\ELO - All Live lossless\1976 - Live At BBC 1973-1976 (2CD edition 1999)\CD 2\10 - Evil Woman.wav

Пиковый уровень 73.1 %
Качество трека 100.0 %
CRC теста E7E6C2BA
CRC копии E7E6C2BA
Копирование… OK

Трек 11

Имя файла G:\ELO - All Live lossless\1976 - Live At BBC 1973-1976 (2CD edition 1999)\CD 2\11 - Ma Ma Ma Belle.wav

Пиковый уровень 82.8 %
Качество трека 100.0 %
CRC теста DE467EA8
CRC копии DE467EA8
Копирование… OK

Ошибок не произошло

Конец отчёта


[CUETools log; Date: 27.01.2018 14:39:50; Version: 2.1.5]
[AccurateRip ID: 001a2058-00dfa8cf-aa0e040b] found.
Track [ CRC | V2 ] Status
01 [64c7e5df|0da7556f] (04+09/13) Accurately ripped
02 [86bfa90f|4a990fd3] (04+09/13) Accurately ripped
03 [7d89940b|86cb8415] (04+09/13) Accurately ripped
04 [a86edea5|a2247157] (04+09/13) Accurately ripped
05 [49ab12d2|7fe4ae24] (04+09/13) Accurately ripped
06 [aa383f73|20006d2e] (04+09/13) Accurately ripped
07 [fcde43c4|4a27c0e9] (04+09/13) Accurately ripped
08 [956dc5ba|d7516aef] (04+09/13) Accurately ripped
09 [fdf515ae|1bed9a25] (04+09/13) Accurately ripped
10 [2b34c5aa|0f30a69c] (04+09/13) Accurately ripped
11 [10a31515|1de0d76a] (04+08/12) Accurately ripped

Track Peak [ CRC32 ] [W/O NULL] [ LOG ]
– 100,0 [A157A62A] [41ADFA5C]
01 89,5 [79ED050A] [1F48BA38] CRC32
02 87,8 [295ADD7A] [900537D0] CRC32
03 100,0 [2384486A] [D3755226] CRC32
04 94,1 [0AD548C0] [CBA2F256] CRC32
05 96,8 [B1139E79] [8BD333FE] CRC32
06 68,1 [1EBC2B91] [A5F65636] CRC32
07 74,8 [17AE1C10] [358C2584] CRC32
08 75,5 [3D948C8D] [425DA483] CRC32
09 74,4 [C3C9B7CB] [557B974B] CRC32
10 73,1 [E7E6C2BA] [9DDF3BBB] CRC32
11 82,8 [DE467EA8] [ACD8F835] CRC32


Electric Light Orchestra - Live At The BBC (1999) Repost

All thanks go to the original releaser

Electric Light Orchestra or Electric Light Orchestra in my Blog

Download Electric Light Orchestra - Live At The BBC (1999):