Electric Light Orchestra - Live (2013) {Japanese Edition}

Posted By: popsakov
Electric Light Orchestra - Live (2013) {Japanese Edition}

Electric Light Orchestra - Live (2013) {Japanese Edition}
EAC Rip | FLAC (Img) + Cue + Log ~ 397 Mb | MP3 CBR320 ~ 131 Mb
Full Scans (JPG, 600 dpi) ~ 134 Mb | RAR 5% Recovery
Art Rock, Classic Rock | Avalon #MICP-30043

Electric Light Orchestra's 2012 concert album Live brings together tracks Jeff Lynne and his band recorded for a PBS special at CBS Television City in 2001. This is the ensemble that toured in support of ELO's 2001 studio album, Zoom, and appeared on VH1 Storytellers. Lynne has always been an avowed studio rat, more comfortable crafting his rock productions behind a soundboard than playing them in front of a live audience. This is partly the reason that the Lynne-helmed version of ELO stopped touring after 1981's Time. Subsequently, there haven't been very many proper ELO concert albums. Which is not to say that the band doesn't sound fantastic here, because it does. Lynne is a musical perfectionist who never fails to deliver on the grand, orchestral rock aesthetic he crafted on so many classic albums. All of which makes this 2001 collection a welcome addition to ELO's discography.
~ Matt Collar, All Music

***************

Axami - Lingerie 2009

Axami - Lingerie 2009

Track List:

01. Evil Woman [0:04:27.35]
02. Showdown [0:04:08.70]
03. Secret Messages [0:04:06.43]
04. Livin' Thing [0:04:09.20]
05. Sweet Talkin' Woman [0:03:15.58]
06. Mr. Blue Sky [0:03:31.53]
07. Can't Get It Out Of My Head [0:04:11.40]
08. Twilight [0:03:30.56]
09. Confusion [0:03:34.48]
10. Don't Bring Me Down [0:04:08.05]
11. Roll Over Beethoven (Chuck Berry) [0:06:25.72]
12. Out Of Luck [0:02:36.11]
13. Cold Feet [0:02:17.66]
14. Telephone Line (Live From Bungalow Palace) [0:04:19.17]

Exact Audio Copy V1.0 beta 3 from 29. August 2011

Отчёт EAC об извлечении, выполненном 6. июля 2017, 10:25

Electric Light Orchestra / Live

Дисковод: PLEXTOR DVDR PX-755A Adapter: 0 ID: 0

Режим чтения : Достоверность
Использование точного потока : Да
Отключение кэша аудио : Да
Использование указателей C2 : Нет

Коррекция смещения при чтении : 30
Способность читать области Lead-in и Lead-out : Нет
Заполнение пропущенных сэмплов тишиной : Да
Удаление блоков с тишиной в начале и конце : Нет
При вычислениях CRC использовались нулевые сэмплы : Да
Интерфейс : Установленный внешний ASPI-интерфейс

Выходной формат : Пользовательский кодировщик
Выбранный битрейт : 1024 kBit/s
Качество : Высокий
Добавление ID3-тега : Нет
Утилита сжатия : C:\Program Files (x86)\Exact Audio Copy\Flac\flac.exe
Дополнительные параметры : -V -8 -T "Date=%year%" -T "Genre=%genre%" %source%


TOC извлечённого CD

Трек | Старт | Длительность | Начальный сектор | Конечный сектор
––––––––––––––––––––––––––––––––––-
1 | 0:00.00 | 4:27.35 | 0 | 20059
2 | 4:27.35 | 4:08.70 | 20060 | 38729
3 | 8:36.30 | 4:06.43 | 38730 | 57222
4 | 12:42.73 | 4:09.20 | 57223 | 75917
5 | 16:52.18 | 3:15.58 | 75918 | 90600
6 | 20:08.01 | 3:31.53 | 90601 | 106478
7 | 23:39.54 | 4:11.40 | 106479 | 125343
8 | 27:51.19 | 3:30.56 | 125344 | 141149
9 | 31:22.00 | 3:34.48 | 141150 | 157247
10 | 34:56.48 | 4:08.05 | 157248 | 175852
11 | 39:04.53 | 6:25.72 | 175853 | 204799
12 | 45:30.50 | 2:36.11 | 204800 | 216510
13 | 48:06.61 | 2:17.66 | 216511 | 226851
14 | 50:24.52 | 4:19.17 | 226852 | 246293


Характеристики диапазона извлечения и сообщения об ошибках

Выбранный диапазон

Имя файла E:\РАЗДАЧА\ELO-Live [Japan 2013]\Electric Light Orchestra - Live.wav

Пиковый уровень 100.0 %
Скорость извлечения 8.2 X
Качество диапазона 100.0 %
CRC теста 041F5EC0
CRC копии 041F5EC0
Копирование… OK

Ошибок не произошло


AccurateRip: сводка

Трек 1 : извлечено точно (доверие 4) [4B1496F7] (AR v2)
Трек 2 : извлечено точно (доверие 4) [D5C67BB4] (AR v2)
Трек 3 : извлечено точно (доверие 4) [3F13847D] (AR v2)
Трек 4 : извлечено точно (доверие 4) [E2E0A5CC] (AR v2)
Трек 5 : извлечено точно (доверие 4) [CF136A4C] (AR v2)
Трек 6 : извлечено точно (доверие 4) [975BF022] (AR v2)
Трек 7 : извлечено точно (доверие 4) [3EB9FE80] (AR v2)
Трек 8 : извлечено точно (доверие 4) [4BBF6E19] (AR v2)
Трек 9 : извлечено точно (доверие 4) [B6E322D8] (AR v2)
Трек 10 : извлечено точно (доверие 4) [DAEEC538] (AR v2)
Трек 11 : извлечено точно (доверие 4) [CAB21971] (AR v2)
Трек 12 : извлечено точно (доверие 4) [D52A4C46] (AR v2)
Трек 13 : извлечено точно (доверие 4) [CACF6A6F] (AR v2)
Трек 14 : извлечено точно (доверие 4) [4FF44798] (AR v2)

Все треки извлечены точно

Конец отчёта

==== Контрольная сумма отчёта 3B609CF75EC0C005B9999D3A81DA3C157584E037E79B185B6AB4F800BE5C63CA ====

foobar2000 1.2.6 / Dynamic Range Meter 1.1.1
log date: 2017-07-06 14:57:09

––––––––––––––––––––––––––––––––––––––––
Analyzed: Electric Light Orchestra / Live
––––––––––––––––––––––––––––––––––––––––

DR Peak RMS Duration Track
––––––––––––––––––––––––––––––––––––––––
DR8 -0.03 dB -9.50 dB 4:27 01-Evil Woman
DR9 -0.20 dB -10.32 dB 4:09 02-Showdown
DR7 0.00 dB -8.45 dB 4:07 03-Secret Messages
DR9 -0.07 dB -9.72 dB 4:09 04-Livin' Thing
DR8 -0.09 dB -9.42 dB 3:16 05-Sweet Talkin' Woman
DR8 -0.05 dB -9.58 dB 3:32 06-Mr. Blue Sky
DR9 -0.24 dB -10.42 dB 4:12 07-Can't Get It Out Of My Head
DR8 -0.03 dB -9.32 dB 3:31 08-Twilight
DR9 -0.04 dB -10.15 dB 3:35 09-Confusion
DR8 -0.20 dB -9.46 dB 4:08 10-Don't Bring Me Down
DR8 -0.14 dB -9.64 dB 6:26 11-Roll Over Beethoven (Chuck Berry)
DR9 0.00 dB -9.68 dB 2:36 12-Out Of Luck
DR9 -0.30 dB -11.87 dB 2:18 13-Cold Feet
DR9 -0.05 dB -12.52 dB 4:19 14-Telephone Line (Live From Bungalow Palace)
––––––––––––––––––––––––––––––––––––––––

Number of tracks: 14
Official DR value: DR9

Samplerate: 44100 Hz
Channels: 2
Bits per sample: 16
Bitrate: 947 kbps
Codec: FLAC
================================================================================

[CUETools log; Date: 06.07.2017 14:57:24; Version: 2.1.5]
[CTDB TOCID: aK6aug8EGHhZq5PrXGRQdJsKJ3E-] found.
Track | CTDB Status
1 | (13/13) Accurately ripped
2 | (13/13) Accurately ripped
3 | (13/13) Accurately ripped
4 | (13/13) Accurately ripped
5 | (13/13) Accurately ripped
6 | (13/13) Accurately ripped
7 | (13/13) Accurately ripped
8 | (13/13) Accurately ripped
9 | (13/13) Accurately ripped
10 | (13/13) Accurately ripped
11 | (13/13) Accurately ripped
12 | (13/13) Accurately ripped
13 | (13/13) Accurately ripped
14 | (13/13) Accurately ripped
[AccurateRip ID: 001cbbb7-0130d06a-bf0cd30e] found.
Track [ CRC | V2 ] Status
01 [83c72f08|4b1496f7] (0+4/4) Accurately ripped
02 [4734c715|d5c67bb4] (0+4/4) Accurately ripped
03 [2fd53bca|3f13847d] (0+4/4) Accurately ripped
04 [5c5da3b6|e2e0a5cc] (0+4/4) Accurately ripped
05 [35b74f9c|cf136a4c] (0+4/4) Accurately ripped
06 [3bd9d58c|975bf022] (0+4/4) Accurately ripped
07 [43677d05|3eb9fe80] (0+4/4) Accurately ripped
08 [2b60c60b|4bbf6e19] (0+4/4) Accurately ripped
09 [f2cb8a30|b6e322d8] (0+4/4) Accurately ripped
10 [b0ff0af9|daeec538] (0+4/4) Accurately ripped
11 [f77f288a|cab21971] (0+4/4) Accurately ripped
12 [fef7c825|d52a4c46] (0+4/4) Accurately ripped
13 [752895f0|cacf6a6f] (0+4/4) Accurately ripped
14 [45528199|4ff44798] (0+4/4) Accurately ripped

Track Peak [ CRC32 ] [W/O NULL] [ LOG ]
– 100,0 [041F5EC0] [9FAEB6D4] CRC32
01 99,6 [54F2EC63] [EEDE3B88]
02 97,6 [0E6A1B52] [C73FB847]
03 100,0 [142DE52A] [AEC24216]
04 99,1 [84BB89D1] [718625B1]
05 98,9 [94C0BD7D] [7A609DCA]
06 99,3 [F92A7A36] [183296C1]
07 97,2 [AD34D3A0] [D8AE33F3]
08 99,6 [D299E458] [72047D64]
09 99,5 [B24C0298] [34A1DDA1]
10 97,6 [0F1AE444] [CA864A5A]
11 98,4 [A45D44B8] [DFEAFAD9]
12 100,0 [E3D26778] [769D9DA6]
13 96,6 [2BF8DB1E] [7D72115E]
14 99,3 [F68BE63D] [EDF59FC4]

Axami - Lingerie 2009

All thanks go to pishin

>>> Electric Light Orchestra in my Blog <<<

Download from icerbox.com: