Subcategories

Electric Light Orchestra & Olivia Newton-John - Xanadu (1980)

Posted By: v3122
Electric Light Orchestra & Olivia Newton-John - Xanadu (1980)

Electric Light Orchestra & Olivia Newton-John - Xanadu (1980)
EAC | Flac(Image) + Cue + Log & MP3 CBR 320Kbps
1989 | Jet 465054 2 | ~ 235 or 100 Mb | Scans(jpg) -> 24 Mb
Pop Rock, Synth-pop, Disco, Progressive Rock

Hollywood never learns. Hot on the heels of box-office failures Sgt. Pepper's Lonely Hearts Club Band and Can't Stop the Music, comes the roller-skating Olivia Newton John in Xanadu. This soundtrack is fluff stuff to be sure, but some pearls float amongst the mire. Lead-off "Magic" remains a fine single. "Suddenly," a duet ONJ ekes out with British luminary Cliff Richard, seems better than most love themes. The sudden appearance of the Tubes almost saves the doomed swing/rock hybrid "Dancin," but the two styles should never meet. The second half glows from the Electric Light Orchestra, soaring at its commercial height, escaping this crippling fairy tale fairly untarnished with three more hit bits: "I'm Alive," "All Over the World," and the Olivia Neutron Bomb showcase title track. "Don't Walk Away" and "The Fall" stand as two of Jeff Lynne's finest, thus the flip nukes the front which should stay stuck to the theater floor. Listening to this soundtrack may beat watching the actual film, but know that if you didn't dig Xanadu when it came out, the platter gains nothing through time.

by Doug Stone, allmusic
Electric Light Orchestra & Olivia Newton-John - Xanadu (1980):

Electric Light Orchestra & Olivia Newton-John - Xanadu (1980)

Tracklist:

01. Olivia Newton-John / Magic [0:04:28.70]
02. Olivia Newton-John with Cliff Richard / Suddenly [0:03:59.62]
03. Olivia Newton-John with The Tubes / Dancin' [0:05:15.05]
04. Olivia Newton-John / Suspended In Time [0:03:53.45]
05. Olivia Newton-John with Gene Kelly / Whenever You're Away From Me [0:04:19.10]
06. Electric Light Orchestra / I'm Alive [0:03:45.23]
07. Electric Light Orchestra / The Fall [0:03:35.30]
08. Electric Light Orchestra / Don't Walk Away [0:04:39.62]
09. Electric Light Orchestra / All Over The World [0:04:05.70]
10. Electric Light Orchestra with Olivia Newton-John / Xanadu [0:03:27.73]

Exact Audio Copy V1.1 from 23. June 2015

EAC extraction logfile from 23. October 2015, 18:07

Various / Xanadu [Original Soundtrack] (465054 2)

Used drive : HL-DT-STDVDRAM GE20NU11 Adapter: 1 ID: 0

Read mode : Secure
Utilize accurate stream : Yes
Defeat audio cache : Yes
Make use of C2 pointers : No

Read offset correction : 667
Overread into Lead-In and Lead-Out : No
Fill up missing offset samples with silence : Yes
Delete leading and trailing silent blocks : No
Null samples used in CRC calculations : Yes
Used interface : Native Win32 interface for Win NT & 2000

Used output format : User Defined Encoder
Selected bitrate : 896 kBit/s
Quality : High
Add ID3 tag : No
Command line compressor : C:\Program Files\EAC 3\Exact Audio Copy\Flac\flac.exe
Additional command line options : -V -8 %source%


TOC of the extracted CD

Track | Start | Length | Start sector | End sector
––––––––––––––––––––––––––––-
1 | 0:00.00 | 4:28.70 | 0 | 20169
2 | 4:28.70 | 3:59.62 | 20170 | 38156
3 | 8:28.57 | 5:15.05 | 38157 | 61786
4 | 13:43.62 | 3:53.45 | 61787 | 79306
5 | 17:37.32 | 4:19.10 | 79307 | 98741
6 | 21:56.42 | 3:45.23 | 98742 | 115639
7 | 25:41.65 | 3:35.30 | 115640 | 131794
8 | 29:17.20 | 4:39.62 | 131795 | 152781
9 | 33:57.07 | 4:05.70 | 152782 | 171226
10 | 38:03.02 | 3:27.73 | 171227 | 186824


Range status and errors

Selected range

Filename C:\OdW\Various (1980) Xanadu [Original Soundtrack] (465054 2)\Various - Xanadu [Original Soundtrack] (465054 2).wav

Peak level 74.7 %
Extraction speed 6.6 X
Range quality 99.9 %
Test CRC 25AC2391
Copy CRC 25AC2391
Copy OK

No errors occurred


AccurateRip summary

Track 1 accurately ripped (confidence 9) [A8121986] (AR v2)
Track 2 accurately ripped (confidence 9) [F6D50044] (AR v2)
Track 3 accurately ripped (confidence 9) [A0E41937] (AR v2)
Track 4 accurately ripped (confidence 9) [9E6DB49F] (AR v2)
Track 5 accurately ripped (confidence 9) [2CBF93A3] (AR v2)
Track 6 accurately ripped (confidence 9) [0ADB3504] (AR v2)
Track 7 accurately ripped (confidence 9) [36659927] (AR v2)
Track 8 accurately ripped (confidence 10) [01869CC7] (AR v2)
Track 9 accurately ripped (confidence 9) [FEA1DEC5] (AR v2)
Track 10 accurately ripped (confidence 9) [46AB2CF3] (AR v2)

All tracks accurately ripped

End of status report

–– CUETools DB Plugin V2.1.6

[CTDB TOCID: 4voWL_AOBf6LOR6hqvf0zyhWyk0-] found
Submit result: 4voWL_AOBf6LOR6hqvf0zyhWyk0- has been confirmed
Track | CTDB Status
1 | (19/19) Accurately ripped
2 | (19/19) Accurately ripped
3 | (19/19) Accurately ripped
4 | (18/19) Accurately ripped
5 | (19/19) Accurately ripped
6 | (19/19) Accurately ripped
7 | (19/19) Accurately ripped
8 | (19/19) Accurately ripped
9 | (19/19) Accurately ripped
10 | (19/19) Accurately ripped


==== Log checksum 7557032C9D04826BCB5329141A8C04EDC75E5888FFB251F243FAD3E764FF7DA9 ====


[CUETools log; Date: 23.09.2017 9:17:23; Version: 2.1.5]
[CTDB TOCID: 4voWL_AOBf6LOR6hqvf0zyhWyk0-] found.
Track | CTDB Status
1 | (40/40) Accurately ripped
2 | (40/40) Accurately ripped
3 | (40/40) Accurately ripped
4 | (38/40) Accurately ripped
5 | (40/40) Accurately ripped
6 | (40/40) Accurately ripped
7 | (39/40) Accurately ripped
8 | (38/40) Accurately ripped
9 | (40/40) Accurately ripped
10 | (39/40) Accurately ripped
[AccurateRip ID: 00101eb0-00802172-7e09bb0a] found.
Track [ CRC | V2 ] Status
01 [34e26072|a8121986] (16+12/48) Accurately ripped
02 [d9003651|f6d50044] (16+12/48) Accurately ripped
03 [5137435c|a0e41937] (16+11/47) Accurately ripped
04 [69c32aa5|9e6db49f] (16+11/47) Accurately ripped
05 [69b64406|2cbf93a3] (16+11/47) Accurately ripped
06 [2de9c6ae|0adb3504] (16+12/47) Accurately ripped
07 [12415434|36659927] (16+11/46) Accurately ripped
08 [7725973b|01869cc7] (17+13/48) Accurately ripped
09 [59d2e1c9|fea1dec5] (16+12/48) Accurately ripped
10 [f2aa3818|46ab2cf3] (16+12/48) Accurately ripped
Offsetted by -68:
01 [b90d9a0a] (09/48) Accurately ripped
02 [2a7e5b55] (09/48) Accurately ripped
03 [732a5c64] (09/47) Accurately ripped
04 [9719d959] (09/47) Accurately ripped
05 [7f53a6d6] (09/47) Accurately ripped
06 [307243ae] (08/47) Accurately ripped
07 [4d9e4404] (08/46) Accurately ripped
08 [f1984e13] (08/48) Accurately ripped
09 [c52ce915] (09/48) Accurately ripped
10 [2eb11ff4] (09/48) Accurately ripped

Track Peak [ CRC32 ] [W/O NULL] [ LOG ]
– 74,7 [25AC2391] [86699013] CRC32
01 74,7 [67314BFE] [15BC978A]
02 54,7 [D41A2F41] [25657167]
03 59,9 [BC0EF0BD] [9F619C3C]
04 59,8 [0D662011] [8B0056A7]
05 63,2 [490A2AFF] [57BAD696]
06 66,8 [C7052359] [DE2EBC76]
07 57,5 [0645F982] [16868546]
08 56,7 [D5AC9E20] [849BC9EE]
09 54,5 [7959AADB] [9E34B05C]
10 51,4 [49ACB169] [EAD13074]


Electric Light Orchestra & Olivia Newton-John - Xanadu (1980)

All thanks go to snakesharmer

Electric Light Orchestr or Electric Light Orchestr in my Blog

Download Electric Light Orchestra & Olivia Newton-John - Xanadu (1980):