Subcategories

Electric Light Orchestra - The Very Best Of: Vol. 1 & 2 (2015) [Japan Blu-Spec CD 2, Reissue, Special Edition]

Posted By: popsakov
Electric Light Orchestra - The Very Best Of: Vol. 1 & 2 (2015) [Japan Blu-Spec CD 2, Reissue, Special Edition]

Electric Light Orchestra - The Very Best Of: Vol. 1 & 2 (2015)
EAC Rip | FLAC (Img) + Cue + Log ~ 1,08 Gb | MP3 CBR320 ~ 380 Mb
Scans (JPG, 600 dpi) ~ 30 Mb | RAR 5% Recovery
Rock | Sony Music/Epic #SICP 30902-3

Japanese original greatest hits album from Electric Light Orchestra combines the following two albums already released: "All Over The World - The Very Best Of Electric Light Orchestra" (2005) and "Ticket To The Moon - The Very Best Of Electric Light Orchestra Volume 2" (2007). Features Blu-spec CD2 format and contains 40 tracks total on two discs.

***************

Electric Light Orchestra - The Very Best Of: Vol. 1 & 2 (2015) [Japan Blu-Spec CD 2, Reissue, Special Edition]

Track List CD1:

01. Mr. Blue Sky [05:05]
02. Evil Woman [04:14]
03. Don't Bring Me Down [04:05]
04. Sweet Talkin' Woman [03:50]
05. Shine a Little Love [04:13]
06. Turn to Stone [03:50]
07. The Diary of Horace Wimp [04:19]
08. Confusion [03:42]
09. Hold on Tight [03:08]
10. Livin' Thing [03:33]
11. Telephone Line [04:42]
12. All Over the World [04:05]
13. Wild West Hero [04:44]
14. Showdown [04:10]
15. Ma-Ma-Ma Belle [03:40]
16. Xanadu (new version) [03:22]
17. Rockaria! [03:15]
18. Strange Magic [04:11]
19. Alright [03:13]
20. Rock 'N' Roll Is King [03:08]

Exact Audio Copy V1.1 from 23. June 2015

EAC extraction logfile from 30. December 2015, 10:58

Electric Light Orchestra / The Very Best of ELO - Volume 1 (Japan)

Used drive : ATAPI iHAS122 C Adapter: 1 ID: 0

Read mode : Secure
Utilize accurate stream : Yes
Defeat audio cache : Yes
Make use of C2 pointers : No

Read offset correction : 6
Overread into Lead-In and Lead-Out : No
Fill up missing offset samples with silence : Yes
Delete leading and trailing silent blocks : No
Null samples used in CRC calculations : Yes
Used interface : Native Win32 interface for Win NT & 2000

Used output format : Internal WAV Routines
Sample format : 44.100 Hz; 16 Bit; Stereo


TOC of the extracted CD

Track | Start | Length | Start sector | End sector
––––––––––––––––––––––––––––-
1 | 0:00.00 | 5:04.34 | 0 | 22833
2 | 5:04.34 | 4:13.03 | 22834 | 41811
3 | 9:17.37 | 4:04.68 | 41812 | 60179
4 | 13:22.30 | 3:49.45 | 60180 | 77399
5 | 17:12.00 | 4:12.41 | 77400 | 96340
6 | 21:24.41 | 3:49.37 | 96341 | 113552
7 | 25:14.03 | 4:18.15 | 113553 | 132917
8 | 29:32.18 | 3:41.61 | 132918 | 149553
9 | 33:14.04 | 3:07.40 | 149554 | 163618
10 | 36:21.44 | 3:32.66 | 163619 | 179584
11 | 39:54.35 | 4:41.56 | 179585 | 200715
12 | 44:36.16 | 4:04.61 | 200716 | 219076
13 | 48:41.02 | 4:43.16 | 219077 | 240317
14 | 53:24.18 | 4:09.66 | 240318 | 259058
15 | 57:34.09 | 3:39.31 | 259059 | 275514
16 | 61:13.40 | 3:21.68 | 275515 | 290657
17 | 64:35.33 | 3:14.50 | 290658 | 305257
18 | 67:50.08 | 4:10.30 | 305258 | 324037
19 | 72:00.38 | 3:12.41 | 324038 | 338478
20 | 75:13.04 | 3:07.59 | 338479 | 352562


Range status and errors

Selected range

Filename C:\Users\arthu\Desktop\Electric Light Orchestra - The Very Best of ELO - Volume 1 (Japan).wav

Peak level 100.0 %
Extraction speed 9.8 X
Range quality 100.0 %
Test CRC 4C192D89
Copy CRC 4C192D89
Copy OK

No errors occurred


AccurateRip summary

Track 1 accurately ripped (confidence 4) [E436CBFB] (AR v2)
Track 2 accurately ripped (confidence 4) [1A743E53] (AR v2)
Track 3 accurately ripped (confidence 4) [4443EFBD] (AR v2)
Track 4 accurately ripped (confidence 4) [10F1AA6C] (AR v2)
Track 5 accurately ripped (confidence 4) [9906CA95] (AR v2)
Track 6 accurately ripped (confidence 4) [03657133] (AR v2)
Track 7 accurately ripped (confidence 4) [0AF241F8] (AR v2)
Track 8 accurately ripped (confidence 4) [175AEF2E] (AR v2)
Track 9 accurately ripped (confidence 4) [6497D418] (AR v2)
Track 10 accurately ripped (confidence 4) [8696F911] (AR v2)
Track 11 accurately ripped (confidence 4) [B25A6BF9] (AR v2)
Track 12 accurately ripped (confidence 4) [908FE612] (AR v2)
Track 13 accurately ripped (confidence 4) [7780F9E1] (AR v2)
Track 14 accurately ripped (confidence 4) [7850253F] (AR v2)
Track 15 accurately ripped (confidence 4) [61F9E76C] (AR v2)
Track 16 accurately ripped (confidence 4) [590F7971] (AR v2)
Track 17 accurately ripped (confidence 4) [69B367C3] (AR v2)
Track 18 accurately ripped (confidence 4) [B73362D5] (AR v2)
Track 19 accurately ripped (confidence 4) [33477C78] (AR v2)
Track 20 accurately ripped (confidence 3) [35CEDE43] (AR v2)

All tracks accurately ripped

End of status report

–– CUETools DB Plugin V2.1.6

[CTDB TOCID: Qu50zX.GI.PJ3QetDtYG9hqNxrg-] found
Submit result: Qu50zX.GI.PJ3QetDtYG9hqNxrg- has been confirmed
Track | CTDB Status
1 | (8/8) Accurately ripped
2 | (8/8) Accurately ripped
3 | (8/8) Accurately ripped
4 | (8/8) Accurately ripped
5 | (8/8) Accurately ripped
6 | (8/8) Accurately ripped
7 | (8/8) Accurately ripped
8 | (8/8) Accurately ripped
9 | (8/8) Accurately ripped
10 | (8/8) Accurately ripped
11 | (8/8) Accurately ripped
12 | (8/8) Accurately ripped
13 | (8/8) Accurately ripped
14 | (8/8) Accurately ripped
15 | (8/8) Accurately ripped
16 | (8/8) Accurately ripped
17 | (8/8) Accurately ripped
18 | (8/8) Accurately ripped
19 | (8/8) Accurately ripped
20 | (7/8) Accurately ripped

foobar2000 1.2.6 / Dynamic Range Meter 1.1.1
log date: 2016-01-04 02:44:44

––––––––––––––––––––––––––––––––––––––––
Analyzed: Electric Light Orchestra / The Very Best of ELO - Volume 1 (Japan)
––––––––––––––––––––––––––––––––––––––––

DR Peak RMS Duration Track
––––––––––––––––––––––––––––––––––––––––
DR9 0.00 dB -11.81 dB 5:04 01-Mr. Blue Sky
DR10 -0.51 dB -12.63 dB 4:13 02-Evil Woman
DR8 -1.01 dB -9.53 dB 4:05 03-Don't Bring Me Down
DR10 -0.01 dB -11.67 dB 3:50 04-Sweet Talkin' Woman
DR11 -0.01 dB -12.44 dB 4:13 05-Shine a Little Love
DR10 -0.01 dB -11.37 dB 3:49 06-Turn to Stone
DR11 -0.01 dB -13.39 dB 4:18 07-The Diary of Horace Wimp
DR11 -0.01 dB -12.30 dB 3:42 08-Confusion
DR9 -0.01 dB -9.84 dB 3:08 09-Hold on Tight
DR9 -0.01 dB -11.65 dB 3:33 10-Livin' Thing
DR9 -0.51 dB -12.82 dB 4:42 11-Telephone Line
DR9 -0.01 dB -10.02 dB 4:05 12-All Over the World
DR9 -0.01 dB -11.67 dB 4:43 13-Wild West Hero
DR10 -0.01 dB -12.11 dB 4:10 14-Showdown
DR9 -0.01 dB -10.92 dB 3:39 15-Ma-Ma-Ma Belle
DR10 0.00 dB -10.42 dB 3:22 16-Xanadu (new version)
DR8 -0.01 dB -10.05 dB 3:15 17-Rockaria!
DR11 0.00 dB -14.03 dB 4:10 18-Strange Magic
DR6 -4.10 dB -10.63 dB 3:13 19-Alright
DR9 -2.51 dB -12.23 dB 3:08 20-Rock 'N' Roll Is King
––––––––––––––––––––––––––––––––––––––––

Number of tracks: 20
Official DR value: DR9

Samplerate: 44100 Hz
Channels: 2
Bits per sample: 16
Bitrate: 913 kbps
Codec: FLAC
================================================================================

[CUETools log; Date: 04.01.2016 2:43:49; Version: 2.1.5]
[CTDB TOCID: Qu50zX.GI.PJ3QetDtYG9hqNxrg-] found.
Track | CTDB Status
1 | (9/9) Accurately ripped
2 | (9/9) Accurately ripped
3 | (9/9) Accurately ripped
4 | (9/9) Accurately ripped
5 | (9/9) Accurately ripped
6 | (9/9) Accurately ripped
7 | (9/9) Accurately ripped
8 | (9/9) Accurately ripped
9 | (9/9) Accurately ripped
10 | (9/9) Accurately ripped
11 | (9/9) Accurately ripped
12 | (9/9) Accurately ripped
13 | (9/9) Accurately ripped
14 | (9/9) Accurately ripped
15 | (9/9) Accurately ripped
16 | (9/9) Accurately ripped
17 | (9/9) Accurately ripped
18 | (9/9) Accurately ripped
19 | (9/9) Accurately ripped
20 | (8/9) Accurately ripped
[AccurateRip ID: 003aa595-0354911e-38125c14] found.
Track [ CRC | V2 ] Status
01 [68902607|e436cbfb] (0+4/4) Accurately ripped
02 [4efa36be|1a743e53] (0+4/4) Accurately ripped
03 [9f57d143|4443efbd] (0+4/4) Accurately ripped
04 [928f9789|10f1aa6c] (0+4/4) Accurately ripped
05 [0b210ad2|9906ca95] (0+4/4) Accurately ripped
06 [b04f3145|03657133] (0+4/4) Accurately ripped
07 [07030075|0af241f8] (0+4/4) Accurately ripped
08 [5ffc518c|175aef2e] (0+4/4) Accurately ripped
09 [80b975b7|6497d418] (0+4/4) Accurately ripped
10 [4bb6dd95|8696f911] (0+4/4) Accurately ripped
11 [6b025f19|b25a6bf9] (0+4/4) Accurately ripped
12 [aaf0ea9a|908fe612] (0+4/4) Accurately ripped
13 [9441314b|7780f9e1] (0+4/4) Accurately ripped
14 [018f39a8|7850253f] (0+4/4) Accurately ripped
15 [c82c1ed3|61f9e76c] (0+4/4) Accurately ripped
16 [d9511efe|590f7971] (0+4/4) Accurately ripped
17 [a5e0db19|69b367c3] (0+4/4) Accurately ripped
18 [9fc9a316|b73362d5] (0+4/4) Accurately ripped
19 [08edd919|33477c78] (0+4/4) Accurately ripped
20 [7f3aed4f|35cede43] (0+3/3) Accurately ripped

Track Peak [ CRC32 ] [W/O NULL] [ LOG ]
– 100,0 [4C192D89] [5C216D50] CRC32
01 100,0 [5A46EB18] [63197F2C]
02 94,3 [F51E8EBA] [1635384D]
03 89,0 [2B401231] [C2DA227A]
04 99,9 [3125DA97] [BCEFF769]
05 99,9 [0BD50C04] [462A19F5]
06 99,9 [C08EC6B9] [FEAAEBC6]
07 99,9 [47AE784D] [224E7F87]
08 99,9 [8346CE8E] [2E43D845]
09 99,9 [DAE9C27A] [CDE26EBD]
10 99,9 [65B848FD] [83BE39C4]
11 94,3 [77DEDD5B] [5D036676]
12 99,9 [6F0099A9] [761DD7F3]
13 99,9 [7F2369B6] [883CDA26]
14 99,9 [ACC8A42D] [BD6DA1FD]
15 99,9 [42FEAD5E] [9ACB8D53]
16 100,0 [95D4A3B6] [66BB1802]
17 99,9 [4BD4E341] [D5D25C34]
18 100,0 [7172CCB1] [062C40CC]
19 62,3 [031CB25B] [889584A0]
20 74,9 [D4442313] [161AFC0C]

Electric Light Orchestra - The Very Best Of: Vol. 1 & 2 (2015) [Japan Blu-Spec CD 2, Reissue, Special Edition]

Track List CD2:

01. Twilight [03:44]
02. Do Ya [03:47]
03. Can't Get It Out of My Head [04:24]
04. Latitude 88 North [03:25]
05. It's Over [04:11]
06. Ticket to the Moon [04:10]
07. Heaven Only Knows [02:58]
08. Starlight [04:33]
09. Four Little Diamonds [04:07]
10. Secret Messages [04:44]
11. Eldorado [05:20]
12. So Serious [02:44]
13. Last Train to London [04:33]
14. In My Own Time [03:04]
15. Destination Unknown [04:12]
16. The Way Life's Meant to Be [04:41]
17. One Summer Dream [05:23]
18. Calling America [03:31]
19. Moment in Paradise [03:36]
20. Surrender [02:34]

Exact Audio Copy V1.1 from 23. June 2015

EAC extraction logfile from 30. December 2015, 12:36

Electric Light Orchestra / The Very Best of ELO - Volume 2 (Japan)

Used drive : ATAPI iHAS122 C Adapter: 1 ID: 0

Read mode : Secure
Utilize accurate stream : Yes
Defeat audio cache : Yes
Make use of C2 pointers : No

Read offset correction : 6
Overread into Lead-In and Lead-Out : No
Fill up missing offset samples with silence : Yes
Delete leading and trailing silent blocks : No
Null samples used in CRC calculations : Yes
Used interface : Native Win32 interface for Win NT & 2000

Used output format : Internal WAV Routines
Sample format : 44.100 Hz; 16 Bit; Stereo


TOC of the extracted CD

Track | Start | Length | Start sector | End sector
––––––––––––––––––––––––––––-
1 | 0:00.00 | 3:43.25 | 0 | 16749
2 | 3:43.25 | 3:46.41 | 16750 | 33740
3 | 7:29.66 | 4:23.74 | 33741 | 53539
4 | 11:53.65 | 3:24.65 | 53540 | 68904
5 | 15:18.55 | 4:10.32 | 68905 | 87686
6 | 19:29.12 | 4:09.24 | 87687 | 106385
7 | 23:38.36 | 2:57.29 | 106386 | 119689
8 | 26:35.65 | 4:32.46 | 119690 | 140135
9 | 31:08.36 | 4:06.49 | 140136 | 158634
10 | 35:15.10 | 4:43.69 | 158635 | 179928
11 | 39:59.04 | 5:19.04 | 179929 | 203857
12 | 45:18.08 | 2:43.28 | 203858 | 216110
13 | 48:01.36 | 4:32.02 | 216111 | 236512
14 | 52:33.38 | 3:03.47 | 236513 | 250284
15 | 55:37.10 | 4:11.49 | 250285 | 269158
16 | 59:48.59 | 4:40.47 | 269159 | 290205
17 | 64:29.31 | 5:22.37 | 290206 | 314392
18 | 69:51.68 | 3:30.42 | 314393 | 330184
19 | 73:22.35 | 3:35.31 | 330185 | 346340
20 | 76:57.66 | 2:33.06 | 346341 | 357821


Range status and errors

Selected range

Filename C:\Users\arthu\Desktop\Electric Light Orchestra - The Very Best of ELO - Volume 2 (Japan).wav

Peak level 99.2 %
Extraction speed 9.6 X
Range quality 100.0 %
Test CRC EB2CDAAC
Copy CRC EB2CDAAC
Copy OK

No errors occurred


AccurateRip summary

Track 1 accurately ripped (confidence 3) [12A10399] (AR v2)
Track 2 accurately ripped (confidence 3) [67BD5858] (AR v2)
Track 3 accurately ripped (confidence 3) [F133ED5A] (AR v2)
Track 4 accurately ripped (confidence 3) [1CDC5AD1] (AR v2)
Track 5 accurately ripped (confidence 3) [37061A89] (AR v2)
Track 6 accurately ripped (confidence 3) [1F249FC2] (AR v2)
Track 7 accurately ripped (confidence 3) [D1D63D55] (AR v2)
Track 8 accurately ripped (confidence 3) [9E682F84] (AR v2)
Track 9 accurately ripped (confidence 3) [5B7C500F] (AR v2)
Track 10 accurately ripped (confidence 3) [3EF0D8C6] (AR v2)
Track 11 accurately ripped (confidence 3) [6F7503CC] (AR v2)
Track 12 accurately ripped (confidence 3) [938386CA] (AR v2)
Track 13 accurately ripped (confidence 3) [89DC38C0] (AR v2)
Track 14 accurately ripped (confidence 3) [29401145] (AR v2)
Track 15 accurately ripped (confidence 3) [0B88440A] (AR v2)
Track 16 accurately ripped (confidence 3) [E3715B6A] (AR v2)
Track 17 accurately ripped (confidence 3) [56643308] (AR v2)
Track 18 accurately ripped (confidence 3) [30B3E61F] (AR v2)
Track 19 accurately ripped (confidence 3) [39BF2AF6] (AR v2)
Track 20 accurately ripped (confidence 3) [9941A1A2] (AR v2)

All tracks accurately ripped

End of status report

–– CUETools DB Plugin V2.1.6

[CTDB TOCID: h4Y.oOvKLk2lPI3kXylrLgvL1Y0-] found
Submit result: h4Y.oOvKLk2lPI3kXylrLgvL1Y0- has been confirmed
Track | CTDB Status
1 | (4/4) Accurately ripped
2 | (4/4) Accurately ripped
3 | (4/4) Accurately ripped
4 | (4/4) Accurately ripped
5 | (4/4) Accurately ripped
6 | (4/4) Accurately ripped
7 | (4/4) Accurately ripped
8 | (4/4) Accurately ripped
9 | (4/4) Accurately ripped
10 | (4/4) Accurately ripped
11 | (4/4) Accurately ripped
12 | (4/4) Accurately ripped
13 | (4/4) Accurately ripped
14 | (4/4) Accurately ripped
15 | (4/4) Accurately ripped
16 | (4/4) Accurately ripped
17 | (4/4) Accurately ripped
18 | (4/4) Accurately ripped
19 | (4/4) Accurately ripped
20 | (4/4) Accurately ripped

foobar2000 1.2.6 / Dynamic Range Meter 1.1.1
log date: 2016-01-04 02:49:55

––––––––––––––––––––––––––––––––––––––––
Analyzed: Electric Light Orchestra / The Very Best of ELO - Volume 2 (Japan)
––––––––––––––––––––––––––––––––––––––––

DR Peak RMS Duration Track
––––––––––––––––––––––––––––––––––––––––
DR8 -0.09 dB -9.25 dB 3:43 01-Twilight
DR8 -0.25 dB -10.23 dB 3:47 02-Do Ya
DR9 -0.07 dB -11.48 dB 4:24 03-Can't Get It Out of My Head
DR9 -0.07 dB -10.37 dB 3:25 04-Latitude 88 North
DR10 -0.07 dB -12.21 dB 4:10 05-It's Over
DR10 -0.07 dB -13.18 dB 4:09 06-Ticket to the Moon
DR8 -0.36 dB -9.95 dB 2:57 07-Heaven Only Knows
DR11 -0.07 dB -12.45 dB 4:33 08-Starlight
DR9 -0.78 dB -10.39 dB 4:07 09-Four Little Diamonds
DR8 -0.48 dB -10.17 dB 4:44 10-Secret Messages
DR9 -1.07 dB -12.79 dB 5:19 11-Eldorado
DR8 -0.77 dB -10.33 dB 2:43 12-So Serious
DR10 -0.57 dB -12.42 dB 4:32 13-Last Train to London
DR6 -2.13 dB -9.89 dB 3:04 14-In My Own Time
DR10 -0.48 dB -10.91 dB 4:12 15-Destination Unknown
DR9 -1.15 dB -11.89 dB 4:41 16-The Way Life's Meant to Be
DR11 -0.24 dB -13.48 dB 5:22 17-One Summer Dream
DR8 -0.79 dB -10.90 dB 3:31 18-Calling America
DR8 -0.07 dB -8.78 dB 3:35 19-Moment in Paradise
DR9 -0.07 dB -9.67 dB 2:33 20-Surrender
––––––––––––––––––––––––––––––––––––––––

Number of tracks: 20
Official DR value: DR9

Samplerate: 44100 Hz
Channels: 2
Bits per sample: 16
Bitrate: 959 kbps
Codec: FLAC
================================================================================

[CUETools log; Date: 04.01.2016 2:49:07; Version: 2.1.5]
[CTDB TOCID: h4Y.oOvKLk2lPI3kXylrLgvL1Y0-] found.
Track | CTDB Status
1 | (5/5) Accurately ripped
2 | (5/5) Accurately ripped
3 | (5/5) Accurately ripped
4 | (5/5) Accurately ripped
5 | (5/5) Accurately ripped
6 | (5/5) Accurately ripped
7 | (5/5) Accurately ripped
8 | (5/5) Accurately ripped
9 | (5/5) Accurately ripped
10 | (5/5) Accurately ripped
11 | (5/5) Accurately ripped
12 | (5/5) Accurately ripped
13 | (5/5) Accurately ripped
14 | (5/5) Accurately ripped
15 | (5/5) Accurately ripped
16 | (5/5) Accurately ripped
17 | (5/5) Accurately ripped
18 | (5/5) Accurately ripped
19 | (5/5) Accurately ripped
20 | (5/5) Accurately ripped
[AccurateRip ID: 0039aeb0-0351a983-0c12a214] found.
Track [ CRC | V2 ] Status
01 [7a194721|12a10399] (0+3/3) Accurately ripped
02 [62995c95|67bd5858] (0+3/3) Accurately ripped
03 [b52b50f1|f133ed5a] (0+3/3) Accurately ripped
04 [6ec35aba|1cdc5ad1] (0+3/3) Accurately ripped
05 [e8515114|37061a89] (0+3/3) Accurately ripped
06 [7cac77d0|1f249fc2] (0+3/3) Accurately ripped
07 [c624b5c8|d1d63d55] (0+3/3) Accurately ripped
08 [9e74969f|9e682f84] (0+3/3) Accurately ripped
09 [99b4068b|5b7c500f] (0+3/3) Accurately ripped
10 [87f2acd3|3ef0d8c6] (0+3/3) Accurately ripped
11 [a0eae0ed|6f7503cc] (0+3/3) Accurately ripped
12 [ee7f1f43|938386ca] (0+3/3) Accurately ripped
13 [86fe8485|89dc38c0] (0+3/3) Accurately ripped
14 [89fc5a05|29401145] (0+3/3) Accurately ripped
15 [176fe8c1|0b88440a] (0+3/3) Accurately ripped
16 [c3d10f74|e3715b6a] (0+3/3) Accurately ripped
17 [58453a32|56643308] (0+3/3) Accurately ripped
18 [63038315|30b3e61f] (0+3/3) Accurately ripped
19 [4cffab41|39bf2af6] (0+3/3) Accurately ripped
20 [9a3545fc|9941a1a2] (0+3/3) Accurately ripped

Track Peak [ CRC32 ] [W/O NULL] [ LOG ]
– 99,2 [EB2CDAAC] [7E8E6F01] CRC32
01 98,9 [68A1613C] [F4945D21]
02 97,1 [57943433] [38BF85C8]
03 99,1 [310C8050] [25990E41]
04 99,1 [9401BB2B] [A31788F5]
05 99,1 [F331947D] [B12F9431]
06 99,1 [779BB7D1] [CE8753D9]
07 95,9 [15E5B466] [30AD5279]
08 99,2 [28C71818] [F93AB550]
09 91,3 [BA51D208] [B1649DF8]
10 94,5 [A8D05555] [458AA6A6]
11 88,3 [A975F23F] [1B886136]
12 91,5 [AD3B5B23] [C9B0F35D]
13 93,6 [54DBC623] [5ADCF075]
14 78,2 [565D00ED] [C6ECE241]
15 94,6 [09E35CE4] [92945804]
16 87,6 [CC531EFB] [11E7CC0C]
17 97,2 [F29F10C8] [F9B4EBC6]
18 91,3 [1B491E30] [B5694E6F]
19 99,1 [1183E434] [0CEC5AB1]
20 99,2 [295B5662] [1763C226]

Electric Light Orchestra - The Very Best Of: Vol. 1 & 2 (2015) [Japan Blu-Spec CD 2, Reissue, Special Edition]

Electric Light Orchestra - The Very Best Of: Vol. 1 & 2 (2015) [Japan Blu-Spec CD 2, Reissue, Special Edition]

Electric Light Orchestra - The Very Best Of: Vol. 1 & 2 (2015) [Japan Blu-Spec CD 2, Reissue, Special Edition]


All thanks go to London

Visit my blog!

No mirrors, please!

Download: