Subcategories

Electric Light Orchestra ‎- Out Of The Blue (1986) [CDJET 400] [2CD]

Posted By: JET 1
Electric Light Orchestra ‎- Out Of The Blue (1986) [CDJET 400] [2CD]

Electric Light Orchestra ‎- Out Of The Blue (1986) [CDJET 400]
EAC Rip | FLAC (Image) +CUE, LOG | 462 MB | Scans
Genre: Progressive / Pop / Symphonic Rock | Label: Jet Records | Catalog Number: CDJET 400

Still rather wrong-headedly regarded as a ‘guilty pleasure’ (thanks Sean Rowley), Jeff Lynne’s Electric Light Orchestra were quite simply a gigantic pop hit machine. Oft-derided as a mere Beatles copyist, Lynne’s genius was to take his earliest ambition of recreating the rush felt when first hearing ‘’I Am The Walrus’’ and achieve it, again and again.

The formula was simple (and in this he was far from being alone in the early 70s) – to weld pure rock melody with classical stringed grandeur. When the idiosyncratic fellow ex-Move member Roy Wood jumped ship, Lynne began his rise to chart domination. Over the space of five years and six albums Jeff refined the sound in his head.

By 1976’s New World Record (their finest moment) he’d achieved world status and was now the master technician of the four-minute chamber pop format. By 1977 he had only one way to go – bigger and grander. But, as his sleevenotes recall, holed-up in the Swiss Alps he found inspiration slow in coming.

Finally the muse returned, in spades. So much in fact that Out Of The Blue became a double album. Increased budgets fitting the band’s status meant that the sound was now as big as it could get (for the time). Multi-layered EVERYTHING pours out of the speakers, almost drowning you in lushness. Considering how good it sounds buffed-up for digital consumption, it’s amazing that these tracks sounded so amazing on tinny old AM radio. The album yielded four enormous hits.

Of these, ‘’Sweet Talkin’ Woman’’ remains Lynne’s most perfect hit. From its George Martin-homage string intro to the massed acoustic guitars, it’s a rollercoaster of sweetness. These days, of course, everyone hails ‘’Mr Blue Sky’’ as his magnum opus, yet its wild construction shows the first sign that Jeff was trying a little too hard.

The rest of the album remains a solid, if somewhat bloated romp through concept-lite AOR. Dotted with bubbling ‘modernity’ in the shape of Richard Tandy’s synths (‘’The Whale’’) and childhood reverie (‘’Birmingham Blues’’, ‘’Wild West Hero’’), all wrapped in a suitably sci fi sleeve. ELO would never repeat its successes, and to this day Out Of The Blue remains an essential purchase for anyone wishing to bask in their pop perfection.

Exact Audio Copy V1.0 beta 3 from 29. August 2011

Отчёт EAC об извлечении, выполненном 29. октября 2014, 1:12

Electric Light Orchestra / Out Of The Blue (CD 1)

Дисковод: TSSTcorpCDDVDW SH-224DB Adapter: 1 ID: 0

Режим чтения : Достоверность
Использование точного потока : Да
Отключение кэша аудио : Да
Использование указателей C2 : Нет

Коррекция смещения при чтении : 6
Способность читать области Lead-in и Lead-out : Нет
Заполнение пропущенных сэмплов тишиной : Да
Удаление блоков с тишиной в начале и конце : Нет
При вычислениях CRC использовались нулевые сэмплы : Да
Интерфейс : Установленный внешний ASPI-интерфейс

Выходной формат : Пользовательский кодировщик
Выбранный битрейт : 128 kBit/s
Качество : Высокий
Добавление ID3-тега : Нет
Утилита сжатия : C:\Program Files (x86)\FLAC\flac.exe
Дополнительные параметры : -V -8 -T "Date=%year%" -T "Genre=%genre%" %source%


TOC извлечённого CD

Трек | Старт | Длительность | Начальный сектор | Конечный сектор
––––––––––––––––––––––––––––––––––-
1 | 0:00.00 | 3:47.27 | 0 | 17051
2 | 3:47.27 | 4:08.15 | 17052 | 35666
3 | 7:55.42 | 3:49.73 | 35667 | 52914
4 | 11:45.40 | 3:53.40 | 52915 | 70429
5 | 15:39.05 | 4:02.05 | 70430 | 88584
6 | 19:41.10 | 4:27.62 | 88585 | 108671
7 | 24:08.72 | 3:52.10 | 108672 | 126081
8 | 28:01.07 | 1:21.10 | 126082 | 132166
9 | 29:22.17 | 4:38.73 | 132167 | 153089


Характеристики диапазона извлечения и сообщения об ошибках

Выбранный диапазон

Имя файла C:\EAC\Electric Light Orchestra ‎– Out Of The Blue (1986 CDJET 400)\Electric Light Orchestra - Out Of The Blue (CD 1).wav

Пиковый уровень 92.9 %
Скорость извлечения 2.6 X
Качество диапазона 100.0 %
CRC теста 134FDE8C
CRC копии 134FDE8C
Копирование… OK

Ошибок не произошло

Конец отчёта

==== Контрольная сумма отчёта 224F36ED02DADE7B7171CCEF05B151B7F22E3530DBF47C2435595F8A80570B91 ====


Exact Audio Copy V1.0 beta 3 from 29. August 2011

Отчёт EAC об извлечении, выполненном 29. октября 2014, 8:22

Electric Light Orchestra / Out Of The Blue (CD 2)

Дисковод: TSSTcorpCDDVDW SH-224DB Adapter: 1 ID: 0

Режим чтения : Достоверность
Использование точного потока : Да
Отключение кэша аудио : Да
Использование указателей C2 : Нет

Коррекция смещения при чтении : 6
Способность читать области Lead-in и Lead-out : Нет
Заполнение пропущенных сэмплов тишиной : Да
Удаление блоков с тишиной в начале и конце : Нет
При вычислениях CRC использовались нулевые сэмплы : Да
Интерфейс : Установленный внешний ASPI-интерфейс

Выходной формат : Пользовательский кодировщик
Выбранный битрейт : 128 kBit/s
Качество : Высокий
Добавление ID3-тега : Нет
Утилита сжатия : C:\Program Files (x86)\FLAC\flac.exe
Дополнительные параметры : -V -8 -T "Date=%year%" -T "Genre=%genre%" %source%


TOC извлечённого CD

Трек | Старт | Длительность | Начальный сектор | Конечный сектор
––––––––––––––––––––––––––––––––––-
1 | 0:00.00 | 4:21.12 | 0 | 19586
2 | 4:21.12 | 5:05.35 | 19587 | 42496
3 | 9:26.47 | 4:14.30 | 42497 | 61576
4 | 13:41.02 | 5:05.70 | 61577 | 84521
5 | 18:46.72 | 3:27.65 | 84522 | 100111
6 | 22:14.62 | 5:02.30 | 100112 | 122791
7 | 27:17.17 | 4:23.15 | 122792 | 142531
8 | 31:40.32 | 4:42.45 | 142532 | 163726


Характеристики диапазона извлечения и сообщения об ошибках

Выбранный диапазон

Имя файла C:\EAC\Electric Light Orchestra ‎– Out Of The Blue (1986 CDJET 400)\Electric Light Orchestra - Out Of The Blue (CD 2).wav

Пиковый уровень 100.0 %
Скорость извлечения 2.6 X
Качество диапазона 100.0 %
CRC теста B0A09767
CRC копии B0A09767
Копирование… OK

Ошибок не произошло

Конец отчёта

==== Контрольная сумма отчёта A669501580F8F99D155CA8C12BE8A56E5E1D652C5F7ECF05BCBD7A8E6D21F271 ====


Tracklist ::
1-1 Turn To Stone 3:47
1-2 It's Over 4:08
1-3 Sweet Talkin'Woman 3:50
1-4 Across The Border 3:54
1-5 Night In The City 4:02
1-6 Starlight 4:28
1-7 Jungle 3:52
1-8 Believe Me Now 1:21
1-9 Steppin' Out 4:39

2-1 Standin' In The Rain 4:21
2-2 Big Wheels 5:05
2-3 Summer And Lightning 4:14
2-4 Mr. Blue Sky 5:06
2-5 Sweet Is The Night 3:28
2-6 The Whale 5:02
2-7 Birmingham Blues 4:23
2-8 Wild West Hero 4:43

First rare unique pressing for Europe.
2 cd's in fatbox.
The reason for the 2 disc version was probably because the first generation cd-players could not play discs longer then approximately 60 minutes.
One year later they put everything on one cd for the european market.
This became JETCD 400.
Manufactured by CBS/Sony Inc. Japan for Europe.