Subcategories

Electric Light Orchestra - Out Of The Blue: Live At Wembley (2015) [Blu-ray]

Posted By: popsakov
Electric Light Orchestra - Out Of The Blue: Live At Wembley (2015) [Blu-ray]

Electric Light Orchestra - Out Of The Blue: Live At Wembley (2015)
Blu-ray | MPEG-4 AVC, 1920x1080i (16:9), 29,970 fps, 22154 kbps | Audio #1: LPCM 2.0, 48 kHz/16-bit, 1536 Kbps
Audio #2: DTS-HD MA 5.1, 48 kHz/16-bit, 3324 kbps | 01:01:31 + 00:17:37 + 00:37:40 + 00:49:40 + 00:39:00 | ~ 45,6 Gb | Scans (PNG, 600 dpi) ~ 686 Mb | RAR 5% Recovery
Rock | Eagle Vision

Eagle Vision's SD Blu-ray range presents upscaled standard definition original material with uncompressed stereo and DTS-HD Master Audio surround sound for the best possible quality. The Electric Light Orchestra are one of the most successful British bands of all time. Formed after the break-up of The Move in 1970, they pioneered the integration of orchestral instruments into pop music and released a series of groundbreaking and increasingly successful albums through the seventies that culminated in the multi-million selling Out Of The Blue . The main concert on this SD Blu-ray release is from the world tour for that album featuring their legendary spaceship stage design and was filmed at London s Wembley Arena in 1978. This show is combined with a wealth of bonus material to give an overview of E.L.O. performances right through the seventies.

***************


Track List:

01. Introduction
02. Standing In The Rain
03. Night In The City
04. Turn To Stone
05. Tightrope
06. Telephone Line
07. Rockaria!
08. Wild West Hero
09. Showdown
10. Sweet Talkin Woman
11. Mr Blue Sky
12. Do Ya
13. Livin Thing
14. Roll Over Beethoven

Bonus:

• Live At Brunel University 1973
01. King Of The Universe
02. Ma-Ma-Ma Belle
03. In The Hall Of The Mountain King
04. Great Balls Of Fire

• Live On Rockpalast 1974
01. Daybreaker
02. Showdown
03. Day Tripper
04. Orange Blossom Special
05. Ma-Ma-Ma Belle
06. In The Hall Of The Mountain King
07. Great Balls Of Fire
08. Roll Over Beethoven

• Rockpalast Interview 1974

• Fusion 1976
01. Poker
02. Nightrider
03. Showdown
04. Eldorado Overture
05. Can t Get It Out Of My Head
06. Poor Boy (The Greenwood)
07. Illusions In G Major
08. Strange Magic
09. 10538 Overture
10. Do Ya
11. Evil Woman
12. Ma-Ma-Ma Belle
13. Roll Over Beethoven

• Discovery 1979
01. Shine A Little Love
02. Confusion
03. Need Her Love
04. Diary Of Horace Wimp
05. Last Train To London
06. Midnight Blue
07. Wishing
08. Don t Bring Me Down

Disc Title: Electric Light Orchestra - Out Of The Blue - Live At Wembley (2015)
Disc Size: 46 649 130 101 bytes
Protection: AACS
BD-Java: No
BDInfo: 0.5.8

Notes:

BDINFO HOME:
Cinema Squid
http://www.cinemasquid.com/blu-ray/tools/bdinfo

INCLUDES FORUMS REPORT FOR:
AVS Forum Blu-ray Audio and Video Specifications Thread
http://www.avsforum.com/avs-vb/showthread.php?t=1155731


********************
PLAYLIST: 00000.MPLS
********************

<–- BEGIN FORUMS PASTE –->
                                                                                                                Total   Video                                             
Title                                                           Codec   Length  Movie Size      Disc Size       Bitrate Bitrate Main Audio Track                          Secondary Audio Track
-----                                                           ------  ------- --------------  --------------  ------- ------- ------------------                        ---------------------
00000.MPLS                                                      AVC     1:01:31 13 273 939 968  46 649 130 101  28,77   22,15   LPCM 2.0 1536Kbps (48kHz/16-bit)          DTS-HD Master 5.1 3324Kbps (48kHz/16-bit)


DISC INFO:

Disc Title:     Electric Light Orchestra - Out Of The Blue - Live At Wembley (2015)
Disc Size:      46 649 130 101 bytes
Protection:     AACS
BD-Java:        No
BDInfo:         0.5.8

PLAYLIST REPORT:

Name:                   00000.MPLS
Length:                 1:01:31.054 (h:m:s.ms)
Size:                   13 273 939 968 bytes
Total Bitrate:          28,77 Mbps

VIDEO:

Codec                   Bitrate             Description     
-----                   -------             -----------     
MPEG-4 AVC Video        22154 kbps          1080i / 29,970 fps / 16:9 / High Profile 4.1

AUDIO:

Codec                           Language        Bitrate         Description     
-----                           --------        -------         -----------     
LPCM Audio                      English         1536 kbps       2.0 / 48 kHz / 1536 kbps / 16-bit
DTS-HD Master Audio             English         3324 kbps       5.1 / 48 kHz / 3324 kbps / 16-bit (DTS Core: 5.1 / 48 kHz / 1509 kbps / 16-bit)

FILES:

Name            Time In         Length          Size            Total Bitrate   
----            -------         ------          ----            -------------   
00001.M2TS      0:00:00.000     1:01:31.054     13 273 939 968  28 770          

CHAPTERS:

Number          Time In         Length          Avg Video Rate  Max 1-Sec Rate  Max 1-Sec Time  Max 5-Sec Rate  Max 5-Sec Time  Max 10Sec Rate  Max 10Sec Time  Avg Frame Size  Max Frame Size  Max Frame Time  
------          -------         ------          --------------  --------------  --------------  --------------  --------------  --------------  --------------  --------------  --------------  --------------  
1               0:00:00.000     0:04:08.314     17 382 kbps     35 704 kbps     00:00:05.438    33 682 kbps     00:00:13.580    33 482 kbps     00:00:12.445    72 489 bytes    251 648 bytes   00:00:43.543    
2               0:04:08.314     0:03:39.419     21 302 kbps     35 585 kbps     00:07:00.019    30 420 kbps     00:06:59.318    29 980 kbps     00:06:59.051    88 846 bytes    228 936 bytes   00:05:43.309    
3               0:07:47.733     0:03:55.034     21 318 kbps     36 446 kbps     00:10:47.480    33 287 kbps     00:08:07.420    30 737 kbps     00:09:55.628    88 913 bytes    244 401 bytes   00:09:47.320    
4               0:11:42.768     0:03:41.454     22 339 kbps     35 358 kbps     00:14:33.539    29 207 kbps     00:11:57.950    27 831 kbps     00:14:18.090    93 172 bytes    229 858 bytes   00:14:15.721    
5               0:15:24.223     0:04:43.850     23 183 kbps     35 927 kbps     00:19:41.480    33 082 kbps     00:19:39.845    30 318 kbps     00:17:39.591    96 692 bytes    242 767 bytes   00:17:44.730    
6               0:20:08.073     0:04:20.126     18 258 kbps     31 160 kbps     00:20:32.397    22 910 kbps     00:23:43.455    22 368 kbps     00:23:39.084    76 149 bytes    199 983 bytes   00:20:32.898    
7               0:24:28.200     0:02:53.506     21 854 kbps     38 779 kbps     00:25:52.050    32 795 kbps     00:27:11.596    31 503 kbps     00:27:07.192    91 148 bytes    253 066 bytes   00:26:56.247    
8               0:27:21.706     0:03:07.554     23 653 kbps     36 229 kbps     00:28:51.529    35 133 kbps     00:28:49.928    33 094 kbps     00:28:48.793    98 655 bytes    233 194 bytes   00:28:50.762    
9               0:30:29.260     0:04:11.217     23 943 kbps     37 184 kbps     00:30:35.466    35 959 kbps     00:30:34.032    34 274 kbps     00:30:32.130    99 864 bytes    278 905 bytes   00:30:35.667    
10              0:34:40.478     0:03:50.163     24 323 kbps     37 506 kbps     00:37:53.638    34 082 kbps     00:37:51.902    31 177 kbps     00:37:46.897    101 445 bytes   263 302 bytes   00:38:20.131    
11              0:38:30.641     0:03:41.721     22 183 kbps     33 953 kbps     00:40:31.295    32 630 kbps     00:40:31.295    31 916 kbps     00:40:28.025    92 521 bytes    234 301 bytes   00:40:33.864    
12              0:42:12.363     0:04:41.314     23 257 kbps     38 776 kbps     00:42:21.472    31 549 kbps     00:44:53.624    28 100 kbps     00:44:48.619    97 001 bytes    236 947 bytes   00:42:59.610    
13              0:46:53.677     0:04:01.908     23 086 kbps     38 190 kbps     00:48:09.686    33 741 kbps     00:50:37.000    31 578 kbps     00:50:32.062    96 288 bytes    226 776 bytes   00:50:41.104    
14              0:50:55.585     0:10:35.468     22 989 kbps     41 324 kbps     00:55:24.854    36 735 kbps     00:56:08.298    34 164 kbps     00:56:03.960    95 890 bytes    258 914 bytes   00:55:53.817    

STREAM DIAGNOSTICS:

File            PID             Type            Codec           Language                Seconds                 Bitrate                 Bytes           Packets         
----            ---             ----            -----           --------                --------------          --------------          -------------   -----           
00001.M2TS      4113 (0x1011)   0x1B            AVC                                     3690,987                22 155                  10 221 666 454  55 672 228      
00001.M2TS      4352 (0x1100)   0x80            LPCM            eng (English)           3690,987                1 542                   711 635 404     4 429 266       
00001.M2TS      4353 (0x1101)   0x86            DTS-HD MA       eng (English)           3690,987                3 324                   1 533 574 796   8 909 920       

<–– END FORUMS PASTE ––>

QUICK SUMMARY:

Disc Title: Electric Light Orchestra - Out Of The Blue - Live At Wembley (2015)
Disc Size: 46 649 130 101 bytes
Protection: AACS
BD-Java: No
Playlist: 00000.MPLS
Size: 13 273 939 968 bytes
Length: 1:01:31.054
Total Bitrate: 28,77 Mbps
Video: MPEG-4 AVC Video / 22154 kbps / 1080i / 29,970 fps / 16:9 / High Profile 4.1
Audio: English / LPCM Audio / 2.0 / 48 kHz / 1536 kbps / 16-bit
Audio: English / DTS-HD Master Audio / 5.1 / 48 kHz / 3324 kbps / 16-bit (DTS Core: 5.1 / 48 kHz / 1509 kbps / 16-bit)


********************
PLAYLIST: 00007.MPLS
********************

<–- BEGIN FORUMS PASTE –->
                                                                                                                Total   Video                                             
Title                                                           Codec   Length  Movie Size      Disc Size       Bitrate Bitrate Main Audio Track                          Secondary Audio Track
-----                                                           ------  ------- --------------  --------------  ------- ------- ------------------                        ---------------------
00007.MPLS                                                      AVC     0:49:40 11 592 695 808  46 649 130 101  31,12   25,00   LPCM 2.0 1536Kbps (48kHz/16-bit)          DTS-HD Master 5.1 2751Kbps (48kHz/16-bit)


DISC INFO:

Disc Title:     Electric Light Orchestra - Out Of The Blue - Live At Wembley (2015)
Disc Size:      46 649 130 101 bytes
Protection:     AACS
BD-Java:        No
BDInfo:         0.5.8

PLAYLIST REPORT:

Name:                   00007.MPLS
Length:                 0:49:40.010 (h:m:s.ms)
Size:                   11 592 695 808 bytes
Total Bitrate:          31,12 Mbps

VIDEO:

Codec                   Bitrate             Description     
-----                   -------             -----------     
MPEG-4 AVC Video        25001 kbps          1080i / 29,970 fps / 16:9 / High Profile 4.1

AUDIO:

Codec                           Language        Bitrate         Description     
-----                           --------        -------         -----------     
LPCM Audio                      English         1536 kbps       2.0 / 48 kHz / 1536 kbps / 16-bit
DTS-HD Master Audio             English         2751 kbps       5.1 / 48 kHz / 2751 kbps / 16-bit (DTS Core: 5.1 / 48 kHz / 1509 kbps / 16-bit)

FILES:

Name            Time In         Length          Size            Total Bitrate   
----            -------         ------          ----            -------------   
00008.M2TS      0:00:00.000     0:49:40.010     11 592 695 808  31 121          

CHAPTERS:

Number          Time In         Length          Avg Video Rate  Max 1-Sec Rate  Max 1-Sec Time  Max 5-Sec Rate  Max 5-Sec Time  Max 10Sec Rate  Max 10Sec Time  Avg Frame Size  Max Frame Size  Max Frame Time  
------          -------         ------          --------------  --------------  --------------  --------------  --------------  --------------  --------------  --------------  --------------  --------------  
1               0:00:00.000     0:03:40.153     25 160 kbps     36 147 kbps     00:02:14.300    31 631 kbps     00:03:30.343    28 997 kbps     00:02:10.196    104 923 bytes   311 148 bytes   00:00:26.893    
2               0:03:40.153     0:04:26.599     23 438 kbps     32 625 kbps     00:07:10.563    29 210 kbps     00:07:24.977    27 496 kbps     00:07:22.375    97 758 bytes    285 382 bytes   00:04:57.830    
3               0:08:06.752     0:04:57.063     24 060 kbps     33 182 kbps     00:11:54.647    29 908 kbps     00:08:28.875    27 878 kbps     00:11:53.679    100 352 bytes   296 826 bytes   00:09:08.281    
4               0:13:03.816     0:01:01.161     23 925 kbps     36 489 kbps     00:14:02.708    30 707 kbps     00:13:59.972    28 811 kbps     00:13:35.848    99 788 bytes    296 094 bytes   00:14:04.977    
5               0:14:04.977     0:03:55.034     22 500 kbps     34 143 kbps     00:16:29.755    30 448 kbps     00:14:05.611    28 081 kbps     00:16:22.614    93 842 bytes    284 426 bytes   00:14:11.383    
6               0:18:00.012     0:02:40.026     25 475 kbps     33 367 kbps     00:20:33.632    29 248 kbps     00:19:19.658    27 702 kbps     00:20:01.233    106 253 bytes   285 245 bytes   00:19:59.731    
7               0:20:40.038     0:03:02.081     25 382 kbps     36 192 kbps     00:21:42.334    33 729 kbps     00:21:42.267    31 242 kbps     00:22:20.172    105 864 bytes   313 124 bytes   00:20:46.979    
8               0:23:42.120     0:03:47.860     21 760 kbps     31 822 kbps     00:26:30.155    27 894 kbps     00:26:26.952    26 939 kbps     00:26:43.735    90 756 bytes    288 738 bytes   00:26:28.720    
9               0:27:29.981     0:02:54.173     24 750 kbps     34 059 kbps     00:29:45.550    30 625 kbps     00:27:51.836    29 136 kbps     00:27:50.035    103 227 bytes   292 800 bytes   00:27:56.808    
10              0:30:24.155     0:02:06.159     27 476 kbps     38 682 kbps     00:31:26.117    34 515 kbps     00:31:22.480    31 790 kbps     00:31:17.108    114 596 bytes   296 373 bytes   00:31:30.288    
11              0:32:30.315     0:04:16.222     25 274 kbps     35 186 kbps     00:32:49.100    31 046 kbps     00:33:24.869    29 013 kbps     00:33:20.331    105 413 bytes   306 157 bytes   00:32:56.874    
12              0:36:46.537     0:04:52.425     27 560 kbps     38 107 kbps     00:41:34.825    33 995 kbps     00:41:31.322    31 047 kbps     00:41:26.650    114 947 bytes   309 809 bytes   00:37:09.460    
13              0:41:38.963     0:08:01.047     26 711 kbps     43 415 kbps     00:43:27.438    35 994 kbps     00:44:55.626    34 565 kbps     00:46:59.683    111 414 bytes   317 118 bytes   00:43:03.581    

STREAM DIAGNOSTICS:

File            PID             Type            Codec           Language                Seconds                 Bitrate                 Bytes           Packets         
----            ---             ----            -----           --------                --------------          --------------          -------------   -----           
00008.M2TS      4113 (0x1011)   0x1B            AVC                                     2979,944                25 002                  9 313 034 897   50 666 565      
00008.M2TS      4352 (0x1100)   0x80            LPCM            eng (English)           2979,944                1 542                   574 546 892     3 576 018       
00008.M2TS      4353 (0x1101)   0x86            DTS-HD MA       eng (English)           2979,944                2 751                   1 024 718 048   6 036 165       

<–– END FORUMS PASTE ––>

QUICK SUMMARY:

Disc Title: Electric Light Orchestra - Out Of The Blue - Live At Wembley (2015)
Disc Size: 46 649 130 101 bytes
Protection: AACS
BD-Java: No
Playlist: 00007.MPLS
Size: 11 592 695 808 bytes
Length: 0:49:40.010
Total Bitrate: 31,12 Mbps
Video: MPEG-4 AVC Video / 25001 kbps / 1080i / 29,970 fps / 16:9 / High Profile 4.1
Audio: English / LPCM Audio / 2.0 / 48 kHz / 1536 kbps / 16-bit
Audio: English / DTS-HD Master Audio / 5.1 / 48 kHz / 2751 kbps / 16-bit (DTS Core: 5.1 / 48 kHz / 1509 kbps / 16-bit)


********************
PLAYLIST: 00008.MPLS
********************

<–- BEGIN FORUMS PASTE –->
                                                                                                                Total   Video                                             
Title                                                           Codec   Length  Movie Size      Disc Size       Bitrate Bitrate Main Audio Track                          Secondary Audio Track
-----                                                           ------  ------- --------------  --------------  ------- ------- ------------------                        ---------------------
00008.MPLS                                                      AVC     0:38:52 8 185 705 728   46 649 130 101  28,08   25,07   LPCM 2.0 1536Kbps (48kHz/16-bit)          


DISC INFO:

Disc Title:     Electric Light Orchestra - Out Of The Blue - Live At Wembley (2015)
Disc Size:      46 649 130 101 bytes
Protection:     AACS
BD-Java:        No
BDInfo:         0.5.8

PLAYLIST REPORT:

Name:                   00008.MPLS
Length:                 0:38:52.163 (h:m:s.ms)
Size:                   8 185 705 728 bytes
Total Bitrate:          28,08 Mbps

VIDEO:

Codec                   Bitrate             Description     
-----                   -------             -----------     
MPEG-4 AVC Video        25068 kbps          1080i / 29,970 fps / 16:9 / High Profile 4.1

AUDIO:

Codec                           Language        Bitrate         Description     
-----                           --------        -------         -----------     
LPCM Audio                      English         1536 kbps       2.0 / 48 kHz / 1536 kbps / 16-bit

FILES:

Name            Time In         Length          Size            Total Bitrate   
----            -------         ------          ----            -------------   
00010.M2TS      0:00:00.000     0:38:52.163     8 185 705 728   28 079          

CHAPTERS:

Number          Time In         Length          Avg Video Rate  Max 1-Sec Rate  Max 1-Sec Time  Max 5-Sec Rate  Max 5-Sec Time  Max 10Sec Rate  Max 10Sec Time  Avg Frame Size  Max Frame Size  Max Frame Time  
------          -------         ------          --------------  --------------  --------------  --------------  --------------  --------------  --------------  --------------  --------------  --------------  
1               0:00:00.000     0:04:45.985     25 770 kbps     41 959 kbps     00:01:52.045    35 566 kbps     00:03:23.636    34 295 kbps     00:03:46.893    107 470 bytes   328 045 bytes   00:03:47.594    
2               0:04:45.985     0:03:31.477     30 605 kbps     38 095 kbps     00:07:54.440    36 362 kbps     00:07:36.456    35 496 kbps     00:05:55.421    127 648 bytes   326 408 bytes   00:05:55.788    
3               0:08:17.463     0:05:06.906     22 568 kbps     32 582 kbps     00:11:16.809    30 182 kbps     00:11:12.805    29 397 kbps     00:11:07.933    94 127 bytes    257 977 bytes   00:11:14.440    
4               0:13:24.370     0:04:15.355     29 500 kbps     41 483 kbps     00:16:34.793    37 176 kbps     00:16:33.058    35 218 kbps     00:16:33.092    123 040 bytes   306 566 bytes   00:16:35.661    
5               0:17:39.725     0:04:27.467     29 014 kbps     39 303 kbps     00:21:29.388    35 825 kbps     00:19:11.783    34 537 kbps     00:19:54.993    121 014 bytes   302 628 bytes   00:21:59.184    
6               0:22:07.192     0:04:17.757     22 519 kbps     30 348 kbps     00:23:26.271    27 657 kbps     00:23:23.969    27 210 kbps     00:23:25.303    93 923 bytes    266 808 bytes   00:25:07.372    
7               0:26:24.950     0:03:57.303     23 138 kbps     37 762 kbps     00:28:41.352    29 636 kbps     00:28:38.616    28 356 kbps     00:27:11.630    96 504 bytes    295 906 bytes   00:26:34.092    
8               0:30:22.253     0:08:29.909     21 779 kbps     35 539 kbps     00:34:46.584    31 912 kbps     00:37:01.953    29 016 kbps     00:33:13.024    90 844 bytes    348 359 bytes   00:38:20.564    

STREAM DIAGNOSTICS:

File            PID             Type            Codec           Language                Seconds                 Bitrate                 Bytes           Packets         
----            ---             ----            -----           --------                --------------          --------------          -------------   -----           
00010.M2TS      4113 (0x1011)   0x1B            AVC                                     2340,071                24 993                  7 310 535 192   39 772 089      
00010.M2TS      4352 (0x1100)   0x80            LPCM            eng (English)           2340,071                1 542                   451 185 740     2 808 210       

<–– END FORUMS PASTE ––>

QUICK SUMMARY:

Disc Title: Electric Light Orchestra - Out Of The Blue - Live At Wembley (2015)
Disc Size: 46 649 130 101 bytes
Protection: AACS
BD-Java: No
Playlist: 00008.MPLS
Size: 8 185 705 728 bytes
Length: 0:38:52.163
Total Bitrate: 28,08 Mbps
Video: MPEG-4 AVC Video / 25068 kbps / 1080i / 29,970 fps / 16:9 / High Profile 4.1
Audio: English / LPCM Audio / 2.0 / 48 kHz / 1536 kbps / 16-bit


********************
PLAYLIST: 00006.MPLS
********************

<–- BEGIN FORUMS PASTE –->
                                                                                                                Total   Video                                             
Title                                                           Codec   Length  Movie Size      Disc Size       Bitrate Bitrate Main Audio Track                          Secondary Audio Track
-----                                                           ------  ------- --------------  --------------  ------- ------- ------------------                        ---------------------
00006.MPLS                                                      AVC     0:37:40 8 794 484 736   46 649 130 101  31,13   24,99   LPCM 2.0 1536Kbps (48kHz/16-bit)          DTS-HD Master 5.1 2768Kbps (48kHz/16-bit)


DISC INFO:

Disc Title:     Electric Light Orchestra - Out Of The Blue - Live At Wembley (2015)
Disc Size:      46 649 130 101 bytes
Protection:     AACS
BD-Java:        No
BDInfo:         0.5.8

PLAYLIST REPORT:

Name:                   00006.MPLS
Length:                 0:37:40.024 (h:m:s.ms)
Size:                   8 794 484 736 bytes
Total Bitrate:          31,13 Mbps

VIDEO:

Codec                   Bitrate             Description     
-----                   -------             -----------     
MPEG-4 AVC Video        24994 kbps          1080i / 29,970 fps / 16:9 / High Profile 4.1

AUDIO:

Codec                           Language        Bitrate         Description     
-----                           --------        -------         -----------     
LPCM Audio                      English         1536 kbps       2.0 / 48 kHz / 1536 kbps / 16-bit
DTS-HD Master Audio             English         2768 kbps       5.1 / 48 kHz / 2768 kbps / 16-bit (DTS Core: 5.1 / 48 kHz / 1509 kbps / 16-bit)

FILES:

Name            Time In         Length          Size            Total Bitrate   
----            -------         ------          ----            -------------   
00002.M2TS      0:00:00.000     0:37:40.024     8 794 484 736   31 131          

CHAPTERS:

Number          Time In         Length          Avg Video Rate  Max 1-Sec Rate  Max 1-Sec Time  Max 5-Sec Rate  Max 5-Sec Time  Max 10Sec Rate  Max 10Sec Time  Avg Frame Size  Max Frame Size  Max Frame Time  
------          -------         ------          --------------  --------------  --------------  --------------  --------------  --------------  --------------  --------------  --------------  --------------  
1               0:00:00.000     0:04:36.542     22 893 kbps     31 784 kbps     00:00:45.478    29 559 kbps     00:00:50.283    29 379 kbps     00:00:45.278    95 470 bytes    285 495 bytes   00:00:50.450    
2               0:04:36.542     0:04:38.444     23 585 kbps     33 093 kbps     00:05:46.145    31 520 kbps     00:08:01.747    30 753 kbps     00:08:01.547    98 368 bytes    292 115 bytes   00:08:14.727    
3               0:09:14.987     0:06:24.984     24 977 kbps     33 602 kbps     00:12:23.909    32 286 kbps     00:12:20.739    31 454 kbps     00:12:15.734    104 177 bytes   298 612 bytes   00:12:27.313    
4               0:15:39.972     0:03:26.739     25 508 kbps     33 038 kbps     00:18:50.996    29 089 kbps     00:18:23.769    28 850 kbps     00:18:18.797    106 390 bytes   278 972 bytes   00:18:55.501    
5               0:19:06.712     0:04:57.096     25 728 kbps     33 170 kbps     00:21:14.673    30 576 kbps     00:20:32.864    29 911 kbps     00:20:30.896    107 307 bytes   291 319 bytes   00:19:48.854    
6               0:24:03.809     0:04:46.919     26 114 kbps     35 794 kbps     00:28:20.231    32 579 kbps     00:28:40.118    31 204 kbps     00:28:40.118    108 917 bytes   298 046 bytes   00:28:31.509    
7               0:28:50.729     0:02:57.677     27 492 kbps     37 890 kbps     00:31:13.838    36 442 kbps     00:31:11.402    33 811 kbps     00:31:08.900    114 664 bytes   295 110 bytes   00:31:47.605    
8               0:31:48.406     0:05:51.617     24 685 kbps     37 667 kbps     00:36:37.828    34 215 kbps     00:36:33.824    33 182 kbps     00:36:30.421    102 968 bytes   295 509 bytes   00:36:33.190    

STREAM DIAGNOSTICS:

File            PID             Type            Codec           Language                Seconds                 Bitrate                 Bytes           Packets         
----            ---             ----            -----           --------                --------------          --------------          -------------   -----           
00002.M2TS      4113 (0x1011)   0x1B            AVC                                     2259,958                24 995                  7 061 013 034   38 414 585      
00002.M2TS      4352 (0x1100)   0x80            LPCM            eng (English)           2259,958                1 542                   435 732 820     2 712 030       
00002.M2TS      4353 (0x1101)   0x86            DTS-HD MA       eng (English)           2259,958                2 768                   782 012 220     4 602 254       

<–– END FORUMS PASTE ––>

QUICK SUMMARY:

Disc Title: Electric Light Orchestra - Out Of The Blue - Live At Wembley (2015)
Disc Size: 46 649 130 101 bytes
Protection: AACS
BD-Java: No
Playlist: 00006.MPLS
Size: 8 794 484 736 bytes
Length: 0:37:40.024
Total Bitrate: 31,13 Mbps
Video: MPEG-4 AVC Video / 24994 kbps / 1080i / 29,970 fps / 16:9 / High Profile 4.1
Audio: English / LPCM Audio / 2.0 / 48 kHz / 1536 kbps / 16-bit
Audio: English / DTS-HD Master Audio / 5.1 / 48 kHz / 2768 kbps / 16-bit (DTS Core: 5.1 / 48 kHz / 1509 kbps / 16-bit)


********************
PLAYLIST: 00005.MPLS
********************

<–- BEGIN FORUMS PASTE –->
                                                                                                                Total   Video                                             
Title                                                           Codec   Length  Movie Size      Disc Size       Bitrate Bitrate Main Audio Track                          Secondary Audio Track
-----                                                           ------  ------- --------------  --------------  ------- ------- ------------------                        ---------------------
00005.MPLS                                                      AVC     0:17:37 4 113 211 392   46 649 130 101  31,13   25,00   LPCM 2.0 1536Kbps (48kHz/16-bit)          DTS-HD Master 5.1 2758Kbps (48kHz/16-bit)


DISC INFO:

Disc Title:     Electric Light Orchestra - Out Of The Blue - Live At Wembley (2015)
Disc Size:      46 649 130 101 bytes
Protection:     AACS
BD-Java:        No
BDInfo:         0.5.8

PLAYLIST REPORT:

Name:                   00005.MPLS
Length:                 0:17:37.022 (h:m:s.ms)
Size:                   4 113 211 392 bytes
Total Bitrate:          31,13 Mbps

VIDEO:

Codec                   Bitrate             Description     
-----                   -------             -----------     
MPEG-4 AVC Video        25003 kbps          1080i / 29,970 fps / 16:9 / High Profile 4.1

AUDIO:

Codec                           Language        Bitrate         Description     
-----                           --------        -------         -----------     
LPCM Audio                      English         1536 kbps       2.0 / 48 kHz / 1536 kbps / 16-bit
DTS-HD Master Audio             English         2758 kbps       5.1 / 48 kHz / 2758 kbps / 16-bit (DTS Core: 5.1 / 48 kHz / 1509 kbps / 16-bit)

FILES:

Name            Time In         Length          Size            Total Bitrate   
----            -------         ------          ----            -------------   
00009.M2TS      0:00:00.000     0:17:37.022     4 113 211 392   31 131          

CHAPTERS:

Number          Time In         Length          Avg Video Rate  Max 1-Sec Rate  Max 1-Sec Time  Max 5-Sec Rate  Max 5-Sec Time  Max 10Sec Rate  Max 10Sec Time  Avg Frame Size  Max Frame Size  Max Frame Time  
------          -------         ------          --------------  --------------  --------------  --------------  --------------  --------------  --------------  --------------  --------------  --------------  
1               0:00:00.000     0:04:30.870     25 038 kbps     37 661 kbps     00:01:46.806    35 700 kbps     00:01:43.269    35 142 kbps     00:01:43.069    104 415 bytes   362 787 bytes   00:01:51.778    
2               0:04:30.870     0:04:51.658     24 694 kbps     36 284 kbps     00:09:00.540    32 981 kbps     00:08:58.704    30 263 kbps     00:05:37.503    102 994 bytes   352 558 bytes   00:05:38.371    
3               0:09:22.528     0:04:58.564     23 701 kbps     36 045 kbps     00:13:52.965    31 576 kbps     00:13:50.196    29 861 kbps     00:13:44.423    98 853 bytes    338 867 bytes   00:11:23.382    
4               0:14:21.093     0:03:15.929     27 401 kbps     39 424 kbps     00:15:27.726    35 663 kbps     00:15:25.257    33 846 kbps     00:15:23.589    114 303 bytes   341 731 bytes   00:14:54.827    

STREAM DIAGNOSTICS:

File            PID             Type            Codec           Language                Seconds                 Bitrate                 Bytes           Packets         
----            ---             ----            -----           --------                --------------          --------------          -------------   -----           
00009.M2TS      4113 (0x1011)   0x1B            AVC                                     1056,956                25 005                  3 303 625 132   17 973 049      
00009.M2TS      4352 (0x1100)   0x80            LPCM            eng (English)           1056,956                1 543                   203 794 420     1 268 430       
00009.M2TS      4353 (0x1101)   0x86            DTS-HD MA       eng (English)           1056,956                2 758                   364 432 504     2 146 053       

<–– END FORUMS PASTE ––>

QUICK SUMMARY:

Disc Title: Electric Light Orchestra - Out Of The Blue - Live At Wembley (2015)
Disc Size: 46 649 130 101 bytes
Protection: AACS
BD-Java: No
Playlist: 00005.MPLS
Size: 4 113 211 392 bytes
Length: 0:17:37.022
Total Bitrate: 31,13 Mbps
Video: MPEG-4 AVC Video / 25003 kbps / 1080i / 29,970 fps / 16:9 / High Profile 4.1
Audio: English / LPCM Audio / 2.0 / 48 kHz / 1536 kbps / 16-bit
Audio: English / DTS-HD Master Audio / 5.1 / 48 kHz / 2758 kbps / 16-bit (DTS Core: 5.1 / 48 kHz / 1509 kbps / 16-bit)


********************
PLAYLIST: 00002.MPLS
********************

<–- BEGIN FORUMS PASTE –->
                                                                                                                Total   Video                                             
Title                                                           Codec   Length  Movie Size      Disc Size       Bitrate Bitrate Main Audio Track                          Secondary Audio Track
-----                                                           ------  ------- --------------  --------------  ------- ------- ------------------                        ---------------------
00002.MPLS                                                      MPEG-2  0:05:02 410 554 368     46 649 130 101  10,88   8,48    LPCM 2.0 1536Kbps (48kHz/16-bit)          


DISC INFO:

Disc Title:     Electric Light Orchestra - Out Of The Blue - Live At Wembley (2015)
Disc Size:      46 649 130 101 bytes
Protection:     AACS
BD-Java:        No
BDInfo:         0.5.8

PLAYLIST REPORT:

Name:                   00002.MPLS
Length:                 0:05:02.001 (h:m:s.ms)
Size:                   410 554 368 bytes
Total Bitrate:          10,88 Mbps

VIDEO:

Codec                   Bitrate             Description     
-----                   -------             -----------     
MPEG-2 Video            8479 kbps           480i / 29,970 fps / 16:9

AUDIO:

Codec                           Language        Bitrate         Description     
-----                           --------        -------         -----------     
LPCM Audio                      English         1536 kbps       2.0 / 48 kHz / 1536 kbps / 16-bit

SUBTITLES:

Codec                           Language        Bitrate         Description     
-----                           --------        -------         -----------     
Presentation Graphics           English         23,009 kbps                     
Presentation Graphics           German          22,690 kbps                     
Presentation Graphics           Spanish         21,354 kbps                     
Presentation Graphics           French          21,218 kbps                     

FILES:

Name            Time In         Length          Size            Total Bitrate   
----            -------         ------          ----            -------------   
00011.M2TS      0:00:00.000     0:05:02.001     410 554 368     10 876          

CHAPTERS:

Number          Time In         Length          Avg Video Rate  Max 1-Sec Rate  Max 1-Sec Time  Max 5-Sec Rate  Max 5-Sec Time  Max 10Sec Rate  Max 10Sec Time  Avg Frame Size  Max Frame Size  Max Frame Time  
------          -------         ------          --------------  --------------  --------------  --------------  --------------  --------------  --------------  --------------  --------------  --------------  
1               0:00:00.000     0:05:02.001     8 479 kbps      9 544 kbps      00:00:04.871    9 075 kbps      00:00:04.938    8 962 kbps      00:00:18.852    35 367 bytes    95 944 bytes    00:00:55.255    

STREAM DIAGNOSTICS:

File            PID             Type            Codec           Language                Seconds                 Bitrate                 Bytes           Packets         
----            ---             ----            -----           --------                --------------          --------------          -------------   -----           
00011.M2TS      4113 (0x1011)   0x02            MPEG-2                                  301,935                 8 481                   320 102 708     1 744 997       
00011.M2TS      4352 (0x1100)   0x80            LPCM            eng (English)           301,935                 1 543                   58 226 564      362 406         
00011.M2TS      4608 (0x1200)   0x90            PGS             eng (English)           301,935                 23                      868 589         5 387           
00011.M2TS      4609 (0x1201)   0x90            PGS             deu (German)            301,935                 23                      856 563         5 318           
00011.M2TS      4610 (0x1202)   0x90            PGS             spa (Spanish)           301,935                 21                      806 113         5 050           
00011.M2TS      4611 (0x1203)   0x90            PGS             fra (French)            301,935                 21                      800 981         5 018           

<–– END FORUMS PASTE ––>

QUICK SUMMARY:

Disc Title: Electric Light Orchestra - Out Of The Blue - Live At Wembley (2015)
Disc Size: 46 649 130 101 bytes
Protection: AACS
BD-Java: No
Playlist: 00002.MPLS
Size: 410 554 368 bytes
Length: 0:05:02.001
Total Bitrate: 10,88 Mbps
Video: MPEG-2 Video / 8479 kbps / 480i / 29,970 fps / 16:9
Audio: English / LPCM Audio / 2.0 / 48 kHz / 1536 kbps / 16-bit
Subtitle: English / 23,009 kbps
Subtitle: German / 22,690 kbps
Subtitle: Spanish / 21,354 kbps
Subtitle: French / 21,218 kbps


********************
PLAYLIST: 00004.MPLS
********************

<–- BEGIN FORUMS PASTE –->
                                                                                                           			  		 	 	  		 	    	 			   			     		      	 			   		  	   		      			     	 			   		   	  		      		 	 				      Total   Video                                             
Title                                                           Codec   Length  Movie Size      Disc Size       Bitrate Bitrate Main Audio Track                          Secondary Audio Track
-----                                                           ------  ------- --------------  --------------  ------- ------- ------------------                        ---------------------
00004.MPLS                                                      AVC     0:00:21 9 443 328       46 649 130 101  3,59    3,33                                              


DISC INFO:

Disc Title:     Electric Light Orchestra - Out Of The Blue - Live At Wembley (2015)
Disc Size:      46 649 130 101 bytes
Protection:     AACS
BD-Java:        No
BDInfo:         0.5.8

PLAYLIST REPORT:

Name:                   00004.MPLS
Length:                 0:00:21.020 (h:m:s.ms)
Size:                   9 443 328 bytes
Total Bitrate:          3,59 Mbps

VIDEO:

Codec                   Bitrate             Description     
-----                   -------             -----------     
MPEG-4 AVC Video        3327 kbps           1080i / 29,970 fps / 16:9 / High Profile 4.1

FILES:

Name            Time In         Length          Size            Total Bitrate   
----            -------         ------          ----            -------------   
00005.M2TS      0:00:00.000     0:00:10.510     4 841 472       3 685           
00006.M2TS      0:00:10.510     0:00:10.510     4 601 856       3 503           

CHAPTERS:

Number          Time In         Length          Avg Video Rate  Max 1-Sec Rate  Max 1-Sec Time  Max 5-Sec Rate  Max 5-Sec Time  Max 10Sec Rate  Max 10Sec Time  Avg Frame Size  Max Frame Size  Max Frame Time  
------          -------         ------          --------------  --------------  --------------  --------------  --------------  --------------  --------------  --------------  --------------  --------------  
1               0:00:00.000     0:00:21.020     3 327 kbps      6 302 kbps      00:00:09.509    3 947 kbps      00:00:06.840    3 597 kbps      00:00:01.701    13 875 bytes    200 073 bytes   00:00:18.918    

STREAM DIAGNOSTICS:

File            PID             Type            Codec           Language                Seconds                 Bitrate                 Bytes           Packets         
----            ---             ----            -----           --------                --------------          --------------          -------------   -----           
00005.M2TS      4113 (0x1011)   0x1B            AVC                                     10,410                  3 448                   4 486 469       24 858          
00006.M2TS      4113 (0x1011)   0x1B            AVC                                     10,410                  3 270                   4 254 964       23 596          

<–– END FORUMS PASTE ––>

QUICK SUMMARY:

Disc Title: Electric Light Orchestra - Out Of The Blue - Live At Wembley (2015)
Disc Size: 46 649 130 101 bytes
Protection: AACS
BD-Java: No
Playlist: 00004.MPLS
Size: 9 443 328 bytes
Length: 0:00:21.020
Total Bitrate: 3,59 Mbps
Video: MPEG-4 AVC Video / 3327 kbps / 1080i / 29,970 fps / 16:9 / High Profile 4.1


********************
PLAYLIST: 00003.MPLS
********************

<–- BEGIN FORUMS PASTE –->
                                                                                                                Total   Video                                             
Title                                                           Codec   Length  Movie Size      Disc Size       Bitrate Bitrate Main Audio Track                          Secondary Audio Track
-----                                                           ------  ------- --------------  --------------  ------- ------- ------------------                        ---------------------
00003.MPLS                                                      AVC     0:00:20 45 864 960      46 649 130 101  18,30   15,21   DTS-HD Master 5.1 1960Kbps (48kHz/16-bit) 


DISC INFO:

Disc Title:     Electric Light Orchestra - Out Of The Blue - Live At Wembley (2015)
Disc Size:      46 649 130 101 bytes
Protection:     AACS
BD-Java:        No
BDInfo:         0.5.8

PLAYLIST REPORT:

Name:                   00003.MPLS
Length:                 0:00:20.053 (h:m:s.ms)
Size:                   45 864 960 bytes
Total Bitrate:          18,30 Mbps

VIDEO:

Codec                   Bitrate             Description     
-----                   -------             -----------     
MPEG-4 AVC Video        15214 kbps          1080i / 29,970 fps / 16:9 / High Profile 4.1

AUDIO:

Codec                           Language        Bitrate         Description     
-----                           --------        -------         -----------     
DTS-HD Master Audio             English         1960 kbps       5.1 / 48 kHz / 1960 kbps / 16-bit (DTS Core: 5.1 / 48 kHz / 1509 kbps / 16-bit)

FILES:

Name            Time In         Length          Size            Total Bitrate   
----            -------         ------          ----            -------------   
00003.M2TS      0:00:00.000     0:00:20.053     45 864 960      18 297          

CHAPTERS:

Number          Time In         Length          Avg Video Rate  Max 1-Sec Rate  Max 1-Sec Time  Max 5-Sec Rate  Max 5-Sec Time  Max 10Sec Rate  Max 10Sec Time  Avg Frame Size  Max Frame Size  Max Frame Time  
------          -------         ------          --------------  --------------  --------------  --------------  --------------  --------------  --------------  --------------  --------------  --------------  
1               0:00:00.000     0:00:20.053     15 214 kbps     32 421 kbps     00:00:08.141    27 674 kbps     00:00:04.771    24 839 kbps     00:00:03.436    63 455 bytes    324 912 bytes   00:00:08.308    

STREAM DIAGNOSTICS:

File            PID             Type            Codec           Language                Seconds                 Bitrate                 Bytes           Packets         
----            ---             ----            -----           --------                --------------          --------------          -------------   -----           
00003.M2TS      4113 (0x1011)   0x1B            AVC                                     19,953                  15 290                  38 136 751      208 048         
00003.M2TS      4352 (0x1100)   0x86            DTS-HD MA       eng (English)           19,953                  1 970                   4 912 908       30 109          

<–– END FORUMS PASTE ––>

QUICK SUMMARY:

Disc Title: Electric Light Orchestra - Out Of The Blue - Live At Wembley (2015)
Disc Size: 46 649 130 101 bytes
Protection: AACS
BD-Java: No
Playlist: 00003.MPLS
Size: 45 864 960 bytes
Length: 0:00:20.053
Total Bitrate: 18,30 Mbps
Video: MPEG-4 AVC Video / 15214 kbps / 1080i / 29,970 fps / 16:9 / High Profile 4.1
Audio: English / DTS-HD Master Audio / 5.1 / 48 kHz / 1960 kbps / 16-bit (DTS Core: 5.1 / 48 kHz / 1509 kbps / 16-bit)

Electric Light Orchestra - Out Of The Blue: Live At Wembley (2015) [Blu-ray]

Electric Light Orchestra - Out Of The Blue: Live At Wembley (2015) [Blu-ray]

Electric Light Orchestra - Out Of The Blue: Live At Wembley (2015) [Blu-ray]

Electric Light Orchestra - Out Of The Blue: Live At Wembley (2015) [Blu-ray]

Electric Light Orchestra - Out Of The Blue: Live At Wembley (2015) [Blu-ray]

Electric Light Orchestra - Out Of The Blue: Live At Wembley (2015) [Blu-ray]

Electric Light Orchestra - Out Of The Blue: Live At Wembley (2015) [Blu-ray]

Electric Light Orchestra - Out Of The Blue: Live At Wembley (2015) [Blu-ray]

Electric Light Orchestra - Out Of The Blue: Live At Wembley (2015) [Blu-ray]

All thanks go to rainbow.n & hdmaniac

Visit my blog!

Download: