Subcategories

Daniel Barenboim - Elgar: The Dream of Gerontius, Op. 38 (2017)

Posted By: SERTiL
Daniel Barenboim - Elgar: The Dream of Gerontius, Op. 38 (2017)

Daniel Barenboim - Elgar: The Dream of Gerontius, Op. 38
EAC Rip | FLAC (tracks)+cue, log, m3u, d. booklet | 93:42 min | 403 MB
Label: Decca – 4831585 | Tracks: 28 | Rls.date: 2017
Classical, Orchestral, Choral

Daniel Barenboim’s ‘The Dream of Gerontius’ is a significant addition to his critically-acclaimed Elgar series with Staatskapelle Berlin. This is Barenboim’s first recording of Elgar’s greatest choral masterpiece. Featuring the finest array of English-speaking soloists: Catherine Wyn-Rogers, Andrew Staples and Thomas Hampson.

The album is released to coincide with Barenboim’s performances of Elgar’s Symphonies 1 & 2 with the Staatskapelle Berlin at the BBC Proms on 15 & 16 July

„Barenboim's long association with, and love for, Elgar has effectively made it part of his musical DNA.“ (Gramophone)

„Barenboim made this a Gerontius of transcendental splendour.“ (Financial Times)

„If anyone can make a case for Elgar outside Britain, and without special pleading, it's Daniel Barenboim, returning to conduct this British composer's works.“ (New York Times)

Tracklist:

The Sir Edward Elgar (1857-1934)

Dream of Gerontius, Op.38 / Pt. 1
1 Prelude 09:20
2 Jesu, Maria, I am near to death 03:36
3 Kyrie eleison 02:12
4 Rouse thee, my fainting soul 00:49
5 Be merciful, be gracious 02:37
6 Sanctus fortis, Sanctus Deus 05:47
7 I can no more; for now it comes again 02:11
8 Rescue him, O Lord 01:57
9 Novissima hora est 01:10
10 Proficiscere, anima Christiana 01:54
11 Go, in the name of Angels and Archangels 04:08

Exact Audio Copy V1.3 from 2. September 2016

EAC extraction logfile from 31. October 2017, 19:02

Various Artists / The Dream of Gerontius, Op. 38

Used drive : ASUS DRW-24B1ST a Adapter: 1 ID: 0

Read mode : Secure
Utilize accurate stream : Yes
Defeat audio cache : Yes
Make use of C2 pointers : No

Read offset correction : 6
Overread into Lead-In and Lead-Out : No
Fill up missing offset samples with silence : Yes
Delete leading and trailing silent blocks : No
Null samples used in CRC calculations : Yes
Used interface : Native Win32 interface for Win NT & 2000
Gap handling : Appended to previous track

Used output format : User Defined Encoder
Selected bitrate : 1024 kBit/s
Quality : High
Add ID3 tag : No
Command line compressor : C:\Program Files (x86)\Exact Audio Copy\Flac\flac.exe
Additional command line options : -8 -e -p -V -T "ARTIST=%artist%" -T "TITLE=%title%" -T "ALBUM=%albumtitle%" -T "DATE=%year%" -T "TRACKNUMBER=%tracknr%" -T "GENRE=%genre%" -T "PERFORMER=%albuminterpret%" -T "COMPOSER=%composer%" %haslyrics%–tag-from-file=LYRICS="%lyricsfile%"%haslyrics% -T "ALBUMARTIST=%albumartist%" -T "DISCNUMBER=%cdnumber%" -T "TOTALDISCS=%totalcds%" -T "TOTALTRACKS=%numtracks%" -T "COMMENT=%comment%" %source% -o %dest%


TOC of the extracted CD

Track | Start | Length | Start sector | End sector
––––––––––––––––––––––––––––-
1 | 0:00.00 | 9:19.53 | 0 | 41977
2 | 9:19.53 | 3:35.54 | 41978 | 58156
3 | 12:55.32 | 2:11.42 | 58157 | 68023
4 | 15:06.74 | 0:49.05 | 68024 | 71703
5 | 15:56.04 | 2:36.44 | 71704 | 83447
6 | 18:32.48 | 5:46.60 | 83448 | 109457
7 | 24:19.33 | 2:10.58 | 109458 | 119265
8 | 26:30.16 | 1:56.47 | 119266 | 128012
9 | 28:26.63 | 1:09.55 | 128013 | 133242
10 | 29:36.43 | 1:53.41 | 133243 | 141758
11 | 31:30.09 | 4:08.68 | 141759 | 160426


Track 1

Filename C:\EAC Rips\Elgar - The Dream of Gerontius - Barenboim (2017) [FLAC]\Disc 1\01 - Staatskapelle Berlin & Daniel Barenboim - Prelude.wav

Pre-gap length 0:00:02.00

Peak level 93.7 %
Extraction speed 3.6 X
Track quality 99.9 %
Test CRC 0CF96630
Copy CRC 0CF96630
Accurately ripped (confidence 1) [AE88972F] (AR v2)
Copy OK

Track 2

Filename C:\EAC Rips\Elgar - The Dream of Gerontius - Barenboim (2017) [FLAC]\Disc 1\02 - Andrew Staples, Daniel Barenboim, Staatskapelle Berlin, RIAS Kammerchor & Staatsopernchor Berlin - Jesu, Maria, I am near to death.wav

Peak level 49.9 %
Extraction speed 4.1 X
Track quality 100.0 %
Test CRC 0DA07F42
Copy CRC 0DA07F42
Accurately ripped (confidence 1) [9BC92A39] (AR v2)
Copy OK

Track 3

Filename C:\EAC Rips\Elgar - The Dream of Gerontius - Barenboim (2017) [FLAC]\Disc 1\03 - RIAS Kammerchor, Daniel Barenboim, Staatskapelle Berlin & Staatsopernchor Berlin - Kyrie eleison.wav

Peak level 26.1 %
Extraction speed 4.0 X
Track quality 100.0 %
Test CRC AE01F2E3
Copy CRC AE01F2E3
Accurately ripped (confidence 1) [9C640B4E] (AR v2)
Copy OK

Track 4

Filename C:\EAC Rips\Elgar - The Dream of Gerontius - Barenboim (2017) [FLAC]\Disc 1\04 - Andrew Staples, Daniel Barenboim & Staatskapelle Berlin - Rouse thee, my fainting soul.wav

Peak level 32.4 %
Extraction speed 2.9 X
Track quality 100.0 %
Test CRC 178852D5
Copy CRC 178852D5
Accurately ripped (confidence 1) [AB8C9D79] (AR v2)
Copy OK

Track 5

Filename C:\EAC Rips\Elgar - The Dream of Gerontius - Barenboim (2017) [FLAC]\Disc 1\05 - RIAS Kammerchor, Daniel Barenboim, Staatsopernchor Berlin & Staatskapelle Berlin - Be merciful, be gracious.wav

Peak level 78.7 %
Extraction speed 4.3 X
Track quality 100.0 %
Test CRC F427A07C
Copy CRC F427A07C
Accurately ripped (confidence 1) [F3D4C8BB] (AR v2)
Copy OK

Track 6

Filename C:\EAC Rips\Elgar - The Dream of Gerontius - Barenboim (2017) [FLAC]\Disc 1\06 - Andrew Staples, Daniel Barenboim & Staatskapelle Berlin - Sanctus fortis, Sanctus Deus.wav

Peak level 71.6 %
Extraction speed 5.2 X
Track quality 100.0 %
Test CRC EE2BE6E6
Copy CRC EE2BE6E6
Accurately ripped (confidence 1) [0D0E292E] (AR v2)
Copy OK

Track 7

Filename C:\EAC Rips\Elgar - The Dream of Gerontius - Barenboim (2017) [FLAC]\Disc 1\07 - Andrew Staples, Daniel Barenboim & Staatskapelle Berlin - I can no more; for now it comes again.wav

Peak level 54.1 %
Extraction speed 3.3 X
Track quality 99.9 %
Test CRC D8B60B67
Copy CRC D8B60B67
Accurately ripped (confidence 1) [1C2F02A9] (AR v2)
Copy OK

Track 8

Filename C:\EAC Rips\Elgar - The Dream of Gerontius - Barenboim (2017) [FLAC]\Disc 1\08 - RIAS Kammerchor, Daniel Barenboim, Staatskapelle Berlin & Staatsopernchor Berlin - Rescue him, O Lord.wav

Peak level 62.3 %
Extraction speed 4.6 X
Track quality 100.0 %
Test CRC 899A042B
Copy CRC 899A042B
Accurately ripped (confidence 1) [0FF99350] (AR v2)
Copy OK

Track 9

Filename C:\EAC Rips\Elgar - The Dream of Gerontius - Barenboim (2017) [FLAC]\Disc 1\09 - Andrew Staples, Daniel Barenboim & Staatskapelle Berlin - Novissima hora est.wav

Peak level 20.4 %
Extraction speed 2.4 X
Track quality 99.8 %
Test CRC 57353DD1
Copy CRC 57353DD1
Accurately ripped (confidence 1) [1BFC48B8] (AR v2)
Copy OK

Track 10

Filename C:\EAC Rips\Elgar - The Dream of Gerontius - Barenboim (2017) [FLAC]\Disc 1\10 - Andrew Staples, Daniel Barenboim, Staatskapelle Berlin & Thomas Hampson - Proficiscere, anima Christiana.wav

Peak level 53.3 %
Extraction speed 3.2 X
Track quality 99.9 %
Test CRC 4E3F9999
Copy CRC 4E3F9999
Accurately ripped (confidence 1) [6A9A8B2A] (AR v2)
Copy OK

Track 11

Filename C:\EAC Rips\Elgar - The Dream of Gerontius - Barenboim (2017) [FLAC]\Disc 1\11 - Thomas Hampson, Daniel Barenboim, Staatskapelle Berlin, RIAS Kammerchor & Staatsopernchor Berlin - Go, in the name of Angels and Archangels.wav

Peak level 89.6 %
Extraction speed 5.7 X
Track quality 100.0 %
Test CRC 3AF18384
Copy CRC 3AF18384
Accurately ripped (confidence 1) [5B548815] (AR v2)
Copy OK


All tracks accurately ripped

No errors occurred

End of status report

–– CUETools DB Plugin V2.1.6

[CTDB TOCID: 410.Xhn8R1.WlUn_f1DVHyssa90-] found
Submit result: 410.Xhn8R1.WlUn_f1DVHyssa90- has been confirmed
Track | CTDB Status
1 | (9/9) Accurately ripped
2 | (9/9) Accurately ripped
3 | (9/9) Accurately ripped
4 | (9/9) Accurately ripped
5 | (9/9) Accurately ripped
6 | (9/9) Accurately ripped
7 | (9/9) Accurately ripped
8 | (9/9) Accurately ripped
9 | (9/9) Accurately ripped
10 | (9/9) Accurately ripped
11 | (9/9) Accurately ripped


==== Log checksum AE1B40D6A9E3BECFECF819BE82F2C8FB4F8F0305F17F74811CEB423DF6DB5867 ====


The Dream of Gerontius, Op.38 / Pt. 2
12 Introduction 01:36
13 I went to sleep 03:35
14 My work is done, my task is o'er 09:16
15 Low-born clods of brute earth 02:40
16 The mind bold and independent 02:29
17 I see not those false spirits 03:40
18 Praise to the Holiest 03:05
19 Glory to him 01:16
20 But hark! A grand mysterious harmony 00:47
21 And now the threshold as we traverse it 00:36
22 Praise to the Holiest in the height 07:50
23 Thy judgement now is near 02:31
24 Jesu! by that shuddering dread which fell on Thee 05:20
25 Praise to His name! 01:22
26 Take me away! 03:37
27 Lord, Thou hast been our refuge 01:06
28 Softly and gently, dearly ransomed soul 07:30

Exact Audio Copy V1.3 from 2. September 2016

EAC extraction logfile from 31. October 2017, 20:13

Various Artists / The Dream of Gerontius, Op. 38

Used drive : ASUS DRW-24B1ST a Adapter: 1 ID: 0

Read mode : Secure
Utilize accurate stream : Yes
Defeat audio cache : Yes
Make use of C2 pointers : No

Read offset correction : 6
Overread into Lead-In and Lead-Out : No
Fill up missing offset samples with silence : Yes
Delete leading and trailing silent blocks : No
Null samples used in CRC calculations : Yes
Used interface : Native Win32 interface for Win NT & 2000
Gap handling : Appended to previous track

Used output format : User Defined Encoder
Selected bitrate : 1024 kBit/s
Quality : High
Add ID3 tag : No
Command line compressor : C:\Program Files (x86)\Exact Audio Copy\Flac\flac.exe
Additional command line options : -8 -e -p -V -T "ARTIST=%artist%" -T "TITLE=%title%" -T "ALBUM=%albumtitle%" -T "DATE=%year%" -T "TRACKNUMBER=%tracknr%" -T "GENRE=%genre%" -T "PERFORMER=%albuminterpret%" -T "COMPOSER=%composer%" %haslyrics%–tag-from-file=LYRICS="%lyricsfile%"%haslyrics% -T "ALBUMARTIST=%albumartist%" -T "DISCNUMBER=%cdnumber%" -T "TOTALDISCS=%totalcds%" -T "TOTALTRACKS=%numtracks%" -T "COMMENT=%comment%" %source% -o %dest%


TOC of the extracted CD

Track | Start | Length | Start sector | End sector
––––––––––––––––––––––––––––-
1 | 0:00.00 | 1:36.68 | 0 | 7267
2 | 1:36.68 | 3:34.43 | 7268 | 23360
3 | 5:11.36 | 9:16.11 | 23361 | 65071
4 | 14:27.47 | 2:40.08 | 65072 | 77079
5 | 17:07.55 | 2:29.25 | 77080 | 88279
6 | 19:37.05 | 3:39.66 | 88280 | 104770
7 | 23:16.71 | 3:05.21 | 104771 | 118666
8 | 26:22.17 | 1:15.51 | 118667 | 124342
9 | 27:37.68 | 0:46.73 | 124343 | 127865
10 | 28:24.66 | 0:36.02 | 127866 | 130567
11 | 29:00.68 | 7:49.44 | 130568 | 165786
12 | 36:50.37 | 2:30.48 | 165787 | 177084
13 | 39:21.10 | 5:19.48 | 177085 | 201057
14 | 44:40.58 | 1:21.41 | 201058 | 207173
15 | 46:02.24 | 3:37.37 | 207174 | 223485
16 | 49:39.61 | 1:06.25 | 223486 | 228460
17 | 50:46.11 | 7:32.09 | 228461 | 262369


Track 1

Filename C:\EAC Rips\Elgar - The Dream of Gerontius - Barenboim (2017) [FLAC]\Disc 2\01 - Introduction.wav

Pre-gap length 0:00:02.00

Peak level 9.1 %
Extraction speed 1.8 X
Track quality 99.8 %
Test CRC DD4564D9
Copy CRC DD4564D9
Accurately ripped (confidence 1) [C82203F5] (AR v2)
Copy OK

Track 2

Filename C:\EAC Rips\Elgar - The Dream of Gerontius - Barenboim (2017) [FLAC]\Disc 2\02 - I went to sleep.wav

Peak level 19.1 %
Extraction speed 3.5 X
Track quality 100.0 %
Test CRC 6B10D233
Copy CRC 6B10D233
Accurately ripped (confidence 1) [54AFFEAE] (AR v2)
Copy OK

Track 3

Filename C:\EAC Rips\Elgar - The Dream of Gerontius - Barenboim (2017) [FLAC]\Disc 2\03 - My work is done, my task is o'er.wav

Peak level 50.5 %
Extraction speed 4.5 X
Track quality 100.0 %
Test CRC B9FAAECC
Copy CRC B9FAAECC
Accurately ripped (confidence 1) [0606BC2A] (AR v2)
Copy OK

Track 4

Filename C:\EAC Rips\Elgar - The Dream of Gerontius - Barenboim (2017) [FLAC]\Disc 2\04 - Low-born clods of brute earth.wav

Peak level 94.0 %
Extraction speed 4.3 X
Track quality 100.0 %
Test CRC 69C82447
Copy CRC 69C82447
Accurately ripped (confidence 1) [B426E2E2] (AR v2)
Copy OK

Track 5

Filename C:\EAC Rips\Elgar - The Dream of Gerontius - Barenboim (2017) [FLAC]\Disc 2\05 - The mind bold and independent.wav

Peak level 93.8 %
Extraction speed 4.4 X
Track quality 100.0 %
Test CRC 774ED0C9
Copy CRC 774ED0C9
Accurately ripped (confidence 1) [7CF9B072] (AR v2)
Copy OK

Track 6

Filename C:\EAC Rips\Elgar - The Dream of Gerontius - Barenboim (2017) [FLAC]\Disc 2\06 - I see not those false spirits.wav

Peak level 33.2 %
Extraction speed 4.9 X
Track quality 100.0 %
Test CRC D510DDA3
Copy CRC D510DDA3
Accurately ripped (confidence 1) [F26438D7] (AR v2)
Copy OK

Track 7

Filename C:\EAC Rips\Elgar - The Dream of Gerontius - Barenboim (2017) [FLAC]\Disc 2\07 - Praise to the Holiest.wav

Peak level 66.7 %
Extraction speed 3.8 X
Track quality 99.9 %
Test CRC B0F8CD6C
Copy CRC B0F8CD6C
Accurately ripped (confidence 1) [0F1DF569] (AR v2)
Copy OK

Track 8

Filename C:\EAC Rips\Elgar - The Dream of Gerontius - Barenboim (2017) [FLAC]\Disc 2\08 - Glory to him.wav

Peak level 71.8 %
Extraction speed 2.5 X
Track quality 99.8 %
Test CRC D2CC377B
Copy CRC D2CC377B
Accurately ripped (confidence 1) [533F215A] (AR v2)
Copy OK

Track 9

Filename C:\EAC Rips\Elgar - The Dream of Gerontius - Barenboim (2017) [FLAC]\Disc 2\09 - But hark! A grand mysterious harmony.wav

Peak level 74.1 %
Extraction speed 3.3 X
Track quality 100.0 %
Test CRC 6F5553EE
Copy CRC 6F5553EE
Accurately ripped (confidence 1) [F299D7BA] (AR v2)
Copy OK

Track 10

Filename C:\EAC Rips\Elgar - The Dream of Gerontius - Barenboim (2017) [FLAC]\Disc 2\10 - And now the threshold as we traverse it.wav

Peak level 56.5 %
Extraction speed 2.9 X
Track quality 100.0 %
Test CRC DFEDB441
Copy CRC DFEDB441
Accurately ripped (confidence 1) [5CDA7119] (AR v2)
Copy OK

Track 11

Filename C:\EAC Rips\Elgar - The Dream of Gerontius - Barenboim (2017) [FLAC]\Disc 2\11 - Praise to the Holiest in the height.wav

Peak level 93.9 %
Extraction speed 6.1 X
Track quality 100.0 %
Test CRC DF5E8FD6
Copy CRC DF5E8FD6
Accurately ripped (confidence 1) [C0367C3C] (AR v2)
Copy OK

Track 12

Filename C:\EAC Rips\Elgar - The Dream of Gerontius - Barenboim (2017) [FLAC]\Disc 2\12 - Thy judgement now is near.wav

Peak level 33.8 %
Extraction speed 5.5 X
Track quality 100.0 %
Test CRC 6113553D
Copy CRC 6113553D
Accurately ripped (confidence 1) [6FDE0B06] (AR v2)
Copy OK

Track 13

Filename C:\EAC Rips\Elgar - The Dream of Gerontius - Barenboim (2017) [FLAC]\Disc 2\13 - Jesu! By that shuddering dread which fell on Thee.wav

Peak level 44.2 %
Extraction speed 6.3 X
Track quality 100.0 %
Test CRC 4808C296
Copy CRC 4808C296
Accurately ripped (confidence 1) [F7C03D9F] (AR v2)
Copy OK

Track 14

Filename C:\EAC Rips\Elgar - The Dream of Gerontius - Barenboim (2017) [FLAC]\Disc 2\14 - Praise to His name!.wav

Peak level 51.7 %
Extraction speed 4.8 X
Track quality 100.0 %
Test CRC 41739AB3
Copy CRC 41739AB3
Accurately ripped (confidence 1) [726A224C] (AR v2)
Copy OK

Track 15

Filename C:\EAC Rips\Elgar - The Dream of Gerontius - Barenboim (2017) [FLAC]\Disc 2\15 - Take me away!.wav

Pre-gap length 0:00:00.26

Peak level 93.8 %
Extraction speed 6.3 X
Track quality 100.0 %
Test CRC EE2DC323
Copy CRC EE2DC323
Accurately ripped (confidence 1) [6EF243DB] (AR v2)
Copy OK

Track 16

Filename C:\EAC Rips\Elgar - The Dream of Gerontius - Barenboim (2017) [FLAC]\Disc 2\16 - Lord, Thou hast been our refuge.wav

Peak level 10.2 %
Extraction speed 4.8 X
Track quality 100.0 %
Test CRC 57D04837
Copy CRC 57D04837
Accurately ripped (confidence 1) [4DB01BDF] (AR v2)
Copy OK

Track 17

Filename C:\EAC Rips\Elgar - The Dream of Gerontius - Barenboim (2017) [FLAC]\Disc 2\17 - Softly and gently, dearly ransomed soul.wav

Peak level 93.8 %
Extraction speed 7.1 X
Track quality 100.0 %
Test CRC EAA29D6A
Copy CRC EAA29D6A
Accurately ripped (confidence 1) [A0001367] (AR v2)
Copy OK


All tracks accurately ripped

No errors occurred

End of status report

–– CUETools DB Plugin V2.1.6

[CTDB TOCID: 3vpKQ55v1M7kU3.D.8R2Eu28PeE-] found
Submit result: 3vpKQ55v1M7kU3.D.8R2Eu28PeE- has been confirmed
Track | CTDB Status
1 | (9/9) Accurately ripped
2 | (9/9) Accurately ripped
3 | (9/9) Accurately ripped
4 | (9/9) Accurately ripped
5 | (9/9) Accurately ripped
6 | (9/9) Accurately ripped
7 | (9/9) Accurately ripped
8 | (9/9) Accurately ripped
9 | (9/9) Accurately ripped
10 | (9/9) Accurately ripped
11 | (9/9) Accurately ripped
12 | (9/9) Accurately ripped
13 | (9/9) Accurately ripped
14 | (9/9) Accurately ripped
15 | (9/9) Accurately ripped
16 | (9/9) Accurately ripped
17 | (9/9) Accurately ripped


==== Log checksum C19C346BC6719A49666F7A2B4EE9316AC5E81C3ABDB5B5297BB69216C4AB8D5F ====


Personnel:
Catherine Wyn-Rogers, mezzo-soprano (Angel)
Andrew Staples, tenor (Gerontius)
Thomas Hampson, baritone (Priest/Angel of the Agony)
RIAS Kammerchor
Staatsopernchor Berlin
Staatskapelle Dresden
Daniel Barenboim, conductor

Thanks to the Original customer.