Subcategories
Tags
Language
Tags

Elīna Garanča, Karel Mark Chichon, Orquesta Filarmónica de Gran Canaria - Sol y vida (2019)

Posted By: ArlegZ
Elīna Garanča, Karel Mark Chichon, Orquesta Filarmónica de Gran Canaria - Sol y vida (2019)

Elīna Garanča, Karel Mark Chichon, Orquesta Filarmónica de Gran Canaria - Sol y vida (2019)
EAC | FLAC | Image (Cue & Log) ~ 299 Mb | Total time: 65:39 | Scans included
Classical | Label: Deutsche Grammophon | 4836217 | Recorded: 2018

Sol y vida is Elīna Garanča’sjourney to the South, from Spain to Italy and Latin America, and is her first album focusing entirely on non core-classical repertoire. Be ready to expect a personal album from the mezzo-soprano, whose centre of life has been Spain for many years. A selection of songs, canzone and tango pieces, both mirroring and spreading a flamboyantly emotional array of beaming happiness, passionate longing and exuberant joy. A feast of vocal colours, and a firework of passion, from the well-known Granada to the intimate world of La Llorona.
Featuring jewels of Latin American song repertoire like Piazolla’s Yo soy Maria, originally part of a tango operita and Gracias a la vida, one of the most covered Latin American songs in history both featuring guitarist Jose Maria Gallardo del Rey in new intimate arrangements. Many of the popular pieces have mainly been sung by tenors, like “Core ‘ngrato”, which was probably written for Caruso or the popular Neapolitan songs “Torna a surriento” or “Canto napoletano”.

Performer:
Elīna Garanča, mezzo-soprano
José Maria Gallardo del Rey, guitar (2, 4, 13)
Orquesta Filarmónica de Gran Canaria
Karel Mark Chichon, conductor

Track List:
Agustin Lara (1987-1970)
01. Granada
Traditional
02. La Llorona
03. Vai lavar a cara
Violetta Parra (1917-1967)
04. Gracias a la vida
Edvard Grieg (1843-1907)
05. T'estimo
Salvatore Cardillo (1874-1947)
06. Core 'ngrato
Ernesto de Curtis (1875-1937)
07. Torna a Surriento
08. Non ti scordar di me
Stanislao Gastaldon (1861-1939)
09. Musica proibita
Francesco Paolo Tosti (1846-1916)
10. Non t'amo più
Ernesto de Curtis
11. Voce'e notte
Francesco Paolo Tosti
12. Marechiare
Astor Piazzolla (1921-1992)
13. María de Buenos Aires - Yo soy María
Rosendo Mato Hermida (1914-1994)
14. Lela
Pablo Sorozábal (1897-1988)
15. La Taberna del Puerto - No puede ser
Carlos Cardel (1890-1935)
16. El día que me quieras
Ary Barroso (1903-1964)
17. Brazil


Exact Audio Copy V1.3 from 2. September 2016

EAC extraction logfile from 16. December 2019, 23:55

Elīna Garanča, Orquesta Filarmónica De Gran Canaria, Karel Mark Chichon / Sol y vida

Used drive : ASUS SDRW-08U7M-U Adapter: 1 ID: 0

Read mode : Secure
Utilize accurate stream : Yes
Defeat audio cache : Yes
Make use of C2 pointers : No

Read offset correction : 6
Overread into Lead-In and Lead-Out : No
Fill up missing offset samples with silence : Yes
Delete leading and trailing silent blocks : No
Null samples used in CRC calculations : Yes
Used interface : Native Win32 interface for Win NT & 2000

Used output format : User Defined Encoder
Selected bitrate : 128 kBit/s
Quality : High
Add ID3 tag : No
Command line compressor : C:\Program Files (x86)\Exact Audio Copy\Flac\flac.exe
Additional command line options : -V -8 -T "Date=%year%" -T "Genre=%genre%" %source%


TOC of the extracted CD

Track | Start | Length | Start sector | End sector
––––––––––––––––––––––––––––-
1 | 0:00.00 | 3:54.39 | 0 | 17588
2 | 3:54.39 | 5:38.50 | 17589 | 42988
3 | 9:33.14 | 2:44.71 | 42989 | 55359
4 | 12:18.10 | 4:04.01 | 55360 | 73660
5 | 16:22.11 | 2:29.65 | 73661 | 84900
6 | 18:52.01 | 3:25.69 | 84901 | 100344
7 | 22:17.70 | 3:27.63 | 100345 | 115932
8 | 25:45.58 | 3:46.60 | 115933 | 132942
9 | 29:32.43 | 3:55.34 | 132943 | 150601
10 | 33:28.02 | 5:23.32 | 150602 | 174858
11 | 38:51.34 | 3:08.74 | 174859 | 189032
12 | 42:00.33 | 3:19.18 | 189033 | 203975
13 | 45:19.51 | 3:18.41 | 203976 | 218866
14 | 48:38.17 | 5:32.45 | 218867 | 243811
15 | 54:10.62 | 2:56.24 | 243812 | 257035
16 | 57:07.11 | 4:37.42 | 257036 | 277852
17 | 61:44.53 | 3:52.43 | 277853 | 295295


Range status and errors

Selected range

Filename C:\temp\Elina Garanca - Sol y vida - 2019\Sol y vida.wav

Peak level 96.6 %
Extraction speed 5.0 X
Range quality 100.0 %
Test CRC A76C2913
Copy CRC A76C2913
Copy OK

No errors occurred


AccurateRip summary

Track 1 accurately ripped (confidence 4) [ED648D0E] (AR v2)
Track 2 accurately ripped (confidence 4) [9CACBE67] (AR v2)
Track 3 accurately ripped (confidence 4) [129DAB45] (AR v2)
Track 4 accurately ripped (confidence 4) [6095218A] (AR v2)
Track 5 accurately ripped (confidence 4) [C9AF78E1] (AR v2)
Track 6 accurately ripped (confidence 4) [5ED64D52] (AR v2)
Track 7 accurately ripped (confidence 4) [6C233FB1] (AR v2)
Track 8 accurately ripped (confidence 4) [C4A8A7F3] (AR v2)
Track 9 accurately ripped (confidence 4) [62FAC39B] (AR v2)
Track 10 accurately ripped (confidence 4) [45E6499F] (AR v2)
Track 11 accurately ripped (confidence 4) [94286A16] (AR v2)
Track 12 accurately ripped (confidence 4) [5116EF79] (AR v2)
Track 13 accurately ripped (confidence 4) [947200D3] (AR v2)
Track 14 accurately ripped (confidence 4) [D962445D] (AR v2)
Track 15 accurately ripped (confidence 4) [0CE6BDB0] (AR v2)
Track 16 accurately ripped (confidence 4) [D8DAE8E1] (AR v2)
Track 17 accurately ripped (confidence 4) [80EA5303] (AR v2)

All tracks accurately ripped

End of status report

==== Log checksum D9800EB66F71E62737DCE40F6C97E0D9EE156CFA541669B96840EA8E3C1F03EB ====

Elīna Garanča, Karel Mark Chichon, Orquesta Filarmónica de Gran Canaria - Sol y vida (2019)

Thanks to the original releaser