Subcategories

Elisabeth Leonskaja - Franz Schubert: Sonatas; Impromptus; Wanderer Fantasy; Trout Quintet (2016) 6 CD Box Set

Posted By: Designol
Elisabeth Leonskaja - Franz Schubert: Sonatas; Impromptus; Wanderer Fantasy; Trout Quintet (2016) 6 CD Box Set

Elisabeth Leonskaja - Franz Schubert: Piano Works (2016) 6 CD Box Set
Sonatas; Impromptus; Wanderer Fantasy; Trout Quintet

EAC | FLAC | Image (Cue&Log) ~ 1.2 Gb | Mp3 (CBR320) ~ 915 Mb | Scans included
Classical | Label: Warner Classics | # 0190295974954 | Time: 06:38:19

The works of Schubert are central to Elisabeth Leonskaja's repertoire - and her interpretations of his work have been described as "essential". Born in the Soviet Union, where her greatest mentor was Sviatoslav Richter, she moved in 1978 to Vienna. She has said that: "In Schubert, there are things that any average Viennese person will understand better than I do … I, though, have to think about them carefully. In Schubert, profound matters are expressed with a lightness of touch."

A few days ago, in Rome, I have bought this 6-CD box set on spot, simply for I love the manner Elisabeth Leonskaja plays the great repertory of the piano. And for I love Schubert too. I listened to her live concerts and recitals many times. My most recent encounter with her magnificent art took place in Bucharest during the last edition of the “George Enescu” International Festival (September 2015). On that occasion, she performed a splendid recital (Schubert – Brahms) and, three days later, soloed in Rachmaninov 2 (with Yuri Temirkanov and his St.Petersburg Philharmonic). As always when it comes to Leonskaja, the refinement and power, the delicacy and romantic fervor, the mighty technique and inspired musicianship blend together to convey the deepest truths engraved in the scores (whatever they would be, from Mozart and Schubert to Prokofiev and Enescu).

On these recordings – gathered by Warner Classics in a single release – the eminent pianist in her forties displays the whole gamut of nuances and insights in performing some of the most celebrated piano works (sonatas and impromptus) by the Viennese romantic composer Franz Schubert. Some of her renditions can be seen quite as landmarks in the catalogue so they can proudly stand along with those achieved by the great schubertian maestros such as Radu Lupu, Alfred Brendel, Mitsuko Uchida or Sir Andras Schiff. (I confined myself here only to alive pianists, the ones that can be listened to in live concerts not only on their recordings.) The simplicity and directness of Leonskaja’s touch enchants the music-lovers and specialists alike. I give only one example, convincing and seductive in its own right, of her unparalleled mastery: the slow movement (Andantino) of the Sonata D 959. The words would be superfluous to explain the effect of her touch and interpretation.

Do not hesitate to get this CD-box set. You would be mesmerized by one of the greatest musician-performers of our age and by some of the most inspired and inspiring music ever!

Review by P. Adrian, Amazon.com

Elisabeth Leonskaja is a highly respected (former Soviet) pianist whose career blossomed in the shadow of Sviatoslav Richter and Emil Gilels. Known for her modesty – not unlike older compatriot Maria Yudina – Leonskaja was mentored by Richter and often played duets with him. She would never reach the critical and artistic heights of her great teacher, but her reputation as an imaginative interpreter and formidable technician have lifted her to almost legendary status, with comparisons to Clara Haskil and other keyboard icons. Her choice of repertory has been fairly conservative over the years, with staples in the concerto and solo genres by Chopin, Liszt, Brahms, Tchaikovsky, Prokofiev, and with much chamber music. In the latter realm, she has collaborated with the Alban Berg and Borodin quartets, with the Vienna Philharmonic Chamber Ensemble, with cellist Heinrich Schiff, and many other artists. Leonskaja has made numerous recordings with a variety of labels, including Melodiya, Teldec, Elektra, MD&G, and others.

Leonskaja was born on November 23, 1945, in Tbilisi, Georgia, to Russian parents. She was an exceptionally gifted child, giving her first concert at 11. She studied music at the Moscow Conservatory and, while there, won prizes in several prestigious international competitions, including the Queen Elizabeth, Marguerite Long, and Enescu.

Leonskaja was soon noticed by Richter and the two developed what would be a lifelong friendship, often appearing together in duet concerts. In 1978 she emigrated to the West, settling in Vienna. Her debut at the 1979 Salzburg Festival was a great triumph, after which she quickly established a reputation that yielded invitations in the next decades from the leading orchestras abroad, including those in New York, Cleveland, Los Angeles, London, Berlin, Leipzig, and Hamburg.

Leonskaja's recordings were drawing acclaim as well: her 1992 CD of Brahms' sonatas won Belgium's prestigious Caecilia Prize. In 1996 Teldec released what would be one of Richter's last recordings, duet sonatas by Mozart and Grieg, with Leonskaja. Richter died the following year.

In the new century Leonskaja has been very active on the concert scene with numerous appearances at major concert venues. She debuted at Carnegie Hall in November 2006 with Kurt Masur leading the London Philharmonic Orchestra in an acclaimed performance of the challenging Prokofiev Piano Concerto No. 2. Among her later recordings is another highly praised Brahms CD, this one an MD&G release of piano music from Opp. 116-119.

Biography by Robert Cummings, Allmusic.com

Elisabeth Leonskaja - Franz Schubert: Sonatas; Impromptus; Wanderer Fantasy; Trout Quintet (2016) 6 CD Box Set






Elisabeth Leonskaja - Franz Schubert: Sonatas; Impromptus; Wanderer Fantasy; Trout Quintet (2016) 6 CD Box Set


CD1: (1:10:27)

4 Impromptus, D899
01. No.1 in C minor (10:49)
02. No.2 in E flat major (4:57)
03. No.3 in G flat major (6:50)
04. No.4 in A flat major (7:55)

4 Impromptus, D935
05. No.1 in F minor (12:42)
06. No.2 in A flat major (7:58)
07. No.3 in B flat major (12:19)
08. No.4 in F minor (6:56)


Exact Audio Copy V1.1 from 23. June 2015

EAC extraction logfile from 26. November 2016, 20:46

Elisabeth Leonskaja / Schubert - Impromptus D899 & D935

Used drive : HL-DT-STDVDRAM GU70N Adapter: 1 ID: 0

Read mode : Secure
Utilize accurate stream : Yes
Defeat audio cache : Yes
Make use of C2 pointers : No

Read offset correction : 48
Overread into Lead-In and Lead-Out : No
Fill up missing offset samples with silence : Yes
Delete leading and trailing silent blocks : No
Null samples used in CRC calculations : Yes
Used interface : Native Win32 interface for Win NT & 2000

Used output format : User Defined Encoder
Selected bitrate : 128 kBit/s
Quality : High
Add ID3 tag : No
Command line compressor : C:\Program Files (x86)\Exact Audio Copy\Flac\flac.exe
Additional command line options : -V -8 -T "Date=%year%" -T "Genre=%genre%" %source%


TOC of the extracted CD

Track | Start | Length | Start sector | End sector
––––––––––––––––––––––––––––-
1 | 0:00.00 | 10:48.59 | 0 | 48658
2 | 10:48.59 | 4:57.06 | 48659 | 70939
3 | 15:45.65 | 6:50.33 | 70940 | 101722
4 | 22:36.23 | 7:55.15 | 101723 | 137362
5 | 30:31.38 | 12:42.11 | 137363 | 194523
6 | 43:13.49 | 7:57.65 | 194524 | 230363
7 | 51:11.39 | 12:19.17 | 230364 | 285805
8 | 63:30.56 | 6:55.59 | 285806 | 316989


Range status and errors

Selected range

Filename C:\temp\Schubert - Sonatas; Impromptus; Wanderer Fantasy; Trout Quintet - Leonskaja\CD1\Schubert - Impromptus D899 & D935.wav

Peak level 97.7 %
Extraction speed 2.1 X
Range quality 100.0 %
Test CRC 3928CB95
Copy CRC 3928CB95
Copy OK

No errors occurred


AccurateRip summary

Track 1 cannot be verified as accurate (confidence 5) [094707D8], AccurateRip returned [762A8334] (AR v2)
Track 2 cannot be verified as accurate (confidence 5) [7C1A2BD3], AccurateRip returned [0B880FCD] (AR v2)
Track 3 cannot be verified as accurate (confidence 5) [CEF83513], AccurateRip returned [E1C40E57] (AR v2)
Track 4 cannot be verified as accurate (confidence 5) [DA380855], AccurateRip returned [62ACB75E] (AR v2)
Track 5 cannot be verified as accurate (confidence 4) [0CC61CAD], AccurateRip returned [60EF5248] (AR v2)
Track 6 cannot be verified as accurate (confidence 5) [3B1CD56D], AccurateRip returned [85809030] (AR v2)
Track 7 cannot be verified as accurate (confidence 5) [206FD830], AccurateRip returned [73E90317] (AR v2)
Track 8 cannot be verified as accurate (confidence 5) [C19F9372], AccurateRip returned [9DA386D5] (AR v2)

No tracks could be verified as accurate
You may have a different pressing from the one(s) in the database

End of status report

==== Log checksum F50EDFD2CFC03930970405AE6C35B09BE27F0CFF84A8D18D216E0FE807633726 ====

foobar2000 1.2 / Dynamic Range Meter 1.1.1
log date: 2017-11-14 17:33:21

––––––––––––––––––––––––––––––––––––––––
Analyzed: Elisabeth Leonskaja / Schubert - Impromptus D899 & D935
––––––––––––––––––––––––––––––––––––––––

DR Peak RMS Duration Track
––––––––––––––––––––––––––––––––––––––––
DR17 -0.93 dB -23.66 dB 10:49 01-4 Impromptus, D899 - No.1 in C minor
DR14 -1.29 dB -20.41 dB 4:57 02-4 Impromptus, D899 - No.2 in E flat major
DR14 -5.71 dB -25.03 dB 6:50 03-4 Impromptus, D899 - No.3 in G flat major
DR14 -0.20 dB -21.73 dB 7:55 04-4 Impromptus, D899 - No.4 in A flat major
DR16 -2.11 dB -23.78 dB 12:42 05-4 Impromptus, D935 - No.1 in F minor
DR15 -0.50 dB -22.00 dB 7:58 06-4 Impromptus, D935 - No.2 in A flat major
DR15 -4.16 dB -25.23 dB 12:19 07-4 Impromptus, D935 - No.3 in B flat major
DR14 -2.85 dB -22.16 dB 6:56 08-4 Impromptus, D935 - No.4 in F minor
––––––––––––––––––––––––––––––––––––––––

Number of tracks: 8
Official DR value: DR15

Samplerate: 44100 Hz
Channels: 2
Bits per sample: 16
Bitrate: 446 kbps
Codec: FLAC
================================================================================




Elisabeth Leonskaja - Franz Schubert: Sonatas; Impromptus; Wanderer Fantasy; Trout Quintet (2016) 6 CD Box Set


CD2: (1:11:28)

Piano Sonata in A major, D959
01. I. Allegro (18:17)
02. II. Andantino (8:41)
03. III. Scherzo. Allegro vivace (5:12)
04. IV. Rondo. Allegretto (13:06)

Piano Sonata in A major, D664
05. I. Allegro moderato (13:02)
06. II. Andante (5:43)
07. III. Allegro (7:27)


Exact Audio Copy V1.1 from 23. June 2015

EAC extraction logfile from 26. November 2016, 21:40

Elisabeth Leonskaja / Schubert - Piano Sonatas D664 & D959

Used drive : HL-DT-STDVDRAM GU70N Adapter: 1 ID: 0

Read mode : Secure
Utilize accurate stream : Yes
Defeat audio cache : Yes
Make use of C2 pointers : No

Read offset correction : 48
Overread into Lead-In and Lead-Out : No
Fill up missing offset samples with silence : Yes
Delete leading and trailing silent blocks : No
Null samples used in CRC calculations : Yes
Used interface : Native Win32 interface for Win NT & 2000

Used output format : User Defined Encoder
Selected bitrate : 128 kBit/s
Quality : High
Add ID3 tag : No
Command line compressor : C:\Program Files (x86)\Exact Audio Copy\Flac\flac.exe
Additional command line options : -V -8 -T "Date=%year%" -T "Genre=%genre%" %source%


TOC of the extracted CD

Track | Start | Length | Start sector | End sector
––––––––––––––––––––––––––––-
1 | 0:00.00 | 18:16.67 | 0 | 82266
2 | 18:16.67 | 8:41.20 | 82267 | 121361
3 | 26:58.12 | 5:11.55 | 121362 | 144741
4 | 32:09.67 | 13:06.15 | 144742 | 203706
5 | 45:16.07 | 13:02.20 | 203707 | 262376
6 | 58:18.27 | 5:42.45 | 262377 | 288071
7 | 64:00.72 | 7:27.33 | 288072 | 321629


Range status and errors

Selected range

Filename C:\temp\Schubert - Sonatas; Impromptus; Wanderer Fantasy; Trout Quintet - Leonskaja\CD2\Schubert - Piano Sonatas D664 & D959.wav

Peak level 96.7 %
Extraction speed 5.0 X
Range quality 100.0 %
Test CRC 1E3B8FEA
Copy CRC 1E3B8FEA
Copy OK

No errors occurred


AccurateRip summary

Track 1 cannot be verified as accurate (confidence 9) [47ADAB5E], AccurateRip returned [3FB3A8E8] (AR v2)
Track 2 cannot be verified as accurate (confidence 9) [09B2B033], AccurateRip returned [D648D8FA] (AR v2)
Track 3 cannot be verified as accurate (confidence 9) [CE73D676], AccurateRip returned [844E33C2] (AR v2)
Track 4 cannot be verified as accurate (confidence 9) [39729EA1], AccurateRip returned [AD7977E2] (AR v2)
Track 5 cannot be verified as accurate (confidence 8) [6C8BFA33], AccurateRip returned [2D269E2A] (AR v2)
Track 6 cannot be verified as accurate (confidence 8) [D64A2296], AccurateRip returned [A989612B] (AR v2)
Track 7 cannot be verified as accurate (confidence 8) [B3961758], AccurateRip returned [F7D517C6] (AR v2)

No tracks could be verified as accurate
You may have a different pressing from the one(s) in the database

End of status report

==== Log checksum 57CA9F4676A86DF47AF5F505712390766F5FD0960DFF6A2C21BBBF175F517B95 ====

foobar2000 1.2 / Dynamic Range Meter 1.1.1
log date: 2017-11-14 17:33:45

––––––––––––––––––––––––––––––––––––––––
Analyzed: Elisabeth Leonskaja / Schubert - Piano Sonatas D664 & D959
––––––––––––––––––––––––––––––––––––––––

DR Peak RMS Duration Track
––––––––––––––––––––––––––––––––––––––––
DR15 -2.26 dB -23.15 dB 18:17 01-Piano Sonata in A major, D959 - I. Allegro
DR16 -0.29 dB -24.82 dB 8:41 02-Piano Sonata in A major, D959 - II. Andantino
DR13 -3.44 dB -22.38 dB 5:12 03-Piano Sonata in A major, D959 - III. Scherzo. Allegro vivace
DR14 -1.04 dB -21.72 dB 13:06 04-Piano Sonata in A major, D959 - IV. Rondo. Allegretto
DR17 -2.65 dB -24.83 dB 13:02 05-Piano Sonata in A major, D664 - I. Allegro moderato
DR16 -7.77 dB -29.90 dB 5:43 06-Piano Sonata in A major, D664 - II. Andante
DR14 -1.71 dB -21.01 dB 7:27 07-Piano Sonata in A major, D664 - III. Allegro
––––––––––––––––––––––––––––––––––––––––

Number of tracks: 7
Official DR value: DR15

Samplerate: 44100 Hz
Channels: 2
Bits per sample: 16
Bitrate: 359 kbps
Codec: FLAC
================================================================================




Elisabeth Leonskaja - Franz Schubert: Sonatas; Impromptus; Wanderer Fantasy; Trout Quintet (2016) 6 CD Box Set


CD3: (1:12:38)

Piano Sonata in D major, D850
01. I. Allegro vivace (9:00)
02. II. Con moto (14:06)
03. III. Scherzo. Allegro vivace (9:51)
04. IV. Rondo. Allegro moderato (8:05)

Piano Sonata in E flat major, D568
05. I. Allegro moderato (9:52)
06. II. Andante molto (7:33)
07. III. Menuetto. Allegretto (4:33)
08. IV. Allegro moderato (9:38)


Exact Audio Copy V1.1 from 23. June 2015

EAC extraction logfile from 26. November 2016, 22:56

Elisabeth Leonskaja / Schubert - Piano Sonatas D568 & D850

Used drive : HL-DT-STDVDRAM GU70N Adapter: 1 ID: 0

Read mode : Secure
Utilize accurate stream : Yes
Defeat audio cache : Yes
Make use of C2 pointers : No

Read offset correction : 48
Overread into Lead-In and Lead-Out : No
Fill up missing offset samples with silence : Yes
Delete leading and trailing silent blocks : No
Null samples used in CRC calculations : Yes
Used interface : Native Win32 interface for Win NT & 2000

Used output format : User Defined Encoder
Selected bitrate : 128 kBit/s
Quality : High
Add ID3 tag : No
Command line compressor : C:\Program Files (x86)\Exact Audio Copy\Flac\flac.exe
Additional command line options : -V -8 -T "Date=%year%" -T "Genre=%genre%" %source%


TOC of the extracted CD

Track | Start | Length | Start sector | End sector
––––––––––––––––––––––––––––-
1 | 0:00.00 | 9:00.27 | 0 | 40526
2 | 9:00.27 | 14:06.23 | 40527 | 103999
3 | 23:06.50 | 9:51.02 | 104000 | 148326
4 | 32:57.52 | 8:05.23 | 148327 | 184724
5 | 41:03.00 | 9:51.52 | 184725 | 229101
6 | 50:54.52 | 7:32.43 | 229102 | 263044
7 | 58:27.20 | 4:33.07 | 263045 | 283526
8 | 63:00.27 | 9:37.48 | 283527 | 326849


Range status and errors

Selected range

Filename C:\temp\Schubert - Sonatas; Impromptus; Wanderer Fantasy; Trout Quintet - Leonskaja\CD3\Schubert - Piano Sonatas D568 & D850.wav

Peak level 98.8 %
Extraction speed 2.1 X
Range quality 100.0 %
Test CRC 86847AC3
Copy CRC 86847AC3
Copy OK

No errors occurred


AccurateRip summary

Track 1 cannot be verified as accurate (confidence 4) [5E50EC5F], AccurateRip returned [245CCCD1] (AR v2)
Track 2 cannot be verified as accurate (confidence 4) [8BFEC72B], AccurateRip returned [D1C9638A] (AR v2)
Track 3 cannot be verified as accurate (confidence 4) [81B3053E], AccurateRip returned [6593F80D] (AR v2)
Track 4 cannot be verified as accurate (confidence 4) [6044517E], AccurateRip returned [01396A0D] (AR v2)
Track 5 cannot be verified as accurate (confidence 4) [6BED096B], AccurateRip returned [08DA1F65] (AR v2)
Track 6 cannot be verified as accurate (confidence 4) [87CB3D4C], AccurateRip returned [6F0AFE56] (AR v2)
Track 7 cannot be verified as accurate (confidence 4) [C276EE67], AccurateRip returned [50FD96CA] (AR v2)
Track 8 cannot be verified as accurate (confidence 4) [004BD5A7], AccurateRip returned [1D338B48] (AR v2)

No tracks could be verified as accurate
You may have a different pressing from the one(s) in the database

End of status report

==== Log checksum 6D42A790F2C78B39B6607CA7E3F5130421507279F7C16C2E13C39696D19B8B49 ====

foobar2000 1.2 / Dynamic Range Meter 1.1.1
log date: 2017-11-14 17:34:10

––––––––––––––––––––––––––––––––––––––––
Analyzed: Elisabeth Leonskaja / Schubert - Piano Sonatas D568 & D850
––––––––––––––––––––––––––––––––––––––––

DR Peak RMS Duration Track
––––––––––––––––––––––––––––––––––––––––
DR15 -0.67 dB -20.14 dB 9:00 01-Piano Sonata in D major, D850 - I. Allegro vivace
DR16 -0.10 dB -23.97 dB 14:06 02-Piano Sonata in D major, D850 - II. Con moto
DR14 -2.00 dB -20.78 dB 9:51 03-Piano Sonata in D major, D850 - III. Scherzo. Allegro vivace
DR16 -1.00 dB -23.37 dB 8:05 04-Piano Sonata in D major, D850 - IV. Rondo. Allegro moderato
DR16 -1.11 dB -22.37 dB 9:52 05-Piano Sonata in E flat major, D568 - I. Allegro moderato
DR15 -5.17 dB -26.20 dB 7:33 06-Piano Sonata in E flat major, D568 - II. Andante molto
DR14 -5.48 dB -24.35 dB 4:33 07-Piano Sonata in E flat major, D568 - III. Menuetto. Allegretto
DR15 -2.00 dB -22.61 dB 9:38 08-Piano Sonata in E flat major, D568 - IV. Allegro moderato
––––––––––––––––––––––––––––––––––––––––

Number of tracks: 8
Official DR value: DR15

Samplerate: 44100 Hz
Channels: 2
Bits per sample: 16
Bitrate: 443 kbps
Codec: FLAC
================================================================================




Elisabeth Leonskaja - Franz Schubert: Sonatas; Impromptus; Wanderer Fantasy; Trout Quintet (2016) 6 CD Box Set


CD4: (1:19:30)

Piano Sonata in C minor, D958
01. I. Allegro (11:38)
02. II. Adagio (8:33)
03. III. Menuetto & Trio (3:55)
04. IV. Allegro (8:55)

Piano Sonata in B flat major, D960
05. I. Molto moderato (23:58)
06. II. Andante sostenuto (10:05)
07. III. [Scherzo] Allegro vivace con delicatezza (4:08)
08. IV. Allegro ma non troppo (8:18)


Exact Audio Copy V1.1 from 23. June 2015

EAC extraction logfile from 27. November 2016, 0:13

Elisabeth Leonskaja / Schubert - Piano Sonatas D958 & D960

Used drive : HL-DT-STDVDRAM GU70N Adapter: 1 ID: 0

Read mode : Secure
Utilize accurate stream : Yes
Defeat audio cache : Yes
Make use of C2 pointers : No

Read offset correction : 48
Overread into Lead-In and Lead-Out : No
Fill up missing offset samples with silence : Yes
Delete leading and trailing silent blocks : No
Null samples used in CRC calculations : Yes
Used interface : Native Win32 interface for Win NT & 2000

Used output format : User Defined Encoder
Selected bitrate : 128 kBit/s
Quality : High
Add ID3 tag : No
Command line compressor : C:\Program Files (x86)\Exact Audio Copy\Flac\flac.exe
Additional command line options : -V -8 -T "Date=%year%" -T "Genre=%genre%" %source%


TOC of the extracted CD

Track | Start | Length | Start sector | End sector
––––––––––––––––––––––––––––-
1 | 0:00.00 | 11:37.52 | 0 | 52326
2 | 11:37.52 | 8:32.60 | 52327 | 90786
3 | 20:10.37 | 3:55.25 | 90787 | 108436
4 | 24:05.62 | 8:55.18 | 108437 | 148579
5 | 33:01.05 | 23:58.25 | 148580 | 256454
6 | 56:59.30 | 10:04.52 | 256455 | 301806
7 | 67:04.07 | 4:08.00 | 301807 | 320406
8 | 71:12.07 | 8:17.68 | 320407 | 357749


Range status and errors

Selected range

Filename C:\temp\Schubert - Sonatas; Impromptus; Wanderer Fantasy; Trout Quintet - Leonskaja\CD4\Schubert - Piano Sonatas D958 & D960.wav

Peak level 99.8 %
Extraction speed 2.3 X
Range quality 100.0 %
Test CRC 56ACC81C
Copy CRC 56ACC81C
Copy OK

No errors occurred


AccurateRip summary

Track 1 cannot be verified as accurate (confidence 9) [B5A2929C], AccurateRip returned [BCA96311] (AR v2)
Track 2 cannot be verified as accurate (confidence 9) [EA1BCCF7], AccurateRip returned [C327B34F] (AR v2)
Track 3 cannot be verified as accurate (confidence 9) [70FC5189], AccurateRip returned [44DD168B] (AR v2)
Track 4 cannot be verified as accurate (confidence 9) [F2FC49C8], AccurateRip returned [946FB489] (AR v2)
Track 5 cannot be verified as accurate (confidence 9) [8CCCF418], AccurateRip returned [E04E42E9] (AR v2)
Track 6 cannot be verified as accurate (confidence 9) [DB241F35], AccurateRip returned [FA056C8A] (AR v2)
Track 7 cannot be verified as accurate (confidence 9) [C4576E4D], AccurateRip returned [A524B957] (AR v2)
Track 8 cannot be verified as accurate (confidence 9) [DDF9D45C], AccurateRip returned [0A66067B] (AR v2)

No tracks could be verified as accurate
You may have a different pressing from the one(s) in the database

End of status report

==== Log checksum EFB0C4C54ABE6099BDA7DE7345D138E77ECF4270F1EF612DBFE2272FDCF17F95 ====

foobar2000 1.2 / Dynamic Range Meter 1.1.1
log date: 2017-11-14 17:34:38

––––––––––––––––––––––––––––––––––––––––
Analyzed: Elisabeth Leonskaja / Schubert - Piano Sonatas D958 & D960
––––––––––––––––––––––––––––––––––––––––

DR Peak RMS Duration Track
––––––––––––––––––––––––––––––––––––––––
DR15 -0.20 dB -21.79 dB 11:38 01-Piano Sonata in C minor, D958 - I. Allegro
DR18 -0.37 dB -25.71 dB 8:33 02-Piano Sonata in C minor, D958 - II. Adagio
DR15 -4.85 dB -25.56 dB 3:55 03-Piano Sonata in C minor, D958 - III. Menuetto & Trio
DR15 -0.10 dB -20.31 dB 8:55 04-Piano Sonata in C minor, D958 - IV. Allegro
DR18 -0.01 dB -24.02 dB 23:58 05-Piano Sonata in B flat major, D960 - I. Molto moderato
DR18 -3.91 dB -28.47 dB 10:05 06-Piano Sonata in B flat major, D960 - II. Andante sostenuto
DR15 -5.52 dB -24.58 dB 4:08 07-Piano Sonata in B flat major, D960 - III. [Scherzo] Allegro vivace con delicatezza
DR14 -0.10 dB -20.67 dB 8:18 08-Piano Sonata in B flat major, D960 - IV. Allegro ma non troppo
––––––––––––––––––––––––––––––––––––––––

Number of tracks: 8
Official DR value: DR16

Samplerate: 44100 Hz
Channels: 2
Bits per sample: 16
Bitrate: 436 kbps
Codec: FLAC
================================================================================




Elisabeth Leonskaja - Franz Schubert: Sonatas; Impromptus; Wanderer Fantasy; Trout Quintet (2016) 6 CD Box Set


CD5: (1:05:29)

Fantasia in C major, D760 'Wanderer'
01. I. Allegro con fuoco ma non troppo (5:59)
02. II. Adagio (6:03)
03. III. Presto (5:11)
04. IV. Allegro (3:48)

Piano Sonata in G major, D894
05. I. Molto moderato e cantabile (21:01)
06. II. Andante (9:35)
07. III. Menuetto & Trio (4:49)
08. IV. Allegro (9:04)


Exact Audio Copy V1.1 from 23. June 2015

EAC extraction logfile from 27. November 2016, 15:23

Elisabeth Leonskaja / Schubert - Wanderer Fantasie D760; Piano Sonata D894

Used drive : HL-DT-STDVDRAM GU70N Adapter: 1 ID: 0

Read mode : Secure
Utilize accurate stream : Yes
Defeat audio cache : Yes
Make use of C2 pointers : No

Read offset correction : 48
Overread into Lead-In and Lead-Out : No
Fill up missing offset samples with silence : Yes
Delete leading and trailing silent blocks : No
Null samples used in CRC calculations : Yes
Used interface : Native Win32 interface for Win NT & 2000

Used output format : User Defined Encoder
Selected bitrate : 128 kBit/s
Quality : High
Add ID3 tag : No
Command line compressor : C:\Program Files (x86)\Exact Audio Copy\Flac\flac.exe
Additional command line options : -V -8 -T "Date=%year%" -T "Genre=%genre%" %source%


TOC of the extracted CD

Track | Start | Length | Start sector | End sector
––––––––––––––––––––––––––––-
1 | 0:00.33 | 5:59.05 | 33 | 26962
2 | 5:59.38 | 6:02.65 | 26963 | 54177
3 | 12:02.28 | 5:11.12 | 54178 | 77514
4 | 17:13.40 | 3:47.60 | 77515 | 94599
5 | 21:01.25 | 21:00.70 | 94600 | 189169
6 | 42:02.20 | 9:34.38 | 189170 | 232257
7 | 51:36.58 | 4:49.10 | 232258 | 253942
8 | 56:25.68 | 9:03.65 | 253943 | 294732


Range status and errors

Selected range

Filename C:\temp\Schubert - Sonatas; Impromptus; Wanderer Fantasy; Trout Quintet - Leonskaja\CD5\Schubert - Wanderer Fantasie D760; Piano Sonata D894.wav

Peak level 97.7 %
Extraction speed 2.0 X
Range quality 100.0 %
Test CRC 1C143398
Copy CRC 1C143398
Copy OK

No errors occurred


AccurateRip summary

Track 1 cannot be verified as accurate (confidence 5) [2856506C], AccurateRip returned [C11CE958] (AR v2)
Track 2 cannot be verified as accurate (confidence 5) [6952248E], AccurateRip returned [F3AD143C] (AR v2)
Track 3 cannot be verified as accurate (confidence 5) [86F03D51], AccurateRip returned [11B00E02] (AR v2)
Track 4 cannot be verified as accurate (confidence 5) [8CE16B63], AccurateRip returned [DDF0032E] (AR v2)
Track 5 cannot be verified as accurate (confidence 5) [A64DB80B], AccurateRip returned [5DFA00D7] (AR v2)
Track 6 cannot be verified as accurate (confidence 5) [B5C8FCA9], AccurateRip returned [1BA31F48] (AR v2)
Track 7 cannot be verified as accurate (confidence 5) [E6741C34], AccurateRip returned [B440F8D0] (AR v2)
Track 8 cannot be verified as accurate (confidence 5) [C7E9D79C], AccurateRip returned [298CB4AF] (AR v2)

No tracks could be verified as accurate
You may have a different pressing from the one(s) in the database

End of status report

==== Log checksum 2D5F4E8F06CB1F74335B4724E9ADB4300145FDCE5A348AE7DFFECFD6A5E9A2F3 ====

foobar2000 1.2 / Dynamic Range Meter 1.1.1
log date: 2017-11-14 17:35:09

––––––––––––––––––––––––––––––––––––––––
Analyzed: Elisabeth Leonskaja / Schubert - Wanderer Fantasie D760; Piano Sonata D894
––––––––––––––––––––––––––––––––––––––––

DR Peak RMS Duration Track
––––––––––––––––––––––––––––––––––––––––
DR14 -0.20 dB -18.64 dB 5:59 01-Fantasia in C major, D760 'Wanderer' - I. Allegro con fuoco ma non troppo
DR16 -1.13 dB -24.90 dB 6:03 02-Fantasia in C major, D760 'Wanderer' - II. Adagio
DR13 -0.20 dB -18.80 dB 5:11 03-Fantasia in C major, D760 'Wanderer' - III. Presto
DR13 -0.20 dB -17.41 dB 3:48 04-Fantasia in C major, D760 'Wanderer' - IV. Allegro
DR17 -0.36 dB -24.98 dB 21:01 05-Piano Sonata in G major, D894 - I. Molto moderato e cantabile
DR16 -1.87 dB -25.08 dB 9:35 06-Piano Sonata in G major, D894 - II. Andante
DR13 -3.05 dB -23.94 dB 4:49 07-Piano Sonata in G major, D894 - III. Menuetto & Trio
DR14 -2.72 dB -22.08 dB 9:04 08-Piano Sonata in G major, D894 - IV. Allegro
––––––––––––––––––––––––––––––––––––––––

Number of tracks: 8
Official DR value: DR15

Samplerate: 44100 Hz
Channels: 2
Bits per sample: 16
Bitrate: 430 kbps
Codec: FLAC
================================================================================




Elisabeth Leonskaja - Franz Schubert: Sonatas; Impromptus; Wanderer Fantasy; Trout Quintet (2016) 6 CD Box Set


CD6: (38:47)

Piano Quintet in A major, D667 'Trout'
01. I. Allegro vivace (13:44)
02. II. Andante (7:06)
03. III. Scherzo: Presto (4:05)
04. IV. Thema mit Variationen: Andantino (7:29)
05. V. Finale: Allegro giusto (6:23)


Exact Audio Copy V1.1 from 23. June 2015

EAC extraction logfile from 27. November 2016, 15:49

Alban Berg Quartet, Elisabeth Leonskaja, Georg Hörtnagel / Schubert - Trout Quintet

Used drive : HL-DT-STDVDRAM GU70N Adapter: 1 ID: 0

Read mode : Secure
Utilize accurate stream : Yes
Defeat audio cache : Yes
Make use of C2 pointers : No

Read offset correction : 48
Overread into Lead-In and Lead-Out : No
Fill up missing offset samples with silence : Yes
Delete leading and trailing silent blocks : No
Null samples used in CRC calculations : Yes
Used interface : Native Win32 interface for Win NT & 2000

Used output format : User Defined Encoder
Selected bitrate : 128 kBit/s
Quality : High
Add ID3 tag : No
Command line compressor : C:\Program Files (x86)\Exact Audio Copy\Flac\flac.exe
Additional command line options : -V -8 -T "Date=%year%" -T "Genre=%genre%" %source%


TOC of the extracted CD

Track | Start | Length | Start sector | End sector
––––––––––––––––––––––––––––-
1 | 0:00.00 | 13:43.58 | 0 | 61782
2 | 13:43.58 | 7:06.15 | 61783 | 93747
3 | 20:49.73 | 4:04.64 | 93748 | 112111
4 | 24:54.62 | 7:29.37 | 112112 | 145823
5 | 32:24.24 | 6:22.41 | 145824 | 174514


Range status and errors

Selected range

Filename C:\temp\Schubert - Sonatas; Impromptus; Wanderer Fantasy; Trout Quintet - Leonskaja\CD6\Schubert - Trout Quintet.wav

Peak level 99.3 %
Extraction speed 4.1 X
Range quality 100.0 %
Test CRC 069C5D3F
Copy CRC 069C5D3F
Copy OK

No errors occurred


AccurateRip summary

Track 1 accurately ripped (confidence 1) [F6E8EA56] (AR v1)
Track 2 accurately ripped (confidence 1) [8507F53B] (AR v1)
Track 3 accurately ripped (confidence 1) [F6261AAF] (AR v1)
Track 4 accurately ripped (confidence 1) [9941EF85] (AR v1)
Track 5 accurately ripped (confidence 1) [CFE02892] (AR v1)

All tracks accurately ripped

End of status report

==== Log checksum 543467E1EAD32CE6CEA8089BF5F87DBFCBF7F299F3680B347712413D162B37AE ====

foobar2000 1.2 / Dynamic Range Meter 1.1.1
log date: 2017-11-14 17:35:26

––––––––––––––––––––––––––––––––––––––––
Analyzed: Alban Berg Quartet, Elisabeth Leonskaja, Georg Hortnagel / Schubert - Trout Quintet
––––––––––––––––––––––––––––––––––––––––

DR Peak RMS Duration Track
––––––––––––––––––––––––––––––––––––––––
DR16 -0.06 dB -21.83 dB 13:44 01-Piano Quintet in A major, D667 'Trout' - I. Allegro vivace
DR14 -6.28 dB -27.59 dB 7:06 02-Piano Quintet in A major, D667 'Trout' - II. Andante
DR15 -0.97 dB -21.26 dB 4:05 03-Piano Quintet in A major, D667 'Trout' - III. Scherzo: Presto
DR17 -0.74 dB -24.20 dB 7:29 04-Piano Quintet in A major, D667 'Trout' - IV. Thema mit Variationen: Andantino
DR15 -1.02 dB -22.07 dB 6:23 05-Piano Quintet in A major, D667 'Trout' - V. Finale: Allegro giusto
––––––––––––––––––––––––––––––––––––––––

Number of tracks: 5
Official DR value: DR15

Samplerate: 44100 Hz
Channels: 2
Bits per sample: 16
Bitrate: 526 kbps
Codec: FLAC
================================================================================




Elisabeth Leonskaja - Franz Schubert: Sonatas; Impromptus; Wanderer Fantasy; Trout Quintet (2016) 6 CD Box Set

All thanks to original releaser - A-Z

More Franz Schubert music in My Blog