Subcategories

Ella Fitzgerald & Louis Armstrong - Verve Jazz Masters 24 (1994)

Posted By: gribovar
Ella Fitzgerald & Louis Armstrong - Verve Jazz Masters 24 (1994)

Ella Fitzgerald & Louis Armstrong - Verve Jazz Masters 24 (1994)
EAC Rip | FLAC (tracks+.cue+log) - 203 MB | Covers included
Genre: Vocal Jazz | RAR 3% Rec. | Label: Verve Records (521 851-2)

Nat Hentoff prefaced his 1956 down beat review of Verve's first Ella Fitzgerald-Louis Armstrong collaboration with a prediction: "Ella and Louis is one of the very, very few albums to have been issued in this era of the LP flood that is sure to endure for decades." Today, those sublime performances, along with two subsequent Norman Granz-produced Fitzgerald-Armstrong albums, are regarded as milestones of American music. A dozen gems from these works are presented here.
Tracklist:
01. I've Got My Love To Keep Me Warm
02. Isn't This A Lovely Day?
03. Learnin' The Blues
04. I Got Plenty O' Nuttin'
05. Moonlight In Vermont
06. Under A Blanket Of Blue
07. I'm Puttin' All My Eggs In One Basket
08. Our Love Is Here To Stay
09. April In Paris
10. Tenderly
11. Bess, You Is My Woman Now
12. They All Laughed

Total time: 57:17

Exact Audio Copy V0.99 prebeta 5 from 4. May 2009

EAC extraction logfile from 10. August 2010, 18:54

Ella Fitzgerald & Louis Armstrong / Verve Jazz Masters 24

Used drive : HL-DT-STDVD-ROM GDR8162B Adapter: 0 ID: 0

Read mode : Secure
Utilize accurate stream : Yes
Defeat audio cache : Yes
Make use of C2 pointers : No

Read offset correction : 102
Overread into Lead-In and Lead-Out : No
Fill up missing offset samples with silence : Yes
Delete leading and trailing silent blocks : No
Null samples used in CRC calculations : No
Used interface : Native Win32 interface for Win NT & 2000
Gap handling : Appended to previous track

Used output format : User Defined Encoder
Selected bitrate : 320 kBit/s
Quality : High
Add ID3 tag : No
Command line compressor : C:\Archivos de programa\Exact Audio Copy\Flac\flac.exe
Additional command line options : -V -8 -T "artist=%a" -T "title=%t" -T "album=%g" -T "date=%y" -T "tracknumber=%n" -T "genre=%m" %s


TOC of the extracted CD

Track | Start | Length | Start sector | End sector
––––––––––––––––––––––––––––-
1 | 0:00.32 | 3:12.65 | 32 | 14496
2 | 3:13.22 | 6:18.43 | 14497 | 42889
3 | 9:31.65 | 7:15.40 | 42890 | 75554
4 | 16:47.30 | 3:53.35 | 75555 | 93064
5 | 20:40.65 | 3:43.52 | 93065 | 109841
6 | 24:24.42 | 4:20.28 | 109842 | 129369
7 | 28:44.70 | 3:28.12 | 129370 | 144981
8 | 32:13.07 | 4:02.38 | 144982 | 163169
9 | 36:15.45 | 6:37.55 | 163170 | 192999
10 | 42:53.25 | 5:10.00 | 193000 | 216249
11 | 48:03.25 | 5:27.10 | 216250 | 240784
12 | 53:30.35 | 3:46.62 | 240785 | 257796


Track 1

Filename F:\Musica\@@@@@Upload\Ella Fitzgerald & Louis Armstrong - Verve Jazz Masters 24 (FLAC)\Verve Jazz Masters 24 - 01 - I've Got My Love To Keep Me Warm.wav

Pre-gap length 0:00:02.32

Peak level 100.0 %
Track quality 100.0 %
Test CRC 841C97B9
Copy CRC 841C97B9
Accurately ripped (confidence 8) [FDC58417]
Copy OK

Track 2

Filename F:\Musica\@@@@@Upload\Ella Fitzgerald & Louis Armstrong - Verve Jazz Masters 24 (FLAC)\Verve Jazz Masters 24 - 02 - Isn't This A Lovely Day .wav

Pre-gap length 0:00:03.25

Peak level 89.1 %
Track quality 100.0 %
Test CRC D5E03856
Copy CRC D5E03856
Accurately ripped (confidence 10) [71F57623]
Copy OK

Track 3

Filename F:\Musica\@@@@@Upload\Ella Fitzgerald & Louis Armstrong - Verve Jazz Masters 24 (FLAC)\Verve Jazz Masters 24 - 03 - Learnin' The Blues.wav

Pre-gap length 0:00:02.55

Peak level 94.4 %
Track quality 100.0 %
Test CRC F566B09D
Copy CRC F566B09D
Accurately ripped (confidence 10) [84E338DE]
Copy OK

Track 4

Filename F:\Musica\@@@@@Upload\Ella Fitzgerald & Louis Armstrong - Verve Jazz Masters 24 (FLAC)\Verve Jazz Masters 24 - 04 - I Got Plenty O' Nuttin'.wav

Pre-gap length 0:00:01.68

Peak level 100.0 %
Track quality 100.0 %
Test CRC 10487FB4
Copy CRC 10487FB4
Accurately ripped (confidence 10) [97BA3DDE]
Copy OK

Track 5

Filename F:\Musica\@@@@@Upload\Ella Fitzgerald & Louis Armstrong - Verve Jazz Masters 24 (FLAC)\Verve Jazz Masters 24 - 05 - Moonlight In Vermont.wav

Pre-gap length 0:00:04.20

Peak level 100.0 %
Track quality 100.0 %
Test CRC 0DB8885B
Copy CRC 0DB8885B
Accurately ripped (confidence 10) [35657653]
Copy OK

Track 6

Filename F:\Musica\@@@@@Upload\Ella Fitzgerald & Louis Armstrong - Verve Jazz Masters 24 (FLAC)\Verve Jazz Masters 24 - 06 - Under A Blanket Of Blue.wav

Pre-gap length 0:00:02.47

Peak level 100.0 %
Track quality 100.0 %
Test CRC 8A492F79
Copy CRC 8A492F79
Accurately ripped (confidence 10) [C60E871B]
Copy OK

Track 7

Filename F:\Musica\@@@@@Upload\Ella Fitzgerald & Louis Armstrong - Verve Jazz Masters 24 (FLAC)\Verve Jazz Masters 24 - 07 - I'm Puttin' All My Eggs In One Basket.wav

Pre-gap length 0:00:03.05

Peak level 100.0 %
Track quality 100.0 %
Test CRC 80351055
Copy CRC 80351055
Accurately ripped (confidence 10) [DA7245FE]
Copy OK

Track 8

Filename F:\Musica\@@@@@Upload\Ella Fitzgerald & Louis Armstrong - Verve Jazz Masters 24 (FLAC)\Verve Jazz Masters 24 - 08 - Our Love Is Here To Stay.wav

Pre-gap length 0:00:03.12

Peak level 100.0 %
Track quality 100.0 %
Test CRC 39FB64FC
Copy CRC 39FB64FC
Accurately ripped (confidence 9) [4DAC903C]
Copy OK

Track 9

Filename F:\Musica\@@@@@Upload\Ella Fitzgerald & Louis Armstrong - Verve Jazz Masters 24 (FLAC)\Verve Jazz Masters 24 - 09 - April In Paris.wav

Pre-gap length 0:00:03.55

Peak level 100.0 %
Track quality 100.0 %
Test CRC 8FF93C5F
Copy CRC 8FF93C5F
Accurately ripped (confidence 9) [0265516F]
Copy OK

Track 10

Filename F:\Musica\@@@@@Upload\Ella Fitzgerald & Louis Armstrong - Verve Jazz Masters 24 (FLAC)\Verve Jazz Masters 24 - 10 - Tenderly.wav

Pre-gap length 0:00:03.55

Peak level 100.0 %
Track quality 100.0 %
Test CRC 05C29482
Copy CRC 05C29482
Accurately ripped (confidence 10) [99613C1A]
Copy OK

Track 11

Filename F:\Musica\@@@@@Upload\Ella Fitzgerald & Louis Armstrong - Verve Jazz Masters 24 (FLAC)\Verve Jazz Masters 24 - 11 - Bess, You Is My Woman Now.wav

Pre-gap length 0:00:02.73

Peak level 100.0 %
Track quality 100.0 %
Test CRC C5F6D6E7
Copy CRC C5F6D6E7
Accurately ripped (confidence 9) [EB9E3B6B]
Copy OK

Track 12

Filename F:\Musica\@@@@@Upload\Ella Fitzgerald & Louis Armstrong - Verve Jazz Masters 24 (FLAC)\Verve Jazz Masters 24 - 12 - They All Laughed.wav

Pre-gap length 0:00:03.15

Peak level 100.0 %
Track quality 99.9 %
Test CRC 9437FC37
Copy CRC 9437FC37
Accurately ripped (confidence 9) [96F0E5F5]
Copy OK


All tracks accurately ripped

No errors occurred

End of status report

[CUETools log; Date: 06.02.2018 20:21:08; Version: 2.1.4]
Pregap length 00:00:32.
[CTDB TOCID: pOlI_OVi64D5PMdc5dbmhW_NNFs-] found.
Track | CTDB Status
1 | (35/35) Accurately ripped
2 | (35/35) Accurately ripped
3 | (35/35) Accurately ripped
4 | (35/35) Accurately ripped
5 | (34/35) Accurately ripped
6 | (35/35) Accurately ripped
7 | (35/35) Accurately ripped
8 | (35/35) Accurately ripped
9 | (35/35) Accurately ripped
10 | (35/35) Accurately ripped
11 | (35/35) Accurately ripped
12 | (34/35) Accurately ripped, or (1/35) differs in 193 samples @00:58:42,00:58:60,00:59:03-00:59:04,01:18:08,01:18:26,01:18:45,01:18:63,01:19:07,01:19:25,01:19:44,01:19:62,01:20:24,01:20:42,01:20:61
[AccurateRip ID: 0019a753-00ef1258-a90d6d0c] found.
Track [ CRC | V2 ] Status
01 [fdc58417|4fe198ea] (14+20/50) Accurately ripped
02 [71f57623|8f3dfec9] (16+20/52) Accurately ripped
03 [84e338de|22d46965] (15+20/51) Accurately ripped
04 [97ba3dde|01461a8b] (16+20/52) Accurately ripped
05 [35657653|fa95a173] (16+20/51) Accurately ripped
06 [c60e871b|4d7bbd63] (15+20/51) Accurately ripped
07 [da7245fe|f9c50a79] (16+20/52) Accurately ripped
08 [4dac903c|f204a122] (15+20/51) Accurately ripped
09 [0265516f|c98010ad] (14+20/50) Accurately ripped
10 [99613c1a|3aa7e3cd] (15+20/51) Accurately ripped
11 [eb9e3b6b|adb28017] (15+20/51) Accurately ripped
12 [96f0e5f5|37d0f203] (15+20/51) Accurately ripped
Offsetted by -2082:
01 [4c85a4f3] (04/50) Accurately ripped
02 [7a1bacc7] (04/52) Accurately ripped
03 [577b272a] (04/51) Accurately ripped
04 [559df9a6] (04/52) Accurately ripped
05 [21941c11] (04/51) Accurately ripped
06 [7c0c5a65] (04/51) Accurately ripped
07 [f276eeec] (04/52) Accurately ripped
08 [b0a37974] (04/51) Accurately ripped
09 [4e453d47] (04/50) Accurately ripped
10 [2a698688] (04/51) Accurately ripped
11 [125e4147] (04/51) Accurately ripped
12 [29ff1d25] (04/51) Accurately ripped
Offsetted by -669:
01 [9304ba2d] (04/50) Accurately ripped
02 [edf008cd] (04/52) Accurately ripped
03 [7767684c] (04/51) Accurately ripped
04 [61a79172] (04/52) Accurately ripped
05 [4e6201e6] (03/51) Accurately ripped
06 [43abb53c] (04/51) Accurately ripped
07 [d8f13049] (04/52) Accurately ripped
08 [b9d4cd28] (04/51) Accurately ripped
09 [27516b6b] (04/50) Accurately ripped
10 [e2e91025] (04/51) Accurately ripped
11 [0bfd2201] (04/51) Accurately ripped
12 [9a2472cc] (04/51) Accurately ripped
Offsetted by -1333:
01 [7410927d] (00/50) No match (V2 was not tested)
02 [4ef80a7d] (00/52) No match (V2 was not tested)
03 [592f19dc] (00/51) No match (V2 was not tested)
04 [030a82d2] (00/52) No match (V2 was not tested)
05 [6db015ce] (00/51) No match (V2 was not tested)
06 [8a0211b4] (00/51) No match (V2 was not tested)
07 [2ade8271] (00/52) No match (V2 was not tested)
08 [9b6c17c8] (00/51) No match (V2 was not tested)
09 [70b3258b] (00/50) No match (V2 was not tested)
10 [75beb44d] (00/51) No match (V2 was not tested)
11 [52623651] (00/51) No match (V2 was not tested)
12 [b7817e44] (00/51) No match (V2 was not tested)

Track Peak [ CRC32 ] [W/O NULL] [ LOG ]
– 100,0 [F14A9599] [66CC4CA0]
01 100,0 [46DA0349] [841C97B9] W/O NULL
02 89,1 [5AD3C0BD] [D5E03856] W/O NULL
03 94,4 [E113D045] [F566B09D] W/O NULL
04 100,0 [8A40AEFC] [10487FB4] W/O NULL
05 100,0 [4A873E5A] [0DB8885B] W/O NULL
06 100,0 [22C11D71] [8A492F79] W/O NULL
07 100,0 [8A090C59] [80351055] W/O NULL
08 100,0 [2C0E2388] [39FB64FC] W/O NULL
09 100,0 [C7B54A73] [8FF93C5F] W/O NULL
10 100,0 [70B8367F] [05C29482] W/O NULL
11 100,0 [1CD6E030] [C5F6D6E7] W/O NULL
12 100,0 [527D9B93] [9437FC37] W/O NULL

Thanks to the original releaser

See also: