Subcategories

Ella Fitzgerald & Cole Porter - Dream Dancing (1978) [Reissue 2002]

Posted By: gribovar
Ella Fitzgerald & Cole Porter - Dream Dancing (1978) [Reissue 2002]

Ella Fitzgerald & Cole Porter - Dream Dancing (1978) [Reissue 2002]
EAC Rip | FLAC (tracks+.cue+log) - 312 MB | MP3 CBR 320 kbps (LAME 3.93) - 119 MB | Covers (4 MB) included
Genre: Vocal Jazz | RAR 3% Rec. | Label: Pablo Records (00025218707220)

Originally released on Atlantic as Ella Loves Cole and then reissued on Pablo with two extra cuts from 1978, this set features the great Ella Fitzgerald (still in excellent form) backed by an orchestra arranged by Nelson Riddle performing an extensive set of Cole Porter songs. Fifteen years earlier Fitzgerald had had great success with her Cole Porter Songbook and this date, even with a few hokey arrangements, almost reaches the same level. Trumpeter Harry "Sweets" Edison and pianist Tommy Flanagan are among the supporting cast. Highlights include "I Get a Kick out of You," "I've Got You Under My Skin," "All of You," "My Heart Belongs to Daddy" and "Just One of Those Things."
Tracklist:
01. Dream Dancing
02. I've Got You Under My Skin
03. I Concentrate on You
04. My Heart Belongs to Daddy
05. Love for Sale
06. So Near and Yet So Far
07. Down in the Depths
08. After You
09. Just One of Those Things
10. I Get a Kick out of You
11. All of You
12. Anything Goes
13. At Long Last Love
14. C'est Magnifique
15. Without Love

Total time: 48:52

Exact Audio Copy V0.99 prebeta 5 from 4. May 2009

EAC extraction logfile from 23. November 2009, 0:32

Ella Fitzgerald & Cole Porter / Dream Dancing

Used drive : PLEXTOR CD-R PREMIUM2 Adapter: 1 ID: 1

Read mode : Secure
Utilize accurate stream : Yes
Defeat audio cache : Yes
Make use of C2 pointers : No

Read offset correction : 30
Overread into Lead-In and Lead-Out : No
Fill up missing offset samples with silence : Yes
Delete leading and trailing silent blocks : No
Null samples used in CRC calculations : Yes
Used interface : Installed external ASPI interface
Gap handling : Appended to previous track

Used output format : User Defined Encoder
Selected bitrate : 32 kBit/s
Quality : High
Add ID3 tag : No
Command line compressor : C:\Programmi\FLAC\flac.exe
Additional command line options : -8 -V -T "ARTIST=%a" -T "TITLE=%t" -T "ALBUM=%g" -T "DATE=%y" -T "TRACKNUMBER=%n" -T "GENRE=%m" -T "COMMENT=EAC FLAC -8" %s


TOC of the extracted CD

Track | Start | Length | Start sector | End sector
––––––––––––––––––––––––––––-
1 | 0:00.00 | 4:02.60 | 0 | 18209
2 | 4:02.60 | 3:17.28 | 18210 | 33012
3 | 7:20.13 | 4:06.12 | 33013 | 51474
4 | 11:26.25 | 2:33.23 | 51475 | 62972
5 | 13:59.48 | 4:36.45 | 62973 | 83717
6 | 18:36.18 | 2:21.70 | 83718 | 94362
7 | 20:58.13 | 3:40.27 | 94363 | 110889
8 | 24:38.40 | 3:14.08 | 110890 | 125447
9 | 27:52.48 | 3:53.50 | 125448 | 142972
10 | 31:46.23 | 4:21.20 | 142973 | 162567
11 | 36:07.43 | 2:18.10 | 162568 | 172927
12 | 38:25.53 | 2:51.57 | 172928 | 185809
13 | 41:17.35 | 2:27.08 | 185810 | 196842
14 | 43:44.43 | 2:32.32 | 196843 | 208274
15 | 46:17.00 | 2:46.55 | 208275 | 220779


Track 1

Filename D:\My Rip\01 - Dream Dancing.wav

Pre-gap length 0:00:02.00

Peak level 99.9 %
Track quality 100.0 %
Test CRC 4B01D605
Copy CRC 4B01D605
Cannot be verified as accurate (confidence 1) [9EA104D1], AccurateRip returned [BEB79C91]
Copy OK

Track 2

Filename D:\My Rip\02 - I've Got You Under My Skin.wav

Pre-gap length 0:00:02.60

Peak level 99.9 %
Track quality 100.0 %
Test CRC 89ADC638
Copy CRC 89ADC638
Cannot be verified as accurate (confidence 1) [CA91B6F9], AccurateRip returned [F4E9D1F1]
Copy OK

Track 3

Filename D:\My Rip\03 - I Concentrate On You.wav

Pre-gap length 0:00:02.80

Peak level 89.0 %
Track quality 100.0 %
Test CRC 6976C175
Copy CRC 6976C175
Cannot be verified as accurate (confidence 1) [5E322DF0], AccurateRip returned [EA3D3248]
Copy OK

Track 4

Filename D:\My Rip\04 - My Heart Belongs To Daddy.wav

Pre-gap length 0:00:04.20

Peak level 99.9 %
Track quality 100.0 %
Test CRC B082BB6A
Copy CRC B082BB6A
Cannot be verified as accurate (confidence 1) [93E043C4], AccurateRip returned [E34ED8BC]
Copy OK

Track 5

Filename D:\My Rip\05 - Love For Sale.wav

Pre-gap length 0:00:02.86

Peak level 95.4 %
Track quality 99.9 %
Test CRC F0238F23
Copy CRC F0238F23
Cannot be verified as accurate (confidence 1) [0CFD264D], AccurateRip returned [D2165F35]
Copy OK

Track 6

Filename D:\My Rip\06 - So Near And Yet So Far.wav

Pre-gap length 0:00:03.00

Peak level 87.0 %
Track quality 100.0 %
Test CRC 66F213E5
Copy CRC 66F213E5
Cannot be verified as accurate (confidence 1) [1F378A52], AccurateRip returned [FDBBA46A]
Copy OK

Track 7

Filename D:\My Rip\07 - Down In The Depth.wav

Pre-gap length 0:00:02.97

Peak level 75.2 %
Track quality 100.0 %
Test CRC 269AA95D
Copy CRC 269AA95D
Cannot be verified as accurate (confidence 1) [AB43EC45], AccurateRip returned [9427ADED]
Copy OK

Track 8

Filename D:\My Rip\08 - After You.wav

Pre-gap length 0:00:03.02

Peak level 99.9 %
Track quality 100.0 %
Test CRC 076B97ED
Copy CRC 076B97ED
Cannot be verified as accurate (confidence 1) [2FFA7E19], AccurateRip returned [A0477BF9]
Copy OK

Track 9

Filename D:\My Rip\09 - Just One Of Those Things.wav

Pre-gap length 0:00:03.73

Peak level 80.3 %
Track quality 100.0 %
Test CRC B088AAF1
Copy CRC B088AAF1
Cannot be verified as accurate (confidence 1) [FFD7E078], AccurateRip returned [E6F48F18]
Copy OK

Track 10

Filename D:\My Rip\10 - I Get A Kick Out Of You.wav

Pre-gap length 0:00:02.73

Peak level 99.9 %
Track quality 100.0 %
Test CRC BEF9DCDD
Copy CRC BEF9DCDD
Cannot be verified as accurate (confidence 1) [AB8CA6FF], AccurateRip returned [C9D74C37]
Copy OK

Track 11

Filename D:\My Rip\11 - All Of You.wav

Pre-gap length 0:00:03.66

Peak level 85.1 %
Track quality 99.9 %
Test CRC 675D54F2
Copy CRC 675D54F2
Cannot be verified as accurate (confidence 1) [F47930AD], AccurateRip returned [ECE71DFD]
Copy OK

Track 12

Filename D:\My Rip\12 - Anything Goes.wav

Pre-gap length 0:00:03.50

Peak level 92.2 %
Track quality 100.0 %
Test CRC FC3CBC55
Copy CRC FC3CBC55
Cannot be verified as accurate (confidence 1) [B481E154], AccurateRip returned [02C454AC]
Copy OK

Track 13

Filename D:\My Rip\13 - At Long Last Love.wav

Pre-gap length 0:00:03.46

Peak level 85.1 %
Track quality 99.9 %
Test CRC D0F851D5
Copy CRC D0F851D5
Cannot be verified as accurate (confidence 1) [E489539A], AccurateRip returned [11BE64F2]
Copy OK

Track 14

Filename D:\My Rip\14 - C'est Magnifique.wav

Pre-gap length 0:00:02.97

Peak level 97.7 %
Track quality 99.9 %
Test CRC C605A45A
Copy CRC C605A45A
Cannot be verified as accurate (confidence 1) [7D4EC287], AccurateRip returned [3CDEDA47]
Copy OK

Track 15

Filename D:\My Rip\15 - Without Love.wav

Pre-gap length 0:00:03.56

Peak level 92.2 %
Track quality 99.9 %
Test CRC 9CA634F4
Copy CRC 9CA634F4
Cannot be verified as accurate (confidence 1) [762CA825], AccurateRip returned [7CCDCE88]
Copy OK


No tracks could be verified as accurate
You may have a different pressing from the one(s) in the database

No errors occurred

End of status report

[CUETools log; Date: 16.01.2018 21:13:02; Version: 2.1.4]
[CTDB TOCID: DNnhSdPNLQXVL2v.FBzyAJQRMvA-] found.
Track | CTDB Status
1 | (11/11) Accurately ripped
2 | (11/11) Accurately ripped
3 | (11/11) Accurately ripped
4 | (11/11) Accurately ripped
5 | (11/11) Accurately ripped
6 | (11/11) Accurately ripped
7 | (11/11) Accurately ripped
8 | (11/11) Accurately ripped
9 | (11/11) Accurately ripped
10 | (11/11) Accurately ripped
11 | (11/11) Accurately ripped
12 | (10/11) Accurately ripped
13 | (11/11) Accurately ripped
14 | (11/11) Accurately ripped
15 | (11/11) Accurately ripped
[AccurateRip ID: 001c89bb-013fc475-db0b7f0f] found.
Track [ CRC | V2 ] Status
01 [9ea104d1|ecb2d714] (4+3/9) Accurately ripped
02 [ca91b6f9|f7027508] (4+3/9) Accurately ripped
03 [5e322df0|3d4491bb] (4+3/9) Accurately ripped
04 [93e043c4|127b47c2] (4+3/9) Accurately ripped
05 [0cfd264d|f4ece41a] (4+3/9) Accurately ripped
06 [1f378a52|a4a65d2a] (4+3/9) Accurately ripped
07 [ab43ec45|8b3910e1] (4+3/9) Accurately ripped
08 [2ffa7e19|fca2181c] (4+3/9) Accurately ripped
09 [ffd7e078|f9c21cb6] (4+3/9) Accurately ripped
10 [ab8ca6ff|7899db61] (4+3/9) Accurately ripped
11 [f47930ad|6a00c3b5] (4+3/9) Accurately ripped
12 [b481e154|86e3c7f2] (4+3/9) Accurately ripped
13 [e489539a|f5edb9b4] (4+3/9) Accurately ripped
14 [7d4ec287|c3a4d7d9] (4+3/9) Accurately ripped
15 [762ca825|f79fd386] (4+3/9) Accurately ripped
Offsetted by 664:
01 [beb79c91] (0/9) No match (V2 was not tested)
02 [f4e9d1f1] (0/9) No match (V2 was not tested)
03 [ea3d3248] (0/9) No match (V2 was not tested)
04 [e34ed8bc] (0/9) No match (V2 was not tested)
05 [d2165f35] (0/9) No match (V2 was not tested)
06 [fdbba46a] (0/9) No match (V2 was not tested)
07 [9427aded] (0/9) No match (V2 was not tested)
08 [a0477bf9] (0/9) No match (V2 was not tested)
09 [e6f48f18] (0/9) No match (V2 was not tested)
10 [c9d74c37] (0/9) No match (V2 was not tested)
11 [ece71dfd] (0/9) No match (V2 was not tested)
12 [02c454ac] (0/9) No match (V2 was not tested)
13 [11be64f2] (0/9) No match (V2 was not tested)
14 [3cdeda47] (0/9) No match (V2 was not tested)
15 [7ccdce88] (0/9) No match (V2 was not tested)

Track Peak [ CRC32 ] [W/O NULL] [ LOG ]
– 99,9 [9EB5F4EC] [F7AC9885]
01 99,9 [4B01D605] [44836FA5] CRC32
02 99,9 [89ADC638] [7E5BE610] CRC32
03 89,0 [6976C175] [706F0C8B] CRC32
04 99,9 [B082BB6A] [1F9854F1] CRC32
05 95,4 [F0238F23] [D323293E] CRC32
06 87,0 [66F213E5] [9F0E0F1E] CRC32
07 75,2 [269AA95D] [830D8961] CRC32
08 99,9 [076B97ED] [9D80DBA5] CRC32
09 80,3 [B088AAF1] [2D2360E5] CRC32
10 99,9 [BEF9DCDD] [7B111F73] CRC32
11 85,1 [675D54F2] [C9BF7466] CRC32
12 92,2 [FC3CBC55] [CE2DF0DF] CRC32
13 85,1 [D0F851D5] [22168611] CRC32
14 97,7 [C605A45A] [4D0C2B0A] CRC32
15 92,2 [9CA634F4] [312BCBA4] CRC32

Thanks to Sarchiapone

See also: