Subcategories

Elmore James - The Classic Early Recordings 1951-1956 (1993/2007, 3CD Box Set, Remastered, Reissue)

Posted By: popsakov
Elmore James - The Classic Early Recordings 1951-1956 (1993/2007, 3CD Box Set, Remastered, Reissue)

Elmore James - The Classic Early Recordings 1951-1956 (1993/2007)
3CD | XLD Rip | FLAC (Img) + Cue + Log ~ 552 Mb | MP3 CBR320 ~ 462 Mb
Scans (PNG, 300 dpi) ~ 150 Mb | RAR 5% Recovery
Blues | Ace Records #ABOXCD 4

Elmore James was an American blues guitarist, singer, songwriter and band leader. He was known as King of the Slide Guitar, but he was also noted for his use of loud amplification and his stirring voice.
The definitive early recordings of Elmore James, the man who changed the face of post-war slide guitar, return to the Ace catalogue with this 3CD set. A huge influence on the Rolling Stones, the Yardbirds and Fleetwood Mac, as well as being a giant on the blues scene, this set contains 71 tracks from Elmore's recordings for the Meteor, Flair and Modern labels, as well as the classic 'Dust My Broom' for Trumpet. The set includes many previously unknown and unreleased takes, plus an illustrated 40-page booklet.
–––––––––––––––

Although a few hardcore electric Chicago blues fans might take offense at the remark, Elmore James' work does not comprise the most varied discography among major bluesmen. So a single-disc survey of his material, whether it covers the first five years or so of his career (as this three-CD anthology does) or a longer period, works better as both a general introduction and a more listenable compilation than a box set does. If you're a completist who does want everything known to exist that he laid down in the studio between August 1951 and January 1956, however, this 71-track compilation is the most thorough retrospective of that era likely to be produced. In addition to including songs that were not issued in any form until after his death (and sometimes long after his passing), there are multiple takes of specific tunes, alternates, false starts, studio chatter, instrumental version, songs on which he guested for J.T. Brown and Little Johnny Jones, and so forth. Indeed, there are so many multiple versions on this release that even the liner notes take care to suggest custom-programming the CD sequence if you'd rather not hear them all in a row. For all the if-we-can-find-it-release-it mentality driving this collection, however, it really is pretty listenable, at least if you like James and early- to mid-'50s Chicago blues a lot. For one thing, it does include a couple of big hits, those being James' original 1952 version of "Dust My Broom" and the 1953 Top Ten R&B hit "I Believe." More relevantly, James played and sang consistently well even on the material that languished in the vault. Plus all those multiple versions aren't wholly repetitive; James occasionally makes changes to the lyrics and music, though the similarity of style from song to song is prevalent enough that you have to be paying close attention to catch all of these. Some fans primarily familiar with James through his Delta-soaked electric slide guitar playing (and there's plenty of that here) will also be surprised at the commercial R&B edge to many of the sides, though it's commercial in the better sense of that term, often with horns and piano urbanizing James' approach. The 40-page booklet has a wealth of information, vintage photos, and a detailed sessionography, increasing its appeal to those who want all things James. (Initially released in 1993 in long-box packaging, The Classic Early Recordings 1951-1956 was reissued by Ace in 2007 as a standard-sized three-CD set with a different cover.)
~ Richie Unterberger, All Music Guide

Biography

No two ways about it, the most influential slide guitarist of the postwar period was Elmore James, hands down. Although his early demise from heart failure kept him from enjoying the fruits of the '60s blues revival as his contemporaries Muddy Waters and Howlin' Wolf did, James left a wide influential trail behind him. And that influence continues to the present time – in approach, attitude and tone – in just about every guitar player who puts a slide on his finger and wails the blues. As a guitarist, he wrote the book, his slide style influencing the likes of Hound Dog Taylor, Joe Carter, his cousin Homesick James and J.B. Hutto, while his seldom-heard single-string work had an equally profound effect on B.B. King and Chuck Berry. His signature lick – an electric updating of Robert Johnson's "I Believe I'll Dust My Broom" and one that Elmore recorded in infinite variations from day one to his last session – is so much a part of the essential blues fabric of guitar licks that no one attempting to play slide guitar can do it without being compared to Elmore James. Others may have had more technique – Robert Nighthawk and Earl Hooker immediately come to mind – but Elmore had the sound and all the feeling.

A radio repairman by trade, Elmore reworked his guitar amplifiers in his spare time, getting them to produce raw, distorted sounds that wouldn't resurface until the advent of heavy rock amplification in the late '60s. This amp-on-11-approach was hot-wired to one of the strongest emotional approaches to the blues ever recorded. There is never a time when you're listening to one of his records that you feel – no matter how familiar the structure – that he's phoning it in just to grab a quick session check. Elmore James always gave it everything he had, everything he could emotionally invest in a number. This commitment of spirit is something that shows up time and again when listening to multiple takes from his session masters. The sheer repetitiveness of the recording process would dim almost anyone's creative fires, but Elmore always seemed to give it 100 percent every time the red light went on. Few blues singers had a voice that could compete with James'; it was loud, forceful, prone to "catch" or break up in the high registers, almost sounding on the verge of hysteria at certain moments. Evidently the times back in the mid-'30s when Elmore had first-hand absorption of Robert Johnson as a playing companion had a deep influence on him, not only in his choice of material, but also in his presentation of it.

Backing the twin torrents of Elmore's guitar and voice was one of the greatest – and earliest – Chicago blues bands. Named after James' big hit, the Broomdusters featured Little Johnny Jones on piano, J.T. Brown on tenor sax and Elmore's cousin, Homesick James on rhythm guitar. This talented nucleus was often augmented by a second saxophone on occasion while the drumming stool changed frequently. But this was the band that could go toe to toe in a battle of the blues against the bands of Muddy Waters or Howlin' Wolf and always hold their own, if not walk with the show. Utilizing a stomping beat, Elmore's slashing guitar, Jones' two-fisted piano delivery, Homesick's rudimentary boogie bass rhythm and Brown's braying nanny-goat sax leads, the Broomdusters were as loud and powerful and popular as any blues band the Windy City had to offer.

But as urban as their sound was, it all had roots in Elmore's hometown of Canton, MS. He was born there on January 27, 1918, the illegitimate son of Leola Brooks and later given the surname of his stepfather, Joe Willie James. He adapted to music at an early age, learning to play bottleneck on a homemade instrument fashioned out of a broom handle and a lard can. By the age of 14, he was already a weekend musician, working the various country suppers and juke joints in the area under the names "Cleanhead" or Joe' Willie James." Although he confined himself to a home base area around Belzoni, he would join up and work with traveling players coming through like Robert Johnson, Howlin' Wolf and Sonny Boy Williamson. By the late '30s he had formed his first band and was working the Southern state area with Sonny Boy until the second world war broke out, spending three years stationed with the Navy in Guam. When he was discharged, he picked off where he left off, moving for a while to Memphis, working in clubs with Eddie Taylor and his cousin Homesick James. Elmore was also one of the first "guest stars" on the popular King Biscuit Time radio show on KFFA in Helena, AL, also doing stints on the Talaho Syrup show on Yazoo City's WAZF and the Hadacol show on KWEM in West Memphis.

Nervous and unsure of his abilities as a recording artist, Elmore was surreptitiously recorded by Lillian McMurray of Trumpet Records at the tail end of a Sonny Boy session doing his now-signature tune, "Dust My Broom." Legend has it that James didn't even stay around long enough to hear the playback, much less record a second side. McMurray stuck a local singer (BoBo "Slim" Thomas) on the flip side and the record became the surprise R&B hit of 1951, making the Top Ten and conversely making a recording star out of Elmore. With a few months left on his Trumpet contract, Elmore was recorded by the Bihari Brothers for their Modern label subsidiaries, Flair and Meteor, but the results were left in the can until James' contract ran out. In the meantime, Elmore had moved to Chicago and cut a quick session for Chess, which resulted in one single being issued and just as quickly yanked off the market as the Bihari Brothers swooped in to protect their investment. This period of activity found Elmore assembling the nucleus of his great band the Broomdusters and several fine recordings were issued over the next few years on a plethora of the Bihari Brothers'owned labels with several of them charting and most all of them becoming certified blues classics.

By this time James had established a beach-head in the clubs of Chicago as one of the most popular live acts and regularly broadcasting over WPOA under the aegis of disc jockey Big Bill Hill. In 1957, with his contract with the Bihari Brothers at an end, he recorded several successful sides for Mel London's Chief label, all of them later being issued on the larger Vee-Jay label. His health – always in a fragile state due to a recurring heart condition – would send him back home to Jackson, MS, where he temporarily set aside his playing for work as a disc jockey or radio repair man. He came back to Chicago to record a session for Chess, then just as quickly broke contract to sign with Bobby Robinson's Fire label, producing the classic "The Sky Is Crying" and numerous others. Running afoul with the Chicago musician's union, he returned back to Mississippi, doing sessions in New York and New Orleans waiting for Big Bill Hill to sort things out. In May of 1963, Elmore returned to Chicago, ready to resume his on-again off-again playing career – his records were still being regularly issued and reissued on a variety of labels – when he suffered his final heart attack. His wake was attended by over 400 blues luminaries before his body was shipped back to Mississippi. He was elected to the Blues Foundation's Hall of Fame in 1980 and was later elected to the Rock & Roll Hall of Fame as a seminal influence. Elmore James may not have lived to reap the rewards of the blues revival, but his music and influence continues to resonate.
~ Cub Koda, All Music Guide

***************

Elmore James - The Classic Early Recordings 1951-1956 (1993/2007, 3CD Box Set, Remastered, Reissue)

Track List Disc One - Canton Crusade:

01. Dust My Broom [02:48]
02. Please Find My Baby (version 1) [03:05]
03. Hawaiian Boogie [02:41]
04. Please Find My Baby (version 2) [03:09]
05. Hand in Hand [02:53]
06. Long Tall Woman [02:58]
07. Rock My Baby Right [02:52]
08. One More Drink (take 1) [03:06]
09. My Baby's Gone [02:25]
10. One More Drink (take 2) [03:17]
11. Lost Woman Blues (Aka Please Find My Baby) (version 3) [03:17]
12. I Believe [03:18]
13. I Held My Baby Last Night [03:32]
14. Baby What's Wrong [02:54]
15. Sinful Woman [02:53]
16. Round House Boogie (Aka Sax Symphonic Boogie) [02:48]
17. Dumb Woman Blues [03:13]
18. Sax-Only Boogie [02:37]
19. Kicking the Blues Around (Aka Flaming Blues) [02:57]
20. I May Be Wrong [02:52]
21. Sweet Little Woman [03:01]

X Lossless Decoder version 20121222 (142.2)

XLD extraction logfile from 2013-01-11 16:45:30 +0200

Elmore James / Canton Crusade

Used drive : MATSHITA DVD-R UJ-898 (revision HC09)
Media type : Pressed CD

Ripper mode : XLD Secure Ripper
Disable audio cache : OK for the drive with a cache less than 1375KiB
Make use of C2 pointers : NO
Read offset correction : 102
Max retry count : 20
Gap status : Analyzed, Appended

TOC of the extracted CD
Track | Start | Length | Start sector | End sector
––––––––––––––––––––––––––––-
1 | 00:00:38 | 02:47:67 | 38 | 12629
2 | 02:48:30 | 03:04:43 | 12630 | 26472
3 | 05:52:73 | 02:40:12 | 26473 | 38484
4 | 08:33:10 | 03:08:48 | 38485 | 52632
5 | 11:41:58 | 02:52:67 | 52633 | 65599
6 | 14:34:50 | 02:57:03 | 65600 | 78877
7 | 17:31:53 | 02:51:32 | 78878 | 91734
8 | 20:23:10 | 03:05:70 | 91735 | 105679
9 | 23:29:05 | 02:24:18 | 105680 | 116497
10 | 25:53:23 | 03:16:70 | 116498 | 131267
11 | 29:10:18 | 03:16:50 | 131268 | 146017
12 | 32:26:68 | 03:17:65 | 146018 | 160857
13 | 35:44:58 | 03:31:37 | 160858 | 176719
14 | 39:16:20 | 02:53:53 | 176720 | 189747
15 | 42:09:73 | 02:52:67 | 189748 | 202714
16 | 45:02:65 | 02:47:28 | 202715 | 215267
17 | 47:50:18 | 03:12:17 | 215268 | 229684
18 | 51:02:35 | 02:36:65 | 229685 | 241449
19 | 53:39:25 | 02:56:68 | 241450 | 254717
20 | 56:36:18 | 02:51:72 | 254718 | 267614
21 | 59:28:15 | 03:00:23 | 267615 | 281137

List of alternate offset correction values
# | Absolute | Relative | Confidence
–––––––––––––––––––––
1 | 114 | 12 | 6

AccurateRip Summary (DiscID: 002f161b-02d40509-150ea415)
Track 01 : OK (v1, confidence 6/6, with different offset)
Track 02 : OK (v1, confidence 5/5, with different offset)
Track 03 : OK (v1, confidence 5/5, with different offset)
Track 04 : OK (v1, confidence 6/6, with different offset)
Track 05 : OK (v1, confidence 6/6, with different offset)
Track 06 : OK (v1, confidence 6/6, with different offset)
Track 07 : OK (v1, confidence 6/6, with different offset)
Track 08 : OK (v1, confidence 5/5, with different offset)
Track 09 : OK (v1, confidence 5/5, with different offset)
Track 10 : OK (v1, confidence 6/6, with different offset)
Track 11 : OK (v1, confidence 5/5, with different offset)
Track 12 : OK (v1, confidence 6/6, with different offset)
Track 13 : OK (v1, confidence 6/6, with different offset)
Track 14 : OK (v1, confidence 6/6, with different offset)
Track 15 : OK (v1, confidence 6/6, with different offset)
Track 16 : OK (v1, confidence 5/5, with different offset)
Track 17 : OK (v1, confidence 5/5, with different offset)
Track 18 : OK (v1, confidence 5/5, with different offset)
Track 19 : OK (v1, confidence 5/5, with different offset)
Track 20 : OK (v1, confidence 5/5, with different offset)
Track 21 : OK (v1, confidence 5/5, with different offset)
->All tracks accurately ripped.

All Tracks
Filename : /Users/Home/Music/Music/myRips/elmore james-the classic early recordings-51-56/CD1-Canton Crusade/Elmore James - Canton Crusade .flac
Album gain : -6.26 dB
Peak : 0.959167
CRC32 hash (test run) : 2F64AE5B
CRC32 hash : 2F64AE5B
CRC32 hash (skip zero) : 4B561AA2
Statistics
Read error : 0
Jitter error (maybe fixed) : 0
Retry sector count : 0
Damaged sector count : 0

Track 01
Pre-gap length : 00:02:38

Track gain : -8.01 dB
Peak : 0.928162
CRC32 hash (test run) : 45701176
CRC32 hash : 45701176
CRC32 hash (skip zero) : 85E66E66
AccurateRip v1 signature : 21A9522D (D749705D w/correction)
AccurateRip v2 signature : 7F8D7D34
->Accurately ripped with different offset (v1, confidence 6/6, offset +12)
Statistics
Read error : 0
Jitter error (maybe fixed) : 0
Retry sector count : 0
Damaged sector count : 0

Track 02
Pre-gap length : 00:03:02

Track gain : -7.64 dB
Peak : 0.905396
CRC32 hash (test run) : D2672679
CRC32 hash : D2672679
CRC32 hash (skip zero) : 68704F7C
AccurateRip v1 signature : 259DD442 (D6C413A2 w/correction)
AccurateRip v2 signature : 0FDA8D73
->Accurately ripped with different offset (v1, confidence 5/5, offset +12)
Statistics
Read error : 0
Jitter error (maybe fixed) : 0
Retry sector count : 0
Damaged sector count : 0

Track 03
Pre-gap length : 00:02:68

Track gain : -3.88 dB
Peak : 0.877747
CRC32 hash (test run) : 0E4B44A9
CRC32 hash : 0E4B44A9
CRC32 hash (skip zero) : 8210C993
AccurateRip v1 signature : CB2C3B7E (7C09E0DE w/correction)
AccurateRip v2 signature : BE5EDE0F
->Accurately ripped with different offset (v1, confidence 5/5, offset +12)
Statistics
Read error : 0
Jitter error (maybe fixed) : 0
Retry sector count : 0
Damaged sector count : 0

Track 04
Pre-gap length : 00:03:25

Track gain : -6.17 dB
Peak : 0.682465
CRC32 hash (test run) : D8E7FEE1
CRC32 hash : D8E7FEE1
CRC32 hash (skip zero) : E436B6F6
AccurateRip v1 signature : 7591EEFE (3D76F10E w/correction)
AccurateRip v2 signature : A35EDCDA
->Accurately ripped with different offset (v1, confidence 6/6, offset +12)
Statistics
Read error : 0
Jitter error (maybe fixed) : 0
Retry sector count : 0
Damaged sector count : 0

Track 05
Pre-gap length : 00:05:43

Track gain : -6.23 dB
Peak : 0.733551
CRC32 hash (test run) : 2BCD19FD
CRC32 hash : 2BCD19FD
CRC32 hash (skip zero) : 87F87380
AccurateRip v1 signature : 919BAE6C (BD159064 w/correction)
AccurateRip v2 signature : 491496A0
->Accurately ripped with different offset (v1, confidence 6/6, offset +12)
Statistics
Read error : 0
Jitter error (maybe fixed) : 0
Retry sector count : 0
Damaged sector count : 0

Track 06
Pre-gap length : 00:03:47

Track gain : -5.57 dB
Peak : 0.714081
CRC32 hash (test run) : 52FD285C
CRC32 hash : 52FD285C
CRC32 hash (skip zero) : DB07253B
AccurateRip v1 signature : 3A2BB605 (A6DB0F41 w/correction)
AccurateRip v2 signature : 7343D303
->Accurately ripped with different offset (v1, confidence 6/6, offset +12)
Statistics
Read error : 0
Jitter error (maybe fixed) : 0
Retry sector count : 0
Damaged sector count : 0

Track 07
Pre-gap length : 00:03:30

Track gain : -6.88 dB
Peak : 0.847656
CRC32 hash (test run) : 75C5F845
CRC32 hash : 75C5F845
CRC32 hash (skip zero) : 3E81203D
AccurateRip v1 signature : 5DFF7918 (699EDE78 w/correction)
AccurateRip v2 signature : 1351CFE8
->Accurately ripped with different offset (v1, confidence 6/6, offset +12)
Statistics
Read error : 0
Jitter error (maybe fixed) : 0
Retry sector count : 0
Damaged sector count : 0

Track 08
Pre-gap length : 00:03:25

Track gain : -5.06 dB
Peak : 0.702362
CRC32 hash (test run) : 02C222B8
CRC32 hash : 02C222B8
CRC32 hash (skip zero) : DC3BA422
AccurateRip v1 signature : 5D2B73A4 (30DCD45C w/correction)
AccurateRip v2 signature : 55460B5A
->Accurately ripped with different offset (v1, confidence 5/5, offset +12)
Statistics
Read error : 0
Jitter error (maybe fixed) : 0
Retry sector count : 0
Damaged sector count : 0

Track 09
Pre-gap length : 00:04:07

Track gain : -6.53 dB
Peak : 0.861847
CRC32 hash (test run) : 6865DFDE
CRC32 hash : 6865DFDE
CRC32 hash (skip zero) : 912A27E6
AccurateRip v1 signature : 71767212 (5122DF2A w/correction)
AccurateRip v2 signature : 27C13516
->Accurately ripped with different offset (v1, confidence 5/5, offset +12)
Statistics
Read error : 0
Jitter error (maybe fixed) : 0
Retry sector count : 0
Damaged sector count : 0

Track 10
Pre-gap length : 00:04:03

Track gain : -6.36 dB
Peak : 0.959167
CRC32 hash (test run) : 37A0C2B1
CRC32 hash : 37A0C2B1
CRC32 hash (skip zero) : E98BAB2C
AccurateRip v1 signature : 14884665 (D1EAE37D w/correction)
AccurateRip v2 signature : 7459DBCA
->Accurately ripped with different offset (v1, confidence 6/6, offset +12)
Statistics
Read error : 0
Jitter error (maybe fixed) : 0
Retry sector count : 0
Damaged sector count : 0

Track 11
Pre-gap length : 00:01:58

Track gain : -7.19 dB
Peak : 0.848297
CRC32 hash (test run) : 6BAA2DF5
CRC32 hash : 6BAA2DF5
CRC32 hash (skip zero) : 751EED32
AccurateRip v1 signature : C4F1AD70 (C39523D8 w/correction)
AccurateRip v2 signature : 85B273EC
->Accurately ripped with different offset (v1, confidence 5/5, offset +12)
Statistics
Read error : 0
Jitter error (maybe fixed) : 0
Retry sector count : 0
Damaged sector count : 0

Track 12
Pre-gap length : 00:03:28

Track gain : -7.18 dB
Peak : 0.874023
CRC32 hash (test run) : 8F006377
CRC32 hash : 8F006377
CRC32 hash (skip zero) : 8281419A
AccurateRip v1 signature : 970A1130 (F37AAD44 w/correction)
AccurateRip v2 signature : 977822EE
->Accurately ripped with different offset (v1, confidence 6/6, offset +12)
Statistics
Read error : 0
Jitter error (maybe fixed) : 0
Retry sector count : 0
Damaged sector count : 0

Track 13
Pre-gap length : 00:03:48

Track gain : -5.91 dB
Peak : 0.839050
CRC32 hash (test run) : E130F336
CRC32 hash : E130F336
CRC32 hash (skip zero) : AB8EA474
AccurateRip v1 signature : 124F7E29 (69FE0B05 w/correction)
AccurateRip v2 signature : A4867846
->Accurately ripped with different offset (v1, confidence 6/6, offset +12)
Statistics
Read error : 0
Jitter error (maybe fixed) : 0
Retry sector count : 0
Damaged sector count : 0

Track 14
Pre-gap length : 00:05:42

Track gain : -8.09 dB
Peak : 0.922485
CRC32 hash (test run) : 6CF6E226
CRC32 hash : 6CF6E226
CRC32 hash (skip zero) : 752BDC65
AccurateRip v1 signature : 035C4DBC (20614364 w/correction)
AccurateRip v2 signature : 6531E0D5
->Accurately ripped with different offset (v1, confidence 6/6, offset +12)
Statistics
Read error : 0
Jitter error (maybe fixed) : 0
Retry sector count : 0
Damaged sector count : 0

Track 15
Pre-gap length : 00:03:30

Track gain : -6.32 dB
Peak : 0.945709
CRC32 hash (test run) : BD5B53F0
CRC32 hash : BD5B53F0
CRC32 hash (skip zero) : 5059EE61
AccurateRip v1 signature : 3382E5A1 (7E1B9D1D w/correction)
AccurateRip v2 signature : F31DCB61
->Accurately ripped with different offset (v1, confidence 6/6, offset +12)
Statistics
Read error : 0
Jitter error (maybe fixed) : 0
Retry sector count : 0
Damaged sector count : 0

Track 16
Pre-gap length : 00:03:17

Track gain : -5.88 dB
Peak : 0.885864
CRC32 hash (test run) : D13F6956
CRC32 hash : D13F6956
CRC32 hash (skip zero) : BD8C425C
AccurateRip v1 signature : 59986354 (27CB55B0 w/correction)
AccurateRip v2 signature : D99DD671
->Accurately ripped with different offset (v1, confidence 5/5, offset +12)
Statistics
Read error : 0
Jitter error (maybe fixed) : 0
Retry sector count : 0
Damaged sector count : 0

Track 17
Pre-gap length : 00:04:35

Track gain : -4.11 dB
Peak : 0.881500
CRC32 hash (test run) : 5602B985
CRC32 hash : 5602B985
CRC32 hash (skip zero) : 3FA48E94
AccurateRip v1 signature : 57522C6C (56DD8788 w/correction)
AccurateRip v2 signature : 9D1631F0
->Accurately ripped with different offset (v1, confidence 5/5, offset +12)
Statistics
Read error : 0
Jitter error (maybe fixed) : 0
Retry sector count : 0
Damaged sector count : 0

Track 18
Pre-gap length : 00:02:30

Track gain : -4.35 dB
Peak : 0.860077
CRC32 hash (test run) : E9164EFA
CRC32 hash : E9164EFA
CRC32 hash (skip zero) : 15517919
AccurateRip v1 signature : 88EF8E3C (DC8C53C8 w/correction)
AccurateRip v2 signature : 08F53D5D
->Accurately ripped with different offset (v1, confidence 5/5, offset +12)
Statistics
Read error : 0
Jitter error (maybe fixed) : 0
Retry sector count : 0
Damaged sector count : 0

Track 19
Pre-gap length : 00:03:55

Track gain : -5.23 dB
Peak : 0.818176
CRC32 hash (test run) : E83312BA
CRC32 hash : E83312BA
CRC32 hash (skip zero) : 444BA33C
AccurateRip v1 signature : 853C06A0 (E4745718 w/correction)
AccurateRip v2 signature : C410A853
->Accurately ripped with different offset (v1, confidence 5/5, offset +12)
Statistics
Read error : 0
Jitter error (maybe fixed) : 0
Retry sector count : 0
Damaged sector count : 0

Track 20
Pre-gap length : 00:02:73

Track gain : -3.14 dB
Peak : 0.762390
CRC32 hash (test run) : 2F421C18
CRC32 hash : 2F421C18
CRC32 hash (skip zero) : 33BD0416
AccurateRip v1 signature : 4DFB943B (BCB556C7 w/correction)
AccurateRip v2 signature : 169663CB
->Accurately ripped with different offset (v1, confidence 5/5, offset +12)
Statistics
Read error : 0
Jitter error (maybe fixed) : 0
Retry sector count : 0
Damaged sector count : 0

Track 21
Pre-gap length : 00:03:45

Track gain : -2.43 dB
Peak : 0.735199
CRC32 hash (test run) : F7AB865F
CRC32 hash : F7AB865F
CRC32 hash (skip zero) : 8A8350C7
AccurateRip v1 signature : 99FC5D00 (4FA0DDA0 w/correction)
AccurateRip v2 signature : AA2E8232
->Accurately ripped with different offset (v1, confidence 5/5, offset +12)
Statistics
Read error : 0
Jitter error (maybe fixed) : 0
Retry sector count : 0
Damaged sector count : 0

No errors occurred

End of status report

foobar2000 1.2.6 / Dynamic Range Meter 1.1.1
log date: 2015-03-18 20:30:07

––––––––––––––––––––––––––––––––––––––––
Analyzed: Bep Brown Orchestra / Canton Crusade
––––––––––––––––––––––––––––––––––––––––

DR Peak RMS Duration Track
––––––––––––––––––––––––––––––––––––––––
DR10 -1.05 dB -12.14 dB 2:47 16-Round House Boogie (Aka Sax Symphonic Boogie)
DR11 -1.10 dB -14.72 dB 3:12 17-Dumb Woman Blues
––––––––––––––––––––––––––––––––––––––––

Number of tracks: 2
Official DR value: DR10

Samplerate: 44100 Hz
Channels: 2
Bits per sample: 16
Bitrate: 363 kbps
Codec: FLAC
================================================================================

––––––––––––––––––––––––––––––––––––––––
Analyzed: Elmore James / Canton Crusade (1-17)
Little Johnny Jones / Canton Crusade (18-19)
––––––––––––––––––––––––––––––––––––––––

DR Peak RMS Duration Track
––––––––––––––––––––––––––––––––––––––––
DR10 -0.65 dB -12.12 dB 2:48 01-Dust My Broom
DR9 -0.86 dB -11.94 dB 3:05 02-Please Find My Baby (version 1)
DR11 -1.13 dB -13.50 dB 2:40 03-Hawaiian Boogie
DR7 -3.32 dB -11.72 dB 3:09 04-Please Find My Baby (version 2)
DR8 -2.69 dB -12.16 dB 2:53 05-Hand in Hand
DR8 -2.93 dB -12.88 dB 2:57 06-Long Tall Woman
DR9 -1.44 dB -13.08 dB 2:51 07-Rock My Baby Right
DR9 -3.07 dB -13.89 dB 3:06 08-One More Drink (take 1)
DR10 -1.29 dB -13.72 dB 2:24 09-My Baby's Gone
DR9 -0.36 dB -13.17 dB 3:17 10-One More Drink (take 2)
DR10 -1.43 dB -12.86 dB 3:17 11-Lost Woman Blues (Aka Please Find My Baby) (version 3)
DR9 -1.17 dB -11.21 dB 3:18 12-I Believe
DR11 -1.52 dB -14.38 dB 3:31 13-I Held My Baby Last Night
DR9 -0.70 dB -11.72 dB 2:54 14-Baby What's Wrong
DR9 -0.48 dB -13.54 dB 2:53 15-Sinful Woman
DR10 -1.31 dB -13.48 dB 2:37 18-Sax-Only Boogie
DR10 -1.74 dB -13.98 dB 2:57 19-Kicking the Blues Around (Aka Flaming Blues)
DR11 -2.36 dB -14.59 dB 2:52 20-I May Be Wrong
DR11 -2.67 dB -15.45 dB 3:00 21-Sweet Little Woman
––––––––––––––––––––––––––––––––––––––––

Number of tracks: 19
Official DR value: DR9

Samplerate: 44100 Hz
Channels: 2
Bits per sample: 16
Bitrate: 363 kbps
Codec: FLAC
================================================================================

[CUETools log; Date: 18.03.2015 20:23:53; Version: 2.1.5]
Pregap length 00:00:38.
[CTDB TOCID: lmQprhLxQRRKhDZXJAS0iVWIYjA-] found.
Track | CTDB Status
1 | (1/1) Accurately ripped
2 | (1/1) Accurately ripped
3 | (1/1) Accurately ripped
4 | (1/1) Accurately ripped
5 | (1/1) Accurately ripped
6 | (1/1) Accurately ripped
7 | (1/1) Accurately ripped
8 | (1/1) Accurately ripped
9 | (1/1) Accurately ripped
10 | (1/1) Accurately ripped
11 | (1/1) Accurately ripped
12 | (1/1) Accurately ripped
13 | (1/1) Accurately ripped
14 | (1/1) Accurately ripped
15 | (1/1) Accurately ripped
16 | (1/1) Accurately ripped
17 | (1/1) Accurately ripped
18 | (1/1) Accurately ripped
19 | (1/1) Accurately ripped
20 | (1/1) Accurately ripped
21 | (1/1) Accurately ripped
[AccurateRip ID: 002f161b-02d40509-150ea415] found.
Track [ CRC | V2 ] Status
01 [21a9522d|7f8d7d34] (00+04/12) Accurately ripped
02 [259dd442|0fda8d73] (00+04/11) Accurately ripped
03 [cb2c3b7e|be5ede0f] (00+04/11) Accurately ripped
04 [7591eefe|a35edcda] (00+04/12) Accurately ripped
05 [919bae6c|491496a0] (00+04/12) Accurately ripped
06 [3a2bb605|7343d303] (00+04/12) Accurately ripped
07 [5dff7918|1351cfe8] (00+04/12) Accurately ripped
08 [5d2b73a4|55460b5a] (00+04/11) Accurately ripped
09 [71767212|27c13516] (00+04/11) Accurately ripped
10 [14884665|7459dbca] (00+04/12) Accurately ripped
11 [c4f1ad70|85b273ec] (00+04/11) Accurately ripped
12 [970a1130|977822ee] (00+04/12) Accurately ripped
13 [124f7e29|a4867846] (00+04/12) Accurately ripped
14 [035c4dbc|6531e0d5] (00+04/12) Accurately ripped
15 [3382e5a1|f31dcb61] (00+04/12) Accurately ripped
16 [59986354|d99dd671] (00+04/11) Accurately ripped
17 [57522c6c|9d1631f0] (00+04/11) Accurately ripped
18 [88ef8e3c|08f53d5d] (00+04/11) Accurately ripped
19 [853c06a0|c410a853] (00+04/11) Accurately ripped
20 [4dfb943b|169663cb] (00+04/11) Accurately ripped
21 [99fc5d00|aa2e8232] (00+04/11) Accurately ripped
Offsetted by 12:
01 [d749705d] (06/12) Accurately ripped
02 [d6c413a2] (05/11) Accurately ripped
03 [7c09e0de] (05/11) Accurately ripped
04 [3d76f10e] (06/12) Accurately ripped
05 [bd159064] (06/12) Accurately ripped
06 [a6db0f41] (06/12) Accurately ripped
07 [699ede78] (06/12) Accurately ripped
08 [30dcd45c] (05/11) Accurately ripped
09 [5122df2a] (05/11) Accurately ripped
10 [d1eae37d] (06/12) Accurately ripped
11 [c39523d8] (05/11) Accurately ripped
12 [f37aad44] (06/12) Accurately ripped
13 [69fe0b05] (06/12) Accurately ripped
14 [20614364] (06/12) Accurately ripped
15 [7e1b9d1d] (06/12) Accurately ripped
16 [27cb55b0] (05/11) Accurately ripped
17 [56dd8788] (05/11) Accurately ripped
18 [dc8c53c8] (05/11) Accurately ripped
19 [e4745718] (05/11) Accurately ripped
20 [bcb556c7] (05/11) Accurately ripped
21 [4fa0dda0] (05/11) Accurately ripped
Offsetted by 966:
01 [be82d045] (00/12) No match (V2 was not tested)
02 [da24c1f2] (00/11) No match (V2 was not tested)
03 [e8debc2e] (00/11) No match (V2 was not tested)
04 [d1151506] (00/12) No match (V2 was not tested)
05 [3d6f3ce8] (00/12) No match (V2 was not tested)
06 [674f4563] (00/12) No match (V2 was not tested)
07 [059ed9c8] (00/12) No match (V2 was not tested)
08 [ee725d80] (00/11) No match (V2 was not tested)
09 [472ec01e] (00/11) No match (V2 was not tested)
10 [220aac71] (00/12) No match (V2 was not tested)
11 [d7586924] (00/11) No match (V2 was not tested)
12 [a873257a] (00/12) No match (V2 was not tested)
13 [24b2c957] (00/12) No match (V2 was not tested)
14 [236b8d10] (00/12) No match (V2 was not tested)
15 [2888981f] (00/12) No match (V2 was not tested)
16 [309d9942] (00/11) No match (V2 was not tested)
17 [b2a452ba] (00/11) No match (V2 was not tested)
18 [d3bbacc2] (00/11) No match (V2 was not tested)
19 [7671545c] (00/11) No match (V2 was not tested)
20 [1f654141] (00/11) No match (V2 was not tested)
21 [b836cf50] (00/11) No match (V2 was not tested)

Track Peak [ CRC32 ] [W/O NULL]
– 95,9 [2F64AE5B] [4B561AA2]
01 92,8 [45701176] [85E66E66]
02 90,5 [D2672679] [68704F7C]
03 87,7 [0E4B44A9] [8210C993]
04 68,2 [D8E7FEE1] [E436B6F6]
05 73,3 [2BCD19FD] [87F87380]
06 71,4 [52FD285C] [DB07253B]
07 84,7 [75C5F845] [3E81203D]
08 70,2 [02C222B8] [DC3BA422]
09 86,1 [6865DFDE] [912A27E6]
10 95,9 [37A0C2B1] [E98BAB2C]
11 84,8 [6BAA2DF5] [751EED32]
12 87,4 [8F006377] [8281419A]
13 83,9 [E130F336] [AB8EA474]
14 92,2 [6CF6E226] [752BDC65]
15 94,5 [BD5B53F0] [5059EE61]
16 88,5 [D13F6956] [BD8C425C]
17 88,1 [5602B985] [3FA48E94]
18 86,0 [E9164EFA] [15517919]
19 81,8 [E83312BA] [444BA33C]
20 76,2 [2F421C18] [33BD0416]
21 73,5 [F7AB865F] [8A8350C7]

Track List Disc Two - Broomdusting in Chicago:

01. Early in the Morning [02:50]
02. Can't Stop Lovin' [02:27]
03. Hawaiian Boogie (Version 2) [02:21]
04. Make a Little Love [02:52]
05. My Best Friend (take 1) [02:49]
06. Make My Dreams Come True (take 2) [02:47]
07. Make My Dreams Come True (take 3) [00:57]
08. Make My Dreams Come True (take 4) [02:48]
09. Make My Dreams Come True (take 7) [02:44]
10. Strange Kinda Feeling (take 1) [02:32]
11. Strange Kinda Feeling (take 2) [02:40]
12. Strange Kinda Feeling (take 3) [02:49]
13. Strange Kinda Feeling (take 4) [00:58]
14. Strange Kinda Feeling (take 5) [02:37]
15. Strange Kinda Feeling (take 6) [02:43]
16. Dark and Dreary (take 1) [00:28]
17. Dark and Dreary (take 2) [03:31]
18. Dark and Dreary (take 4) [02:49]
19. Quarter Past Nine [03:32]
20. Where Can My Baby Be (take 1) [00:21]
21. Where Can My Baby Be (take 8) [03:00]
22. Where Can My Baby Be (take 9) [02:58]
23. Please Come Back to Me (Sho' Nuff I Do) [03:01]
24. Sho' Nuff I Do (Session talk & false start) [01:32]
25. Sho' Nuff I Do (alternate take) [02:47]
26. Sho' Nuff I Do [02:53]
27. 1839 Blues [03:18]
28. I Got a Strange Baby (False start & chat) [01:03]
29. Canton Mississippi Breakdown [02:41]

X Lossless Decoder version 20121222 (142.2)

XLD extraction logfile from 2013-01-11 17:30:40 +0200

Elmore James / Broomdusting in Chicago

Used drive : MATSHITA DVD-R UJ-898 (revision HC09)
Media type : Pressed CD

Ripper mode : XLD Secure Ripper
Disable audio cache : OK for the drive with a cache less than 1375KiB
Make use of C2 pointers : NO
Read offset correction : 102
Max retry count : 20
Gap status : Analyzed, Appended

TOC of the extracted CD
Track | Start | Length | Start sector | End sector
––––––––––––––––––––––––––––-
1 | 00:00:38 | 02:49:45 | 38 | 12757
2 | 02:50:08 | 02:26:25 | 12758 | 23732
3 | 05:16:33 | 02:20:65 | 23733 | 34297
4 | 07:37:23 | 02:51:47 | 34298 | 47169
5 | 10:28:70 | 02:48:13 | 47170 | 59782
6 | 13:17:08 | 02:46:25 | 59783 | 72257
7 | 16:03:33 | 00:56:72 | 72258 | 76529
8 | 17:00:30 | 02:47:48 | 76530 | 89102
9 | 19:48:03 | 02:43:10 | 89103 | 101337
10 | 22:31:13 | 02:31:07 | 101338 | 112669
11 | 25:02:20 | 02:39:70 | 112670 | 124664
12 | 27:42:15 | 02:48:40 | 124665 | 137304
13 | 30:30:55 | 00:57:43 | 137305 | 141622
14 | 31:28:23 | 02:36:05 | 141623 | 153327
15 | 34:04:28 | 02:43:00 | 153328 | 165552
16 | 36:47:28 | 00:27:57 | 165553 | 167634
17 | 37:15:10 | 03:30:03 | 167635 | 183387
18 | 40:45:13 | 02:48:67 | 183388 | 196054
19 | 43:34:05 | 03:31:40 | 196055 | 211919
20 | 47:05:45 | 00:20:28 | 211920 | 213447
21 | 47:25:73 | 02:59:02 | 213448 | 226874
22 | 50:25:00 | 02:57:53 | 226875 | 240202
23 | 53:22:53 | 03:00:70 | 240203 | 253772
24 | 56:23:48 | 01:31:65 | 253773 | 260662
25 | 57:55:38 | 02:46:42 | 260663 | 273154
26 | 60:42:05 | 02:52:35 | 273155 | 286089
27 | 63:34:40 | 03:17:33 | 286090 | 300897
28 | 66:51:73 | 01:02:50 | 300898 | 305597
29 | 67:54:48 | 02:40:65 | 305598 | 317662

List of alternate offset correction values
# | Absolute | Relative | Confidence
–––––––––––––––––––––
1 | 114 | 12 | 6

AccurateRip Summary (DiscID: 0049150d-05e02b0d-a0108b1d)
Track 01 : OK (v1, confidence 6/6, with different offset)
Track 02 : OK (v1, confidence 6/6, with different offset)
Track 03 : OK (v1, confidence 6/6, with different offset)
Track 04 : OK (v1, confidence 6/6, with different offset)
Track 05 : OK (v1, confidence 5/5, with different offset)
Track 06 : OK (v1, confidence 5/5, with different offset)
Track 07 : OK (v1, confidence 5/5, with different offset)
Track 08 : OK (v1, confidence 5/5, with different offset)
Track 09 : OK (v1, confidence 6/6, with different offset)
Track 10 : OK (v1, confidence 5/5, with different offset)
Track 11 : OK (v1, confidence 5/5, with different offset)
Track 12 : OK (v1, confidence 5/5, with different offset)
Track 13 : OK (v1, confidence 5/5, with different offset)
Track 14 : OK (v1, confidence 5/5, with different offset)
Track 15 : OK (v1, confidence 6/6, with different offset)
Track 16 : OK (v1, confidence 5/5, with different offset)
Track 17 : OK (v1, confidence 5/5, with different offset)
Track 18 : OK (v1, confidence 6/6, with different offset)
Track 19 : OK (v1, confidence 6/6, with different offset)
Track 20 : OK (v1, confidence 5/5, with different offset)
Track 21 : OK (v1, confidence 5/5, with different offset)
Track 22 : OK (v1, confidence 6/6, with different offset)
Track 23 : OK (v1, confidence 5/5, with different offset)
Track 24 : OK (v1, confidence 5/5, with different offset)
Track 25 : OK (v1, confidence 5/5, with different offset)
Track 26 : OK (v1, confidence 6/6, with different offset)
Track 27 : OK (v1, confidence 6/6, with different offset)
Track 28 : OK (v1, confidence 5/5, with different offset)
Track 29 : OK (v1, confidence 6/6, with different offset)
->All tracks accurately ripped.

All Tracks
Filename : /Users/Home/Music/Music/myRips/elmore james-the classic early recordings-51-56/CD2-Broomdusting in Chicago/Elmore James - Broomdusting in Chicago .flac
Album gain : -6.11 dB
Peak : 0.977234
CRC32 hash (test run) : 649D2988
CRC32 hash : 649D2988
CRC32 hash (skip zero) : E1B4B6E9
Statistics
Read error : 0
Jitter error (maybe fixed) : 0
Retry sector count : 0
Damaged sector count : 0

Track 01
Pre-gap length : 00:02:38

Track gain : -8.42 dB
Peak : 0.977234
CRC32 hash (test run) : 366B72E2
CRC32 hash : 366B72E2
CRC32 hash (skip zero) : B7658063
AccurateRip v1 signature : 14A97F39 (13FFC281 w/correction)
AccurateRip v2 signature : 5B2210CF
->Accurately ripped with different offset (v1, confidence 6/6, offset +12)
Statistics
Read error : 0
Jitter error (maybe fixed) : 0
Retry sector count : 0
Damaged sector count : 0

Track 02
Pre-gap length : 00:02:50

Track gain : -7.55 dB
Peak : 0.948181
CRC32 hash (test run) : 2D35D09F
CRC32 hash : 2D35D09F
CRC32 hash (skip zero) : E4A0BDA0
AccurateRip v1 signature : 6D18976C (4F5E1120 w/correction)
AccurateRip v2 signature : 9DC06F4C
->Accurately ripped with different offset (v1, confidence 6/6, offset +12)
Statistics
Read error : 0
Jitter error (maybe fixed) : 0
Retry sector count : 0
Damaged sector count : 0

Track 03
Pre-gap length : 00:03:15

Track gain : -5.33 dB
Peak : 0.934540
CRC32 hash (test run) : BA65EE1F
CRC32 hash : BA65EE1F
CRC32 hash (skip zero) : 828E7830
AccurateRip v1 signature : 1520739A (214E5C52 w/correction)
AccurateRip v2 signature : A211B6B9
->Accurately ripped with different offset (v1, confidence 6/6, offset +12)
Statistics
Read error : 0
Jitter error (maybe fixed) : 0
Retry sector count : 0
Damaged sector count : 0

Track 04
Pre-gap length : 00:03:60

Track gain : -6.97 dB
Peak : 0.860931
CRC32 hash (test run) : 0FC1059B
CRC32 hash : 0FC1059B
CRC32 hash (skip zero) : C8314A2E
AccurateRip v1 signature : D0FCC1C0 (6D663CB8 w/correction)
AccurateRip v2 signature : BA888A62
->Accurately ripped with different offset (v1, confidence 6/6, offset +12)
Statistics
Read error : 0
Jitter error (maybe fixed) : 0
Retry sector count : 0
Damaged sector count : 0

Track 05
Pre-gap length : 00:04:09

Track gain : -6.09 dB
Peak : 0.867493
CRC32 hash (test run) : 4A46A6D9
CRC32 hash : 4A46A6D9
CRC32 hash (skip zero) : A381268C
AccurateRip v1 signature : 024AE926 (7EE3EDFA w/correction)
AccurateRip v2 signature : 3E123597
->Accurately ripped with different offset (v1, confidence 5/5, offset +12)
Statistics
Read error : 0
Jitter error (maybe fixed) : 0
Retry sector count : 0
Damaged sector count : 0

Track 06
Pre-gap length : 00:02:40

Track gain : -6.35 dB
Peak : 0.904907
CRC32 hash (test run) : F072808A
CRC32 hash : F072808A
CRC32 hash (skip zero) : B2F53FD9
AccurateRip v1 signature : 9257B37C (CFD4AB64 w/correction)
AccurateRip v2 signature : 9C07E1B2
->Accurately ripped with different offset (v1, confidence 5/5, offset +12)
Statistics
Read error : 0
Jitter error (maybe fixed) : 0
Retry sector count : 0
Damaged sector count : 0

Track 07
Pre-gap length : 00:04:05

Track gain : -6.59 dB
Peak : 0.891754
CRC32 hash (test run) : AD420EF7
CRC32 hash : AD420EF7
CRC32 hash (skip zero) : B3BB8ABC
AccurateRip v1 signature : 43B1C7A4 (0F72C43C w/correction)
AccurateRip v2 signature : 4E588E18
->Accurately ripped with different offset (v1, confidence 5/5, offset +12)
Statistics
Read error : 0
Jitter error (maybe fixed) : 0
Retry sector count : 0
Damaged sector count : 0

Track 08
Pre-gap length : 00:01:32

Track gain : -5.44 dB
Peak : 0.931183
CRC32 hash (test run) : 9498B618
CRC32 hash : 9498B618
CRC32 hash (skip zero) : 204079FF
AccurateRip v1 signature : 74358DDC (46AF09B8 w/correction)
AccurateRip v2 signature : 95AD40C6
->Accurately ripped with different offset (v1, confidence 5/5, offset +12)
Statistics
Read error : 0
Jitter error (maybe fixed) : 0
Retry sector count : 0
Damaged sector count : 0

Track 09
Pre-gap length : 00:04:40

Track gain : -6.99 dB
Peak : 0.917969
CRC32 hash (test run) : 6E63F19B
CRC32 hash : 6E63F19B
CRC32 hash (skip zero) : 82917105
AccurateRip v1 signature : 2FC3ADB1 (41D8A179 w/correction)
AccurateRip v2 signature : 7A2DD6E8
->Accurately ripped with different offset (v1, confidence 6/6, offset +12)
Statistics
Read error : 0
Jitter error (maybe fixed) : 0
Retry sector count : 0
Damaged sector count : 0

Track 10
Pre-gap length : 00:03:10

Track gain : -6.12 dB
Peak : 0.885132
CRC32 hash (test run) : 8A081338
CRC32 hash : 8A081338
CRC32 hash (skip zero) : 951BD448
AccurateRip v1 signature : 1AE856CD (76AC9EF9 w/correction)
AccurateRip v2 signature : E82F6433
->Accurately ripped with different offset (v1, confidence 5/5, offset +12)
Statistics
Read error : 0
Jitter error (maybe fixed) : 0
Retry sector count : 0
Damaged sector count : 0

Track 11
Pre-gap length : 00:02:40

Track gain : -5.33 dB
Peak : 0.856567
CRC32 hash (test run) : 77D3B84C
CRC32 hash : 77D3B84C
CRC32 hash (skip zero) : 146CEF1F
AccurateRip v1 signature : 0E2745D1 (EF72C05D w/correction)
AccurateRip v2 signature : D251DB33
->Accurately ripped with different offset (v1, confidence 5/5, offset +12)
Statistics
Read error : 0
Jitter error (maybe fixed) : 0
Retry sector count : 0
Damaged sector count : 0

Track 12
Pre-gap length : 00:02:45

Track gain : -5.68 dB
Peak : 0.909821
CRC32 hash (test run) : 5DBB2768
CRC32 hash : 5DBB2768
CRC32 hash (skip zero) : 4F816509
AccurateRip v1 signature : 98E54368 (18D093AC w/correction)
AccurateRip v2 signature : 6FD740E0
->Accurately ripped with different offset (v1, confidence 5/5, offset +12)
Statistics
Read error : 0
Jitter error (maybe fixed) : 0
Retry sector count : 0
Damaged sector count : 0

Track 13
Pre-gap length : 00:03:57

Track gain : -6.10 dB
Peak : 0.864777
CRC32 hash (test run) : 4F8121D3
CRC32 hash : 4F8121D3
CRC32 hash (skip zero) : 230CA8B6
AccurateRip v1 signature : EFB74B9F (049BF603 w/correction)
AccurateRip v2 signature : 795A538E
->Accurately ripped with different offset (v1, confidence 5/5, offset +12)
Statistics
Read error : 0
Jitter error (maybe fixed) : 0
Retry sector count : 0
Damaged sector count : 0

Track 14
Pre-gap length : 00:01:38

Track gain : -4.78 dB
Peak : 0.930634
CRC32 hash (test run) : 0C46DFFC
CRC32 hash : 0C46DFFC
CRC32 hash (skip zero) : 39A369FE
AccurateRip v1 signature : 99B19954 (34D0AAE8 w/correction)
AccurateRip v2 signature : D7631E61
->Accurately ripped with different offset (v1, confidence 5/5, offset +12)
Statistics
Read error : 0
Jitter error (maybe fixed) : 0
Retry sector count : 0
Damaged sector count : 0

Track 15
Pre-gap length : 00:02:43

Track gain : -5.45 dB
Peak : 0.860443
CRC32 hash (test run) : 633C92FC
CRC32 hash : 633C92FC
CRC32 hash (skip zero) : F04B8C5F
AccurateRip v1 signature : 556E35B9 (B59FCA81 w/correction)
AccurateRip v2 signature : 5CC5EC73
->Accurately ripped with different offset (v1, confidence 6/6, offset +12)
Statistics
Read error : 0
Jitter error (maybe fixed) : 0
Retry sector count : 0
Damaged sector count : 0

Track 16
Pre-gap length : 00:04:38

Track gain : -3.48 dB
Peak : 0.733154
CRC32 hash (test run) : 1E941E00
CRC32 hash : 1E941E00
CRC32 hash (skip zero) : 2369E88D
AccurateRip v1 signature : 9918CB1A (1A2C7E96 w/correction)
AccurateRip v2 signature : 9C69CCBB
->Accurately ripped with different offset (v1, confidence 5/5, offset +12)
Statistics
Read error : 0
Jitter error (maybe fixed) : 0
Retry sector count : 0
Damaged sector count : 0

Track 17
Pre-gap length : 00:00:65

Track gain : -5.38 dB
Peak : 0.860962
CRC32 hash (test run) : D830DE8C
CRC32 hash : D830DE8C
CRC32 hash (skip zero) : C71F67B1
AccurateRip v1 signature : 1CEAC208 (0CB87AE4 w/correction)
AccurateRip v2 signature : 4ABCF1D8
->Accurately ripped with different offset (v1, confidence 5/5, offset +12)
Statistics
Read error : 0
Jitter error (maybe fixed) : 0
Retry sector count : 0
Damaged sector count : 0

Track 18
Pre-gap length : 00:04:38

Track gain : -6.15 dB
Peak : 0.918121
CRC32 hash (test run) : 4C4C3D74
CRC32 hash : 4C4C3D74
CRC32 hash (skip zero) : F4DBA990
AccurateRip v1 signature : 0BE6F541 (957BB42D w/correction)
AccurateRip v2 signature : 8214ED61
->Accurately ripped with different offset (v1, confidence 6/6, offset +12)
Statistics
Read error : 0
Jitter error (maybe fixed) : 0
Retry sector count : 0
Damaged sector count : 0

Track 19
Pre-gap length : 00:03:52

Track gain : -5.98 dB
Peak : 0.971100
CRC32 hash (test run) : 6491A7DA
CRC32 hash : 6491A7DA
CRC32 hash (skip zero) : D513E524
AccurateRip v1 signature : FA7710CF (E85B3CB7 w/correction)
AccurateRip v2 signature : 6386CD67
->Accurately ripped with different offset (v1, confidence 6/6, offset +12)
Statistics
Read error : 0
Jitter error (maybe fixed) : 0
Retry sector count : 0
Damaged sector count : 0

Track 20
Pre-gap length : 00:03:20

Track gain : 5.40 dB
Peak : 0.510162
CRC32 hash (test run) : B814D693
CRC32 hash : B814D693
CRC32 hash (skip zero) : 7F4E4183
AccurateRip v1 signature : D604A35B (B29B2305 w/correction)
AccurateRip v2 signature : FF949BC9
->Accurately ripped with different offset (v1, confidence 5/5, offset +12)
Statistics
Read error : 0
Jitter error (maybe fixed) : 0
Retry sector count : 0
Damaged sector count : 0

Track 21

Track gain : -5.30 dB
Peak : 0.883514
CRC32 hash (test run) : 77F05862
CRC32 hash : 77F05862
CRC32 hash (skip zero) : 6DCC9219
AccurateRip v1 signature : D6A61122 (53F6F9D4 w/correction)
AccurateRip v2 signature : EAC771EC
->Accurately ripped with different offset (v1, confidence 5/5, offset +12)
Statistics
Read error : 0
Jitter error (maybe fixed) : 0
Retry sector count : 0
Damaged sector count : 0

Track 22
Pre-gap length : 00:03:72

Track gain : -6.40 dB
Peak : 0.828796
CRC32 hash (test run) : 8C81CFB9
CRC32 hash : 8C81CFB9
CRC32 hash (skip zero) : 3AAFC5B8
AccurateRip v1 signature : 80EE1419 (191203C5 w/correction)
AccurateRip v2 signature : B864C8A0
->Accurately ripped with different offset (v1, confidence 6/6, offset +12)
Statistics
Read error : 0
Jitter error (maybe fixed) : 0
Retry sector count : 0
Damaged sector count : 0

Track 23
Pre-gap length : 00:03:23

Track gain : -5.65 dB
Peak : 0.724335
CRC32 hash (test run) : 138D153C
CRC32 hash : 138D153C
CRC32 hash (skip zero) : BF9288AC
AccurateRip v1 signature : 0FEB34BD (53F5FAD9 w/correction)
AccurateRip v2 signature : 9F22446D
->Accurately ripped with different offset (v1, confidence 5/5, offset +12)
Statistics
Read error : 0
Jitter error (maybe fixed) : 0
Retry sector count : 0
Damaged sector count : 0

Track 24
Pre-gap length : 00:03:28

Track gain : -2.19 dB
Peak : 0.874420
CRC32 hash (test run) : 42DA7832
CRC32 hash : 42DA7832
CRC32 hash (skip zero) : 53A57696
AccurateRip v1 signature : 902D5780 (CD9DC740 w/correction)
AccurateRip v2 signature : F4E91120
->Accurately ripped with different offset (v1, confidence 5/5, offset +12)
Statistics
Read error : 0
Jitter error (maybe fixed) : 0
Retry sector count : 0
Damaged sector count : 0

Track 25

Track gain : -5.61 dB
Peak : 0.748993
CRC32 hash (test run) : DC4D1C8C
CRC32 hash : DC4D1C8C
CRC32 hash (skip zero) : C114C182
AccurateRip v1 signature : 155AC361 (D3939BA5 w/correction)
AccurateRip v2 signature : 551BB768
->Accurately ripped with different offset (v1, confidence 5/5, offset +12)
Statistics
Read error : 0
Jitter error (maybe fixed) : 0
Retry sector count : 0
Damaged sector count : 0

Track 26
Pre-gap length : 00:03:32

Track gain : -5.09 dB
Peak : 0.841187
CRC32 hash (test run) : 4B81BD06
CRC32 hash : 4B81BD06
CRC32 hash (skip zero) : 9C6835DB
AccurateRip v1 signature : 3DDE9705 (17C41659 w/correction)
AccurateRip v2 signature : DB472F08
->Accurately ripped with different offset (v1, confidence 6/6, offset +12)
Statistics
Read error : 0
Jitter error (maybe fixed) : 0
Retry sector count : 0
Damaged sector count : 0

Track 27
Pre-gap length : 00:02:17

Track gain : -4.64 dB
Peak : 0.779663
CRC32 hash (test run) : A22C25E8
CRC32 hash : A22C25E8
CRC32 hash (skip zero) : B3C12AA5
AccurateRip v1 signature : 5C7C7286 (362CF09A w/correction)
AccurateRip v2 signature : 07DA3AED
->Accurately ripped with different offset (v1, confidence 6/6, offset +12)
Statistics
Read error : 0
Jitter error (maybe fixed) : 0
Retry sector count : 0
Damaged sector count : 0

Track 28
Pre-gap length : 00:04:28

Track gain : -2.27 dB
Peak : 0.751190
CRC32 hash (test run) : 0E194CC7
CRC32 hash : 0E194CC7
CRC32 hash (skip zero) : 1064D6FD
AccurateRip v1 signature : F3C9A411 (2194F4DA w/correction)
AccurateRip v2 signature : 08882DA2
->Accurately ripped with different offset (v1, confidence 5/5, offset +12)
Statistics
Read error : 0
Jitter error (maybe fixed) : 0
Retry sector count : 0
Damaged sector count : 0

Track 29

Track gain : -3.35 dB
Peak : 0.835693
CRC32 hash (test run) : 8702BAB7
CRC32 hash : 8702BAB7
CRC32 hash (skip zero) : DA8B0B90
AccurateRip v1 signature : 40C6EE75 (FD20872C w/correction)
AccurateRip v2 signature : 85F76007
->Accurately ripped with different offset (v1, confidence 6/6, offset +12)
Statistics
Read error : 0
Jitter error (maybe fixed) : 0
Retry sector count : 0
Damaged sector count : 0

No errors occurred

End of status report

foobar2000 1.2.6 / Dynamic Range Meter 1.1.1
log date: 2015-03-18 20:27:10

––––––––––––––––––––––––––––––––––––––––
Analyzed: Elmore James / Broomdusting in Chicago
––––––––––––––––––––––––––––––––––––––––

DR Peak RMS Duration Track
––––––––––––––––––––––––––––––––––––––––
DR9 -0.20 dB -10.10 dB 2:50 01-Early in the Morning
DR8 -0.46 dB -10.66 dB 2:26 02-Can't Stop Lovin'
DR10 -0.59 dB -12.44 dB 2:21 03-Hawaiian Boogie (Version 2)
DR9 -1.30 dB -11.79 dB 2:52 04-Make a Little Love
DR11 -1.23 dB -14.52 dB 2:48 05-My Best Friend (take 1)
DR11 -0.87 dB -13.69 dB 2:46 06-Make My Dreams Come True (take 2)
DR11 -1.00 dB -14.33 dB 0:57 07-Make My Dreams Come True (take 3)
DR12 -0.62 dB -15.11 dB 2:48 08-Make My Dreams Come True (take 4)
DR11 -0.74 dB -13.43 dB 2:43 09-Make My Dreams Come True (take 7)
DR11 -1.06 dB -14.19 dB 2:31 10-Strange Kinda Feeling (take 1)
DR11 -1.34 dB -14.35 dB 2:40 11-Strange Kinda Feeling (take 2)
DR11 -0.82 dB -13.91 dB 2:49 12-Strange Kinda Feeling (take 3)
DR11 -1.26 dB -14.73 dB 0:58 13-Strange Kinda Feeling (take 4)
DR12 -0.62 dB -14.89 dB 2:36 14-Strange Kinda Feeling (take 5)
DR11 -1.31 dB -13.96 dB 2:43 15-Strange Kinda Feeling (take 6)
DR11 -2.70 dB -16.92 dB 0:28 16-Dark and Dreary (take 1)
DR11 -1.30 dB -14.20 dB 3:30 17-Dark and Dreary (take 2)
DR11 -0.74 dB -14.07 dB 2:49 18-Dark and Dreary (take 4)
DR10 -0.25 dB -13.13 dB 3:32 19-Quarter Past Nine
DR7 -5.85 dB -26.16 dB 0:20 20-Where Can My Baby Be (take 1)
DR11 -1.08 dB -13.87 dB 2:59 21-Where Can My Baby Be (take 8)
DR9 -1.63 dB -13.11 dB 2:58 22-Where Can My Baby Be (take 9)
DR9 -2.80 dB -14.42 dB 3:01 23-Please Come Back to Me (Sho' Nuff I Do)
DR13 -1.17 dB -18.34 dB 1:32 24-Sho' Nuff I Do (Session talk & false start)
DR9 -2.51 dB -14.23 dB 2:47 25-Sho' Nuff I Do (alternate take)
DR11 -1.50 dB -13.98 dB 2:52 26-Sho' Nuff I Do
DR10 -2.16 dB -14.45 dB 3:17 27-1839 Blues
DR11 -2.49 dB -17.29 dB 1:03 28-I Got a Strange Baby (False start & chat)
DR11 -1.56 dB -14.03 dB 2:41 29-Canton Mississippi Breakdown
––––––––––––––––––––––––––––––––––––––––

Number of tracks: 29
Official DR value: DR10

Samplerate: 44100 Hz
Channels: 2
Bits per sample: 16
Bitrate: 388 kbps
Codec: FLAC
================================================================================

[CUETools log; Date: 18.03.2015 20:24:30; Version: 2.1.5]
Pregap length 00:00:38.
[CTDB TOCID: NINyhyek6Wb5yCnKqKOa.DNOBrA-] found.
Track | CTDB Status
1 | (1/1) Accurately ripped
2 | (1/1) Accurately ripped
3 | (1/1) Accurately ripped
4 | (1/1) Accurately ripped
5 | (1/1) Accurately ripped
6 | (1/1) Accurately ripped
7 | (1/1) Accurately ripped
8 | (1/1) Accurately ripped
9 | (1/1) Accurately ripped
10 | (1/1) Accurately ripped
11 | (1/1) Accurately ripped
12 | (1/1) Accurately ripped
13 | (1/1) Accurately ripped
14 | (1/1) Accurately ripped
15 | (1/1) Accurately ripped
16 | (1/1) Accurately ripped
17 | (1/1) Accurately ripped
18 | (1/1) Accurately ripped
19 | (1/1) Accurately ripped
20 | (1/1) Accurately ripped
21 | (1/1) Accurately ripped
22 | (1/1) Accurately ripped
23 | (1/1) Accurately ripped
24 | (1/1) Accurately ripped
25 | (1/1) Accurately ripped
26 | (1/1) Accurately ripped
27 | (1/1) Accurately ripped
28 | (1/1) Accurately ripped
29 | (1/1) Accurately ripped
[AccurateRip ID: 0049150d-05e02b0d-a0108b1d] found.
Track [ CRC | V2 ] Status
01 [14a97f39|5b2210cf] (00+04/12) Accurately ripped
02 [6d18976c|9dc06f4c] (00+04/12) Accurately ripped
03 [1520739a|a211b6b9] (00+04/12) Accurately ripped
04 [d0fcc1c0|ba888a62] (00+04/12) Accurately ripped
05 [024ae926|3e123597] (00+04/11) Accurately ripped
06 [9257b37c|9c07e1b2] (00+04/11) Accurately ripped
07 [43b1c7a4|4e588e18] (00+04/11) Accurately ripped
08 [74358ddc|95ad40c6] (00+04/11) Accurately ripped
09 [2fc3adb1|7a2dd6e8] (00+04/12) Accurately ripped
10 [1ae856cd|e82f6433] (00+04/11) Accurately ripped
11 [0e2745d1|d251db33] (00+04/11) Accurately ripped
12 [98e54368|6fd740e0] (00+04/11) Accurately ripped
13 [efb74b9f|795a538e] (00+04/11) Accurately ripped
14 [99b19954|d7631e61] (00+04/11) Accurately ripped
15 [556e35b9|5cc5ec73] (00+04/12) Accurately ripped
16 [9918cb1a|9c69ccbb] (00+04/11) Accurately ripped
17 [1ceac208|4abcf1d8] (00+04/11) Accurately ripped
18 [0be6f541|8214ed61] (00+04/12) Accurately ripped
19 [fa7710cf|6386cd67] (00+04/12) Accurately ripped
20 [d604a35b|ff949bc9] (00+04/11) Accurately ripped
21 [d6a61122|eac771ec] (00+04/11) Accurately ripped
22 [80ee1419|b864c8a0] (00+04/12) Accurately ripped
23 [0feb34bd|9f22446d] (00+04/11) Accurately ripped
24 [902d5780|f4e91120] (00+04/11) Accurately ripped
25 [155ac361|551bb768] (00+04/11) Accurately ripped
26 [3dde9705|db472f08] (00+04/12) Accurately ripped
27 [5c7c7286|07da3aed] (00+04/12) Accurately ripped
28 [f3c9a411|08882da2] (00+04/11) Accurately ripped
29 [40c6ee75|85f76007] (00+04/12) Accurately ripped
Offsetted by 12:
01 [13ffc281] (06/12) Accurately ripped
02 [4f5e1120] (06/12) Accurately ripped
03 [214e5c52] (06/12) Accurately ripped
04 [6d663cb8] (06/12) Accurately ripped
05 [7ee3edfa] (05/11) Accurately ripped
06 [cfd4ab64] (05/11) Accurately ripped
07 [0f72c43c] (05/11) Accurately ripped
08 [46af09b8] (05/11) Accurately ripped
09 [41d8a179] (06/12) Accurately ripped
10 [76ac9ef9] (05/11) Accurately ripped
11 [ef72c05d] (05/11) Accurately ripped
12 [18d093ac] (05/11) Accurately ripped
13 [049bf603] (05/11) Accurately ripped
14 [34d0aae8] (05/11) Accurately ripped
15 [b59fca81] (06/12) Accurately ripped
16 [1a2c7e96] (05/11) Accurately ripped
17 [0cb87ae4] (05/11) Accurately ripped
18 [957bb42d] (06/12) Accurately ripped
19 [e85b3cb7] (06/12) Accurately ripped
20 [b29b2305] (05/11) Accurately ripped
21 [53f6f9d4] (05/11) Accurately ripped
22 [191203c5] (06/12) Accurately ripped
23 [53f5fad9] (05/11) Accurately ripped
24 [cd9dc740] (05/11) Accurately ripped
25 [d3939ba5] (05/11) Accurately ripped
26 [17c41659] (06/12) Accurately ripped
27 [362cf09a] (06/12) Accurately ripped
28 [2194f4da] (05/11) Accurately ripped
29 [fd20872c] (06/12) Accurately ripped
Offsetted by 302:
01 [2ea471cd] (00/12) No match (V2 was not tested)
02 [5642639e] (00/12) No match (V2 was not tested)
03 [724e7f06] (00/12) No match (V2 was not tested)
04 [86b0adcc] (00/12) No match (V2 was not tested)
05 [1755e2a8] (00/11) No match (V2 was not tested)
06 [7320bd20] (00/11) No match (V2 was not tested)
07 [a0d54740] (00/11) No match (V2 was not tested)
08 [cfd19052] (00/11) No match (V2 was not tested)
09 [4c284f85] (00/12) No match (V2 was not tested)
10 [75b419cb] (00/11) No match (V2 was not tested)
11 [0968273f] (00/11) No match (V2 was not tested)
12 [ac31fcc2] (00/11) No match (V2 was not tested)
13 [a8320bc9] (00/11) No match (V2 was not tested)
14 [5994d3b6] (00/11) No match (V2 was not tested)
15 [9fa3560d] (00/12) No match (V2 was not tested)
16 [1eddf020] (00/11) No match (V2 was not tested)
17 [daa418fe] (00/11) No match (V2 was not tested)
18 [125bba1f] (00/12) No match (V2 was not tested)
19 [08100c73] (00/12) No match (V2 was not tested)
20 [f6cef836] (00/11) No match (V2 was not tested)
21 [db2e4bfd] (00/11) No match (V2 was not tested)
22 [4b2123d7] (00/12) No match (V2 was not tested)
23 [95a503d3] (00/11) No match (V2 was not tested)
24 [05f173dc] (00/11) No match (V2 was not tested)
25 [e939a7d3] (00/11) No match (V2 was not tested)
26 [2998f0c7] (00/12) No match (V2 was not tested)
27 [edab8228] (00/12) No match (V2 was not tested)
28 [f984beb5] (00/11) No match (V2 was not tested)
29 [6f0a19c9] (00/12) No match (V2 was not tested)

Track Peak [ CRC32 ] [W/O NULL]
– 97,7 [649D2988] [E1B4B6E9]
01 97,7 [366B72E2] [B7658063]
02 94,8 [2D35D09F] [E4A0BDA0]
03 93,4 [BA65EE1F] [828E7830]
04 86,0 [0FC1059B] [C8314A2E]
05 86,7 [4A46A6D9] [A381268C]
06 90,4 [F072808A] [B2F53FD9]
07 89,1 [AD420EF7] [B3BB8ABC]
08 93,1 [9498B618] [204079FF]
09 91,7 [6E63F19B] [82917105]
10 88,5 [8A081338] [951BD448]
11 85,6 [77D3B84C] [146CEF1F]
12 90,9 [5DBB2768] [4F816509]
13 86,4 [4F8121D3] [230CA8B6]
14 93,0 [0C46DFFC] [39A369FE]
15 86,0 [633C92FC] [F04B8C5F]
16 73,3 [1E941E00] [2369E88D]
17 86,0 [D830DE8C] [C71F67B1]
18 91,8 [4C4C3D74] [F4DBA990]
19 97,1 [6491A7DA] [D513E524]
20 51,0 [B814D693] [7F4E4183]
21 88,3 [77F05862] [6DCC9219]
22 82,8 [8C81CFB9] [3AAFC5B8]
23 72,4 [138D153C] [BF9288AC]
24 87,4 [42DA7832] [53A57696]
25 74,9 [DC4D1C8C] [C114C182]
26 84,1 [4B81BD06] [9C6835DB]
27 77,9 [A22C25E8] [B3C12AA5]
28 75,1 [0E194CC7] [1064D6FD]
29 83,5 [8702BAB7] [DA8B0B90]

Track List Disc Three - Culver City to the Crescent City:

01. Standing at the Crossroads [02:50]
02. Late Hours at Midnight [02:48]
03. Happy Home [02:48]
04. Sunny Land [03:20]
05. The Way You Treat Me (Aka Mean and Evil) [02:15]
06. No Love in My Heart [02:26]
07. Dust My Blues [03:12]
08. I Was a Fool [02:53]
09. Blues Before Sunrise [02:46]
10. Goodbye (Baby) [03:01]
11. So Mean to Me (take 2) [02:39]
12. So Mean to Me (take 3) [02:38]
13. So Mean to Me (take 4) [02:31]
14. Wild About You Baby (Chat & false start) [01:02]
15. Wild About You [03:21]
16. Wild About You (Baby) [02:43]
17. Elmo's Shuffle (take 3) [03:11]
18. Elmo's Shuffle (take 4) [02:57]
19. Elmo's Shuffle (take 5) [02:37]
20. Long Tall Woman [03:41]
21. Long Tall Woman [02:54]

X Lossless Decoder version 20121222 (142.2)

XLD extraction logfile from 2013-01-12 02:20:22 +0200

Elmore James / Culver City to Crescent City

Used drive : MATSHITA DVD-R UJ-898 (revision HC09)
Media type : Pressed CD

Ripper mode : XLD Secure Ripper
Disable audio cache : OK for the drive with a cache less than 1375KiB
Make use of C2 pointers : NO
Read offset correction : 102
Max retry count : 20
Gap status : Analyzed, Appended

TOC of the extracted CD
Track | Start | Length | Start sector | End sector
––––––––––––––––––––––––––––-
1 | 00:00:38 | 02:50:00 | 38 | 12787
2 | 02:50:38 | 02:47:10 | 12788 | 25322
3 | 05:37:48 | 02:47:05 | 25323 | 37852
4 | 08:24:53 | 03:19:05 | 37853 | 52782
5 | 11:43:58 | 02:14:70 | 52783 | 62902
6 | 13:58:53 | 02:25:10 | 62903 | 73787
7 | 16:23:63 | 03:11:57 | 73788 | 88169
8 | 19:35:45 | 02:52:65 | 88170 | 101134
9 | 22:28:35 | 02:45:58 | 101135 | 113567
10 | 25:14:18 | 03:00:17 | 113568 | 127084
11 | 28:14:35 | 02:38:70 | 127085 | 139004
12 | 30:53:30 | 02:37:33 | 139005 | 150812
13 | 33:30:63 | 02:30:25 | 150813 | 162087
14 | 36:01:13 | 01:01:12 | 162088 | 166674
15 | 37:02:25 | 03:20:43 | 166675 | 181717
16 | 40:22:68 | 02:42:02 | 181718 | 193869
17 | 43:04:70 | 03:10:50 | 193870 | 208169
18 | 46:15:45 | 02:56:48 | 208170 | 221417
19 | 49:12:18 | 02:36:12 | 221418 | 233129
20 | 51:48:30 | 03:40:73 | 233130 | 249702
21 | 55:29:28 | 02:53:10 | 249703 | 262687

List of alternate offset correction values
# | Absolute | Relative | Confidence
–––––––––––––––––––––
1 | 114 | 12 | 6

AccurateRip Summary (DiscID: 002bb648-029c58df-1a0dae15)
Track 01 : OK (v1, confidence 6/6, with different offset)
Track 02 : OK (v1, confidence 6/6, with different offset)
Track 03 : OK (v1, confidence 6/6, with different offset)
Track 04 : OK (v1, confidence 6/6, with different offset)
Track 05 : OK (v1, confidence 6/6, with different offset)
Track 06 : OK (v1, confidence 6/6, with different offset)
Track 07 : OK (v1, confidence 6/6, with different offset)
Track 08 : OK (v1, confidence 6/6, with different offset)
Track 09 : OK (v1, confidence 6/6, with different offset)
Track 10 : OK (v1, confidence 6/6, with different offset)
Track 11 : OK (v1, confidence 6/6, with different offset)
Track 12 : OK (v1, confidence 6/6, with different offset)
Track 13 : OK (v1, confidence 6/6, with different offset)
Track 14 : OK (v1, confidence 6/6, with different offset)
Track 15 : OK (v1, confidence 6/6, with different offset)
Track 16 : OK (v1, confidence 6/6, with different offset)
Track 17 : OK (v1, confidence 6/6, with different offset)
Track 18 : OK (v1, confidence 6/6, with different offset)
Track 19 : OK (v1, confidence 6/6, with different offset)
Track 20 : OK (v1, confidence 6/6, with different offset)
Track 21 : OK (v1, confidence 6/6, with different offset)
->All tracks accurately ripped.

All Tracks
Filename : /Users/Home/Music/Music/myRips/elmore james-the classic early recordings-51-56/CD3-Culver City to the Crescent City/Elmore James - Culver City to Crescent City .flac
Album gain : -6.10 dB
Peak : 0.932281
CRC32 hash (test run) : 5DB2C722
CRC32 hash : 5DB2C722
CRC32 hash (skip zero) : 72E64DCA
Statistics
Read error : 0
Jitter error (maybe fixed) : 0
Retry sector count : 0
Damaged sector count : 0

Track 01
Pre-gap length : 00:02:38

Track gain : -7.35 dB
Peak : 0.876495
CRC32 hash (test run) : 39B04B52
CRC32 hash : 39B04B52
CRC32 hash (skip zero) : B3D9DB5C
AccurateRip v1 signature : 18471D92 (42838D4E w/correction)
AccurateRip v2 signature : C0531EF7
->Accurately ripped with different offset (v1, confidence 6/6, offset +12)
Statistics
Read error : 0
Jitter error (maybe fixed) : 0
Retry sector count : 0
Damaged sector count : 0

Track 02
Pre-gap length : 00:03:48

Track gain : -7.29 dB
Peak : 0.903748
CRC32 hash (test run) : E8C8074D
CRC32 hash : E8C8074D
CRC32 hash (skip zero) : 43B45141
AccurateRip v1 signature : 1D04B39A (6D7FF4C6 w/correction)
AccurateRip v2 signature : 71FC669D
->Accurately ripped with different offset (v1, confidence 6/6, offset +12)
Statistics
Read error : 0
Jitter error (maybe fixed) : 0
Retry sector count : 0
Damaged sector count : 0

Track 03
Pre-gap length : 00:03:00

Track gain : -6.02 dB
Peak : 0.877075
CRC32 hash (test run) : 160D6A46
CRC32 hash : 160D6A46
CRC32 hash (skip zero) : 03320FA5
AccurateRip v1 signature : 1D5DCFDB (21C08107 w/correction)
AccurateRip v2 signature : 9CCB6947
->Accurately ripped with different offset (v1, confidence 6/6, offset +12)
Statistics
Read error : 0
Jitter error (maybe fixed) : 0
Retry sector count : 0
Damaged sector count : 0

Track 04
Pre-gap length : 00:03:05

Track gain : -6.30 dB
Peak : 0.858551
CRC32 hash (test run) : B33596D5
CRC32 hash : B33596D5
CRC32 hash (skip zero) : 8F1D6B78
AccurateRip v1 signature : 99AF6096 (0CC4E0AE w/correction)
AccurateRip v2 signature : AACF5028
->Accurately ripped with different offset (v1, confidence 6/6, offset +12)
Statistics
Read error : 0
Jitter error (maybe fixed) : 0
Retry sector count : 0
Damaged sector count : 0

Track 05
Pre-gap length : 00:02:65

Track gain : -7.16 dB
Peak : 0.932281
CRC32 hash (test run) : 33EAC558
CRC32 hash : 33EAC558
CRC32 hash (skip zero) : 49738815
AccurateRip v1 signature : 05BED484 (9B1DC264 w/correction)
AccurateRip v2 signature : F810F718
->Accurately ripped with different offset (v1, confidence 6/6, offset +12)
Statistics
Read error : 0
Jitter error (maybe fixed) : 0
Retry sector count : 0
Damaged sector count : 0

Track 06
Pre-gap length : 00:01:69

Track gain : -6.07 dB
Peak : 0.852966
CRC32 hash (test run) : 603B87F0
CRC32 hash : 603B87F0
CRC32 hash (skip zero) : BFACDB46
AccurateRip v1 signature : 722ABA3C (C254CFF8 w/correction)
AccurateRip v2 signature : 944BC1F4
->Accurately ripped with different offset (v1, confidence 6/6, offset +12)
Statistics
Read error : 0
Jitter error (maybe fixed) : 0
Retry sector count : 0
Damaged sector count : 0

Track 07
Pre-gap length : 00:03:13

Track gain : -6.49 dB
Peak : 0.863403
CRC32 hash (test run) : 5B822271
CRC32 hash : 5B822271
CRC32 hash (skip zero) : 7B93C62B
AccurateRip v1 signature : A1E15ED0 (10CD3CAC w/correction)
AccurateRip v2 signature : 4325ED77
->Accurately ripped with different offset (v1, confidence 6/6, offset +12)
Statistics
Read error : 0
Jitter error (maybe fixed) : 0
Retry sector count : 0
Damaged sector count : 0

Track 08
Pre-gap length : 00:02:45

Track gain : -5.12 dB
Peak : 0.815094
CRC32 hash (test run) : A4290EFF
CRC32 hash : A4290EFF
CRC32 hash (skip zero) : 14B9EBE3
AccurateRip v1 signature : 9F785905 (EBCEFCC1 w/correction)
AccurateRip v2 signature : 7AC96D9C
->Accurately ripped with different offset (v1, confidence 6/6, offset +12)
Statistics
Read error : 0
Jitter error (maybe fixed) : 0
Retry sector count : 0
Damaged sector count : 0

Track 09
Pre-gap length : 00:02:62

Track gain : -6.14 dB
Peak : 0.850311
CRC32 hash (test run) : 068DF2F9
CRC32 hash : 068DF2F9
CRC32 hash (skip zero) : DE8ABC7F
AccurateRip v1 signature : 708C5D0D (F6DADE01 w/correction)
AccurateRip v2 signature : 623FE5E1
->Accurately ripped with different offset (v1, confidence 6/6, offset +12)
Statistics
Read error : 0
Jitter error (maybe fixed) : 0
Retry sector count : 0
Damaged sector count : 0

Track 10
Pre-gap length : 00:03:53

Track gain : -5.94 dB
Peak : 0.913300
CRC32 hash (test run) : 98E0CBE1
CRC32 hash : 98E0CBE1
CRC32 hash (skip zero) : 4599B35E
AccurateRip v1 signature : A1B650BF (D0F71B63 w/correction)
AccurateRip v2 signature : 410781FF
->Accurately ripped with different offset (v1, confidence 6/6, offset +12)
Statistics
Read error : 0
Jitter error (maybe fixed) : 0
Retry sector count : 0
Damaged sector count : 0

Track 11
Pre-gap length : 00:03:30

Track gain : -5.73 dB
Peak : 0.872681
CRC32 hash (test run) : 6B2997D1
CRC32 hash : 6B2997D1
CRC32 hash (skip zero) : 26A2D8AB
AccurateRip v1 signature : 93E82FDA (47D45572 w/correction)
AccurateRip v2 signature : D05E424E
->Accurately ripped with different offset (v1, confidence 6/6, offset +12)
Statistics
Read error : 0
Jitter error (maybe fixed) : 0
Retry sector count : 0
Damaged sector count : 0

Track 12
Pre-gap length : 00:02:32

Track gain : -5.38 dB
Peak : 0.887177
CRC32 hash (test run) : 1CEB0749
CRC32 hash : 1CEB0749
CRC32 hash (skip zero) : F4677DE2
AccurateRip v1 signature : 12E2ACA4 (CCCB7978 w/correction)
AccurateRip v2 signature : 042AC58D
->Accurately ripped with different offset (v1, confidence 6/6, offset +12)
Statistics
Read error : 0
Jitter error (maybe fixed) : 0
Retry sector count : 0
Damaged sector count : 0

Track 13
Pre-gap length : 00:04:73

Track gain : -6.12 dB
Peak : 0.856964
CRC32 hash (test run) : DDE57F18
CRC32 hash : DDE57F18
CRC32 hash (skip zero) : 36C622EC
AccurateRip v1 signature : 9AD9E02C (6CA8DE4C w/correction)
AccurateRip v2 signature : DBC1A334
->Accurately ripped with different offset (v1, confidence 6/6, offset +12)
Statistics
Read error : 0
Jitter error (maybe fixed) : 0
Retry sector count : 0
Damaged sector count : 0

Track 14
Pre-gap length : 00:04:13

Track gain : -2.47 dB
Peak : 0.697205
CRC32 hash (test run) : EA4B4225
CRC32 hash : EA4B4225
CRC32 hash (skip zero) : C94CAD21
AccurateRip v1 signature : 580D2D2B (F2A06953 w/correction)
AccurateRip v2 signature : B5B4327E
->Accurately ripped with different offset (v1, confidence 6/6, offset +12)
Statistics
Read error : 0
Jitter error (maybe fixed) : 0
Retry sector count : 0
Damaged sector count : 0

Track 15
Pre-gap length : 00:02:55

Track gain : -5.88 dB
Peak : 0.884979
CRC32 hash (test run) : 72C11D6F
CRC32 hash : 72C11D6F
CRC32 hash (skip zero) : E05770B7
AccurateRip v1 signature : A53FEF6C (548DEF34 w/correction)
AccurateRip v2 signature : 954BEB2F
->Accurately ripped with different offset (v1, confidence 6/6, offset +12)
Statistics
Read error : 0
Jitter error (maybe fixed) : 0
Retry sector count : 0
Damaged sector count : 0

Track 16
Pre-gap length : 00:03:68

Track gain : -6.57 dB
Peak : 0.881470
CRC32 hash (test run) : 8FCAAC97
CRC32 hash : 8FCAAC97
CRC32 hash (skip zero) : F97252AD
AccurateRip v1 signature : CA53E790 (18FDC660 w/correction)
AccurateRip v2 signature : E06D85DF
->Accurately ripped with different offset (v1, confidence 6/6, offset +12)
Statistics
Read error : 0
Jitter error (maybe fixed) : 0
Retry sector count : 0
Damaged sector count : 0

Track 17
Pre-gap length : 00:03:15

Track gain : -4.45 dB
Peak : 0.877625
CRC32 hash (test run) : FA89F5C6
CRC32 hash : FA89F5C6
CRC32 hash (skip zero) : 3CC5C228
AccurateRip v1 signature : A00F444A (37268926 w/correction)
AccurateRip v2 signature : 0836E483
->Accurately ripped with different offset (v1, confidence 6/6, offset +12)
Statistics
Read error : 0
Jitter error (maybe fixed) : 0
Retry sector count : 0
Damaged sector count : 0

Track 18
Pre-gap length : 00:03:05

Track gain : -4.59 dB
Peak : 0.839294
CRC32 hash (test run) : 5F212B22
CRC32 hash : 5F212B22
CRC32 hash (skip zero) : 8C827903
AccurateRip v1 signature : 6C992A10 (3BA00C00 w/correction)
AccurateRip v2 signature : EA965023
->Accurately ripped with different offset (v1, confidence 6/6, offset +12)
Statistics
Read error : 0
Jitter error (maybe fixed) : 0
Retry sector count : 0
Damaged sector count : 0

Track 19
Pre-gap length : 00:04:68

Track gain : -6.25 dB
Peak : 0.913727
CRC32 hash (test run) : 5075EAA2
CRC32 hash : 5075EAA2
CRC32 hash (skip zero) : 384F37A7
AccurateRip v1 signature : 811929EC (3BC9BF30 w/correction)
AccurateRip v2 signature : E685302A
->Accurately ripped with different offset (v1, confidence 6/6, offset +12)
Statistics
Read error : 0
Jitter error (maybe fixed) : 0
Retry sector count : 0
Damaged sector count : 0

Track 20
Pre-gap length : 00:03:17

Track gain : -7.02 dB
Peak : 0.891632
CRC32 hash (test run) : 5E122E59
CRC32 hash : 5E122E59
CRC32 hash (skip zero) : B6FB0EC8
AccurateRip v1 signature : E058DE34 (F749AC08 w/correction)
AccurateRip v2 signature : 12B87D54
->Accurately ripped with different offset (v1, confidence 6/6, offset +12)
Statistics
Read error : 0
Jitter error (maybe fixed) : 0
Retry sector count : 0
Damaged sector count : 0

Track 21
Pre-gap length : 00:04:30

Track gain : -6.99 dB
Peak : 0.886353
CRC32 hash (test run) : 36F13209
CRC32 hash : 36F13209
CRC32 hash (skip zero) : C052D540
AccurateRip v1 signature : 403F628F (F387AEC3 w/correction)
AccurateRip v2 signature : 35394BFE
->Accurately ripped with different offset (v1, confidence 6/6, offset +12)
Statistics
Read error : 0
Jitter error (maybe fixed) : 0
Retry sector count : 0
Damaged sector count : 0

No errors occurred

End of status report

foobar2000 1.2.6 / Dynamic Range Meter 1.1.1
log date: 2015-03-18 20:25:41

––––––––––––––––––––––––––––––––––––––––
Analyzed: Elmore James / Culver City to Crescent City
––––––––––––––––––––––––––––––––––––––––

DR Peak RMS Duration Track
––––––––––––––––––––––––––––––––––––––––
DR10 -1.15 dB -13.35 dB 2:50 01-Standing at the Crossroads
DR10 -0.88 dB -13.87 dB 2:47 02-Late Hours at Midnight
DR10 -1.14 dB -12.38 dB 2:47 03-Happy Home
DR11 -1.32 dB -15.04 dB 3:19 04-Sunny Land
DR12 -0.61 dB -14.70 dB 2:15 05-The Way You Treat Me (Aka Mean and Evil)
DR11 -1.38 dB -14.30 dB 2:25 06-No Love in My Heart
DR10 -1.28 dB -13.07 dB 3:12 07-Dust My Blues
DR10 -1.78 dB -13.32 dB 2:53 08-I Was a Fool
DR11 -1.41 dB -13.97 dB 2:46 09-Blues Before Sunrise
DR11 -0.79 dB -13.55 dB 3:00 10-Goodbye (Baby)
DR11 -1.18 dB -14.08 dB 2:39 11-So Mean to Me (take 2)
DR12 -1.04 dB -14.90 dB 2:37 12-So Mean to Me (take 3)
DR10 -1.34 dB -13.61 dB 2:30 13-So Mean to Me (take 4)
DR11 -3.13 dB -19.05 dB 1:01 14-Wild About You Baby (Chat & false start)
DR10 -1.06 dB -13.16 dB 3:21 15-Wild About You
DR10 -1.10 dB -12.63 dB 2:42 16-Wild About You (Baby)
DR11 -1.13 dB -13.71 dB 3:11 17-Elmo's Shuffle (take 3)
DR10 -1.52 dB -13.67 dB 2:57 18-Elmo's Shuffle (take 4)
DR9 -0.78 dB -11.55 dB 2:36 19-Elmo's Shuffle (take 5)
DR9 -1.00 dB -12.28 dB 3:41 20-Long Tall Woman
DR9 -1.05 dB -11.89 dB 2:53 21-Long Tall Woman
––––––––––––––––––––––––––––––––––––––––

Number of tracks: 21
Official DR value: DR11

Samplerate: 44100 Hz
Channels: 2
Bits per sample: 16
Bitrate: 399 kbps
Codec: FLAC
================================================================================

[CUETools log; Date: 18.03.2015 20:24:59; Version: 2.1.5]
Pregap length 00:00:38.
[CTDB TOCID: FKEN8cLf3Fin8j_NOZds_C8kXdU-] found.
Track | CTDB Status
1 | (1/1) Accurately ripped
2 | (1/1) Accurately ripped
3 | (1/1) Accurately ripped
4 | (1/1) Accurately ripped
5 | (1/1) Accurately ripped
6 | (1/1) Accurately ripped
7 | (1/1) Accurately ripped
8 | (1/1) Accurately ripped
9 | (1/1) Accurately ripped
10 | (1/1) Accurately ripped
11 | (1/1) Accurately ripped
12 | (1/1) Accurately ripped
13 | (1/1) Accurately ripped
14 | (1/1) Accurately ripped
15 | (1/1) Accurately ripped
16 | (1/1) Accurately ripped
17 | (1/1) Accurately ripped
18 | (1/1) Accurately ripped
19 | (1/1) Accurately ripped
20 | (1/1) Accurately ripped
21 | (1/1) Accurately ripped
[AccurateRip ID: 002bb648-029c58df-1a0dae15] found.
Track [ CRC | V2 ] Status
01 [18471d92|c0531ef7] (00+04/12) Accurately ripped
02 [1d04b39a|71fc669d] (00+04/12) Accurately ripped
03 [1d5dcfdb|9ccb6947] (00+04/12) Accurately ripped
04 [99af6096|aacf5028] (00+04/12) Accurately ripped
05 [05bed484|f810f718] (00+04/12) Accurately ripped
06 [722aba3c|944bc1f4] (00+04/12) Accurately ripped
07 [a1e15ed0|4325ed77] (00+04/12) Accurately ripped
08 [9f785905|7ac96d9c] (00+04/12) Accurately ripped
09 [708c5d0d|623fe5e1] (00+04/12) Accurately ripped
10 [a1b650bf|410781ff] (00+04/12) Accurately ripped
11 [93e82fda|d05e424e] (00+04/12) Accurately ripped
12 [12e2aca4|042ac58d] (00+04/12) Accurately ripped
13 [9ad9e02c|dbc1a334] (00+04/12) Accurately ripped
14 [580d2d2b|b5b4327e] (00+04/12) Accurately ripped
15 [a53fef6c|954beb2f] (00+04/12) Accurately ripped
16 [ca53e790|e06d85df] (00+04/12) Accurately ripped
17 [a00f444a|0836e483] (00+04/12) Accurately ripped
18 [6c992a10|ea965023] (00+04/12) Accurately ripped
19 [811929ec|e685302a] (00+04/12) Accurately ripped
20 [e058de34|12b87d54] (00+04/12) Accurately ripped
21 [403f628f|35394bfe] (00+04/12) Accurately ripped
Offsetted by 12:
01 [42838d4e] (06/12) Accurately ripped
02 [6d7ff4c6] (06/12) Accurately ripped
03 [21c08107] (06/12) Accurately ripped
04 [0cc4e0ae] (06/12) Accurately ripped
05 [9b1dc264] (06/12) Accurately ripped
06 [c254cff8] (06/12) Accurately ripped
07 [10cd3cac] (06/12) Accurately ripped
08 [ebcefcc1] (06/12) Accurately ripped
09 [f6dade01] (06/12) Accurately ripped
10 [d0f71b63] (06/12) Accurately ripped
11 [47d45572] (06/12) Accurately ripped
12 [cccb7978] (06/12) Accurately ripped
13 [6ca8de4c] (06/12) Accurately ripped
14 [f2a06953] (06/12) Accurately ripped
15 [548def34] (06/12) Accurately ripped
16 [18fdc660] (06/12) Accurately ripped
17 [37268926] (06/12) Accurately ripped
18 [3ba00c00] (06/12) Accurately ripped
19 [3bc9bf30] (06/12) Accurately ripped
20 [f749ac08] (06/12) Accurately ripped
21 [f387aec3] (06/12) Accurately ripped
Offsetted by 694:
01 [f843b0e0] (00/12) No match (V2 was not tested)
02 [cb879760] (00/12) No match (V2 was not tested)
03 [70542ba1] (00/12) No match (V2 was not tested)
04 [19602602] (00/12) No match (V2 was not tested)
05 [99b0e6f4] (00/12) No match (V2 was not tested)
06 [3901f88a] (00/12) No match (V2 was not tested)
07 [b0d4fdae] (00/12) No match (V2 was not tested)
08 [5e605653] (00/12) No match (V2 was not tested)
09 [9d487ed7] (00/12) No match (V2 was not tested)
10 [4e841821] (00/12) No match (V2 was not tested)
11 [e416ae06] (00/12) No match (V2 was not tested)
12 [e7fa47de] (00/12) No match (V2 was not tested)
13 [d61cf3bc] (00/12) No match (V2 was not tested)
14 [18faeedf] (00/12) No match (V2 was not tested)
15 [95098d70] (00/12) No match (V2 was not tested)
16 [e5096838] (00/12) No match (V2 was not tested)
17 [c22652a8] (00/12) No match (V2 was not tested)
18 [31a734c8] (00/12) No match (V2 was not tested)
19 [adfd8d1e] (00/12) No match (V2 was not tested)
20 [39bf5dee] (00/12) No match (V2 was not tested)
21 [6b69eef9] (00/12) No match (V2 was not tested)

Track Peak [ CRC32 ] [W/O NULL]
– 93,2 [5DB2C722] [72E64DCA]
01 87,6 [39B04B52] [B3D9DB5C]
02 90,3 [E8C8074D] [43B45141]
03 87,7 [160D6A46] [03320FA5]
04 85,8 [B33596D5] [8F1D6B78]
05 93,2 [33EAC558] [49738815]
06 85,2 [603B87F0] [BFACDB46]
07 86,3 [5B822271] [7B93C62B]
08 81,5 [A4290EFF] [14B9EBE3]
09 85,0 [068DF2F9] [DE8ABC7F]
10 91,3 [98E0CBE1] [4599B35E]
11 87,2 [6B2997D1] [26A2D8AB]
12 88,7 [1CEB0749] [F4677DE2]
13 85,6 [DDE57F18] [36C622EC]
14 69,7 [EA4B4225] [C94CAD21]
15 88,5 [72C11D6F] [E05770B7]
16 88,1 [8FCAAC97] [F97252AD]
17 87,7 [FA89F5C6] [3CC5C228]
18 83,9 [5F212B22] [8C827903]
19 91,3 [5075EAA2] [384F37A7]
20 89,1 [5E122E59] [B6FB0EC8]
21 88,6 [36F13209] [C052D540]

Elmore James - The Classic Early Recordings 1951-1956 (1993/2007, 3CD Box Set, Remastered, Reissue)

All thanks go to igaann

Visit my blog!

Download: