Elton John: 3CD (1988 - 1997) [Nippon Phonogram, Japan]

Posted By: v3122
Elton John: 3CD (1988 - 1997) [Nippon Phonogram, Japan]

Elton John: 3CD (1988 - 1997)
EAC | Flac(Image) + Cue + Log & MP3 CBR 320Kbps
Nippon Phonogram | ~ 1143 or 409 Mb | Scans(jpg) -> 210 Mb
Pop Rock / Classic Rock

~ Albums: 1988 - Reg Strikes Back; 1993 - Duets; The Big Picture ~

Elton John: 3CD (1988 - 1997) [Nippon Phonogram, Japan]


Elton John: 3CD (1988 - 1997):

Elton John: 3CD (1988 - 1997) [Nippon Phonogram, Japan]

Elton John - Reg Strikes Back (1988)
EAC | Flac(Image) + Cue + Log & MP3 CBR 320Kbps
Nippon Phonogram, 32PD-476 | ~ 268 or 99 Mb | Scans(jpg) -> 28 Mb
Pop Rock / Classic Rock

As Elton John's first album for MCA Records, Reg Strikes Back received a considerable amount of hype upon its release, but the results were considerably less inspired than his early-'80s records for Geffen. It's always a bad sign when an artist re-records or reinterprets one of his classics, as John does here with "Mona Lisas and Mad Hatters, Pt. 2," but what really sinks Reg Strikes Back are the colorless tunes. Apart from the clenched dance-pop of "I Don't Wanna Go on With You Like That" and the simpy "A Word in Spanish," none of the melodies on the record are memorable, and even those aren't particularly strong. Instead of recharging his career, Reg Strikes Back began a dry spell that ran for nearly five years.

by Stephen Thomas Erlewine
Tracklist:

01. Town Of Plenty [03:40]
02. A Word In Spanish [04:39]
03. Mona Lisas And Mad Hatters (part two) [04:12]
04. I Don't Wanna Go On With You Like That [04:35]
05. Japanese Hands [04:41]
06. Goodbye Marlon Brando [03:30]
07. The Camera Never Lies [04:36]
08. Heavy Traffic [03:30]
09. Poor Cow [03:50]
10. Since God Invented Girls [04:39]

Exact Audio Copy V0.99 prebeta 5 from 4. May 2009

EAC extraction logfile from 24. January 2013, 0:19

ELTON JOHN / Reg Strikes Back

Used drive : ASUS DRW-24B3ST Adapter: 2 ID: 0

Read mode : Secure
Utilize accurate stream : Yes
Defeat audio cache : Yes
Make use of C2 pointers : No

Read offset correction : 6
Overread into Lead-In and Lead-Out : No
Fill up missing offset samples with silence : Yes
Delete leading and trailing silent blocks : No
Null samples used in CRC calculations : Yes
Used interface : Native Win32 interface for Win NT & 2000

Used output format : User Defined Encoder
Selected bitrate : 1024 kBit/s
Quality : High
Add ID3 tag : No
Command line compressor : C:\Program Files (x86)\EAC\WV\wavpack.exe
Additional command line options : -h -hh -m %s %d


TOC of the extracted CD

Track | Start | Length | Start sector | End sector
––––––––––––––––––––––––––––-
1 | 0:00.37 | 3:40.58 | 37 | 16594
2 | 3:41.20 | 4:39.15 | 16595 | 37534
3 | 8:20.35 | 4:12.50 | 37535 | 56484
4 | 12:33.10 | 4:35.65 | 56485 | 77174
5 | 17:09.00 | 4:41.12 | 77175 | 98261
6 | 21:50.12 | 3:30.28 | 98262 | 114039
7 | 25:20.40 | 4:36.17 | 114040 | 134756
8 | 29:56.57 | 3:30.13 | 134757 | 150519
9 | 33:26.70 | 3:50.42 | 150520 | 167811
10 | 37:17.37 | 4:39.55 | 167812 | 188791


Range status and errors

Selected range

Filename S:\ELTON JOHN\1988- Reg Strikes Back (JP 1988 Nippon Phonogram • 32PD-476)\ELTON JOHN - Reg Strikes Back.wav

Peak level 100.0 %
Range quality 100.0 %
Test CRC 6E4B760B
Copy CRC 6E4B760B
Copy OK

No errors occurred


AccurateRip summary

Track 1 accurately ripped (confidence 1) [24FD38FF]
Track 2 accurately ripped (confidence 1) [1EC5B4FC]
Track 3 accurately ripped (confidence 1) [FA20B88E]
Track 4 accurately ripped (confidence 1) [AA66D4A1]
Track 5 accurately ripped (confidence 1) [8E1D2A7E]
Track 6 accurately ripped (confidence 1) [660ADF07]
Track 7 accurately ripped (confidence 1) [9C38529F]
Track 8 accurately ripped (confidence 1) [EA8070F7]
Track 9 accurately ripped (confidence 1) [94658797]
Track 10 accurately ripped (confidence 1) [674A42FD]

All tracks accurately ripped

End of status report


foobar2000 1.2.9 / Dynamic Range Meter 1.1.1
log date: 2017-06-17 18:19:56

––––––––––––––––––––––––––––––––––––––––
Analyzed: ELTON JOHN / Reg Strikes Back
––––––––––––––––––––––––––––––––––––––––

DR Peak RMS Duration Track
––––––––––––––––––––––––––––––––––––––––
DR11 0.00 dB -14.25 dB 3:41 01-Town Of Plenty
DR13 -0.43 dB -16.34 dB 4:39 02-A Word In Spanish
DR12 -0.57 dB -14.90 dB 4:13 03-Mona Lisas And Mad Hatters (part two)
DR13 0.00 dB -14.69 dB 4:36 04-I Don't Wanna Go On With You Like That
DR11 -2.61 dB -17.25 dB 4:41 05-Japanese Hands
DR11 0.00 dB -14.16 dB 3:30 06-Goodbye Marlon Brando
DR13 0.00 dB -14.49 dB 4:36 07-The Camera Never Lies
DR12 -2.05 dB -16.42 dB 3:30 08-Heavy Traffic
DR13 -0.05 dB -15.65 dB 3:51 09-Poor Cow
DR12 -0.37 dB -16.29 dB 4:40 10-Since God Invented Girls
––––––––––––––––––––––––––––––––––––––––

Number of tracks: 10
Official DR value: DR12

Samplerate: 44100 Hz
Channels: 2
Bits per sample: 16
Bitrate: 866 kbps
Codec: FLAC
================================================================================



[CUETools log; Date: 17.06.2017 18:19:40; Version: 2.1.4]
Pregap length 00:00:37.
[CTDB TOCID: p.AQJmz4eORMiYQAbtrn2CLsOgE-] found.
Track | CTDB Status
1 | (7/7) Accurately ripped
2 | (7/7) Accurately ripped
3 | (7/7) Accurately ripped
4 | (7/7) Accurately ripped
5 | (7/7) Accurately ripped
6 | (7/7) Accurately ripped
7 | (7/7) Accurately ripped
8 | (7/7) Accurately ripped
9 | (7/7) Accurately ripped
10 | (7/7) Accurately ripped
[AccurateRip ID: 000fe65a-007f270b-6a09d50a] found.
Track [ CRC | V2 ] Status
01 [24fd38ff|070d435c] (1+1/4) Accurately ripped
02 [1ec5b4fc|715ca571] (1+1/4) Accurately ripped
03 [fa20b88e|fa27e711] (0+2/2) Accurately ripped
04 [aa66d4a1|a13dc624] (1+0/4) Accurately ripped
05 [8e1d2a7e|b7a08c06] (0+2/2) Accurately ripped
06 [660adf07|70d677b3] (0+2/2) Accurately ripped
07 [9c38529f|d80a7290] (0+2/2) Accurately ripped
08 [ea8070f7|a53a1e92] (0+2/2) Accurately ripped
09 [94658797|838c547c] (0+2/2) Accurately ripped
10 [674a42fd|d85bfbbe] (1+1/4) Accurately ripped

Track Peak [ CRC32 ] [W/O NULL] [ LOG ]
– 100,0 [6E4B760B] [365B12C1] CRC32
01 100,0 [6ED7CB23] [78733B29]
02 95,2 [8EF9E506] [FF75FACA]
03 93,6 [5463AF7A] [EA705422]
04 100,0 [76E6CF02] [2F2A80A9]
05 74,0 [FB567CA5] [7EF30A40]
06 100,0 [9CBC1A29] [3CA9A465]
07 100,0 [44D2BD75] [3D8D3875]
08 79,0 [6B899F03] [0AFBEBE6]
09 99,4 [DE07E9AB] [222D7FF3]
10 95,8 [21BB2D51] [3D5F7758]


Elton John: 3CD (1988 - 1997) [Nippon Phonogram, Japan]

Elton John - Duets (1993)
EAC | Flac(Image) + Cue + Log & MP3 CBR 320Kbps
Nippon Phonogram, PHCR-1230 | ~ 512 or 176 Mb | Scans(jpg) -> 81 Mb
Pop Rock / Classic Rock

Unlike Frank Sinatra's album, John actually recorded in the studio with his duet partners, adding a spark to his album missing on Sinatra's Duets, even if his choices are nearly as bewildering. Some of the material doesn't work in the duet format, and his partners occasionally don't mesh with his current adult contemporary style. All of this makes Duets an ultimately disappointing record, even with the occasional successful track, like the kitschy number with drag queen RuPaul.

by Stephen Thomas Erlewine
Tracklist:

01. Teardrops (with k. d. lang) [04:54]
02. When I Think About Love (I Think About You) (with P.M. Dawn) [04:34]
03. The Power (with Little Richard) [06:24]
04. Shakey Ground (with Don Henley) [03:51]
05. True Love (with Kiki Dee) [03:34]
06. If You Were Me (with Chris Rea) [04:26]
07. A Woman's Needs (with Tammy Wynette) [05:18]
08. Old Friend (with Nik Kershaw) [04:16]
09. Go On And On (with Gladys Knight) [05:50]
10. Don't Go Breaking My Heart (with RuPaul) [05:00]
11. Ain't Nothing Like The Real Thing (with Marcella Detroit) [03:35]
12. I'm Your Puppet (with Paul Young) [03:36]
13. Love Letters (with Bonnie Raitt) [04:01]
14. Born To Lose (with Leonard Cogen) [04:33]
15. Don't Let The Sun Go Down On Me (with George Michael) [05:47]
16. Duets For One [04:53]

Exact Audio Copy V0.99 prebeta 5 from 4. May 2009

EAC extraction logfile from 23. January 2013, 14:14

ELTON JOHN / Duets

Used drive : ASUS DRW-24B3ST Adapter: 3 ID: 0

Read mode : Secure
Utilize accurate stream : Yes
Defeat audio cache : Yes
Make use of C2 pointers : No

Read offset correction : 6
Overread into Lead-In and Lead-Out : No
Fill up missing offset samples with silence : Yes
Delete leading and trailing silent blocks : No
Null samples used in CRC calculations : Yes
Used interface : Native Win32 interface for Win NT & 2000

Used output format : User Defined Encoder
Selected bitrate : 1024 kBit/s
Quality : High
Add ID3 tag : No
Command line compressor : C:\Program Files (x86)\EAC\WV\wavpack.exe
Additional command line options : -h -hh -m %s %d


TOC of the extracted CD

Track | Start | Length | Start sector | End sector
––––––––––––––––––––––––––––-
1 | 0:00.00 | 4:54.57 | 0 | 22106
2 | 4:54.57 | 4:34.48 | 22107 | 42704
3 | 9:29.30 | 6:24.67 | 42705 | 71571
4 | 15:54.22 | 3:51.60 | 71572 | 88956
5 | 19:46.07 | 3:34.60 | 88957 | 105066
6 | 23:20.67 | 4:26.10 | 105067 | 125026
7 | 27:47.02 | 5:18.63 | 125027 | 148939
8 | 33:05.65 | 4:16.45 | 148940 | 168184
9 | 37:22.35 | 5:50.12 | 168185 | 194446
10 | 43:12.47 | 5:00.08 | 194447 | 216954
11 | 48:12.55 | 3:35.62 | 216955 | 233141
12 | 51:48.42 | 3:36.28 | 233142 | 249369
13 | 55:24.70 | 4:01.37 | 249370 | 267481
14 | 59:26.32 | 4:33.20 | 267482 | 287976
15 | 63:59.52 | 5:47.48 | 287977 | 314049
16 | 69:47.25 | 4:53.15 | 314050 | 336039


Range status and errors

Selected range

Filename S:\ELTON JOHN\1993- Duets (JP 1995 Nippon Phonogram • PHCR-1230)\ELTON JOHN - Duets.wav

Peak level 100.0 %
Range quality 99.9 %
Test CRC 3138D2DF
Copy CRC 3138D2DF
Copy OK

No errors occurred


AccurateRip summary

Track 1 accurately ripped (confidence 3) [E24CDC07]
Track 2 accurately ripped (confidence 3) [F32A804A]
Track 3 accurately ripped (confidence 3) [4212F27D]
Track 4 accurately ripped (confidence 3) [085E0150]
Track 5 accurately ripped (confidence 3) [545122CA]
Track 6 accurately ripped (confidence 3) [C9492D9A]
Track 7 accurately ripped (confidence 3) [75602623]
Track 8 accurately ripped (confidence 3) [889B3EB1]
Track 9 accurately ripped (confidence 3) [2C152ADA]
Track 10 accurately ripped (confidence 3) [97E42CA8]
Track 11 accurately ripped (confidence 3) [1522E437]
Track 12 accurately ripped (confidence 3) [C55CE5AD]
Track 13 accurately ripped (confidence 3) [C72C5825]
Track 14 accurately ripped (confidence 3) [D947D41C]
Track 15 accurately ripped (confidence 3) [D4DAF0CB]
Track 16 accurately ripped (confidence 3) [7D9272F7]

All tracks accurately ripped

End of status report


foobar2000 1.2.9 / Dynamic Range Meter 1.1.1
log date: 2017-06-17 18:20:22

––––––––––––––––––––––––––––––––––––––––
Analyzed: ELTON JOHN / Duets
––––––––––––––––––––––––––––––––––––––––

DR Peak RMS Duration Track
––––––––––––––––––––––––––––––––––––––––
DR11 -0.23 dB -12.56 dB 4:55 01-Teardrops (with k. d. lang)
DR10 -1.59 dB -13.53 dB 4:35 02-When I Think About Love (I Think About You) (with P.M. Dawn)
DR10 -0.58 dB -12.11 dB 6:25 03-The Power (with Little Richard)
DR11 -0.69 dB -13.98 dB 3:52 04-Shakey Ground (with Don Henley)
DR11 -0.64 dB -14.14 dB 3:35 05-True Love (with Kiki Dee)
DR11 -0.82 dB -14.49 dB 4:26 06-If You Were Me (with Chris Rea)
DR11 -0.12 dB -14.02 dB 5:19 07-A Woman's Needs (with Tammy Wynette)
DR10 -0.72 dB -12.99 dB 4:17 08-Old Friend (with Nik Kershaw)
DR11 -0.57 dB -12.65 dB 5:50 09-Go On And On (with Gladys Knight)
DR11 -0.45 dB -12.43 dB 5:00 10-Don't Go Breaking My Heart (with RuPaul)
DR11 0.00 dB -11.84 dB 3:36 11-Ain't Nothing Like The Real Thing (with Marcella Detroit)
DR10 -0.63 dB -12.79 dB 3:36 12- I'm Your Puppet (with Paul Young)
DR10 -0.53 dB -13.00 dB 4:01 13-Love Letters (with Bonnie Raitt)
DR12 -1.16 dB -15.17 dB 4:33 14-Born To Lose (with Leonard Cogen)
DR10 -0.76 dB -13.48 dB 5:48 15-Don't Let The Sun Go Down On Me (with George Michael)
DR10 -0.37 dB -11.96 dB 4:53 16-Duets For One
––––––––––––––––––––––––––––––––––––––––

Number of tracks: 16
Official DR value: DR10

Samplerate: 44100 Hz
Channels: 2
Bits per sample: 16
Bitrate: 930 kbps
Codec: FLAC
================================================================================



[CUETools log; Date: 17.06.2017 18:20:07; Version: 2.1.4]
[CTDB TOCID: tzgcyYSmr5iDGwJ2cNDD4GeNWy0-] found.
Track | CTDB Status
1 | (26/26) Accurately ripped
2 | (26/26) Accurately ripped
3 | (26/26) Accurately ripped
4 | (26/26) Accurately ripped
5 | (26/26) Accurately ripped
6 | (26/26) Accurately ripped
7 | (26/26) Accurately ripped
8 | (26/26) Accurately ripped
9 | (26/26) Accurately ripped
10 | (26/26) Accurately ripped
11 | (26/26) Accurately ripped
12 | (26/26) Accurately ripped
13 | (26/26) Accurately ripped
14 | (26/26) Accurately ripped
15 | (26/26) Accurately ripped
16 | (26/26) Accurately ripped
[AccurateRip ID: 002bd2d7-020b2bd7-03118010] found.
Track [ CRC | V2 ] Status
01 [e24cdc07|5f758eaa] (03+00/10) Accurately ripped
02 [f32a804a|9bc2cc3e] (03+00/10) Accurately ripped
03 [4212f27d|c332aa3e] (03+00/10) Accurately ripped
04 [085e0150|317634a8] (03+00/10) Accurately ripped
05 [545122ca|44aa499a] (03+00/10) Accurately ripped
06 [c9492d9a|4f49f171] (03+00/10) Accurately ripped
07 [75602623|f90c711c] (03+00/10) Accurately ripped
08 [889b3eb1|aacd8665] (03+00/10) Accurately ripped
09 [2c152ada|678bfd50] (03+00/10) Accurately ripped
10 [97e42ca8|58983050] (03+00/10) Accurately ripped
11 [1522e437|04cc9442] (03+00/10) Accurately ripped
12 [c55ce5ad|111e205b] (03+00/10) Accurately ripped
13 [c72c5825|356c19e6] (03+00/10) Accurately ripped
14 [d947d41c|2012ac83] (03+00/10) Accurately ripped
15 [d4daf0cb|1d87add9] (03+00/10) Accurately ripped
16 [7d9272f7|76d74102] (03+00/10) Accurately ripped
Offsetted by -307:
01 [98412e5f] (00/10) No match (V2 was not tested)
02 [9c07ecb0] (00/10) No match (V2 was not tested)
03 [e7c5f3cb] (00/10) No match (V2 was not tested)
04 [8d1c7ae5] (00/10) No match (V2 was not tested)
05 [b72e32b5] (00/10) No match (V2 was not tested)
06 [9ff87bc1] (00/10) No match (V2 was not tested)
07 [15ad42c6] (00/10) No match (V2 was not tested)
08 [98263c93] (00/10) No match (V2 was not tested)
09 [090bf808] (00/10) No match (V2 was not tested)
10 [221dbb0c] (00/10) No match (V2 was not tested)
11 [353bc94d] (00/10) No match (V2 was not tested)
12 [6303f297] (00/10) No match (V2 was not tested)
13 [e9eded2f] (00/10) No match (V2 was not tested)
14 [515519e5] (00/10) No match (V2 was not tested)
15 [f6427fcb] (00/10) No match (V2 was not tested)
16 [4d16c6b8] (00/10) No match (V2 was not tested)
Offsetted by -13:
01 [8d71e3af] (00/10) No match (V2 was not tested)
02 [e5788a0c] (00/10) No match (V2 was not tested)
03 [d1f986a9] (00/10) No match (V2 was not tested)
04 [81c33635] (00/10) No match (V2 was not tested)
05 [abe4161f] (00/10) No match (V2 was not tested)
06 [f13aebb3] (00/10) No match (V2 was not tested)
07 [fe3f8ec0] (00/10) No match (V2 was not tested)
08 [81c27c4f] (00/10) No match (V2 was not tested)
09 [ba667cf8] (00/10) No match (V2 was not tested)
10 [27207dd0] (00/10) No match (V2 was not tested)
11 [74b935a1] (00/10) No match (V2 was not tested)
12 [c55e2243] (00/10) No match (V2 was not tested)
13 [2af0b19f] (00/10) No match (V2 was not tested)
14 [0137cc0f] (00/10) No match (V2 was not tested)
15 [79b5a1cb] (00/10) No match (V2 was not tested)
16 [cd3d28f6] (00/10) No match (V2 was not tested)

Track Peak [ CRC32 ] [W/O NULL] [ LOG ]
– 100,0 [3138D2DF] [A1819652] CRC32
01 97,4 [E84996DA] [50E50645]
02 83,3 [D10FEEE1] [31CE27F9]
03 93,5 [1BA72778] [DF8EBB49]
04 92,3 [539FFD9C] [6554A878]
05 92,9 [5839E805] [27BEB5FD]
06 91,0 [8E67952D] [CE778923]
07 98,5 [41325126] [F9C3B54A]
08 92,0 [A7A6AEAF] [42DD3D4C]
09 93,6 [097CF7F9] [9FC8B078]
10 94,9 [26DE94DB] [B5241B23]
11 100,0 [91DCC765] [D5780F9D]
12 92,9 [AD96411F] [C5AFADA6]
13 94,0 [6DB88E2C] [0E40223D]
14 87,5 [72581334] [F9096219]
15 91,5 [795F0B23] [D349BCC7]
16 95,8 [A6893401] [AA55E17B]


Elton John: 3CD (1988 - 1997) [Nippon Phonogram, Japan]

Elton John - The Big Picture (1997)
EAC | Flac(Image) + Cue + Log & MP3 CBR 320Kbps
Nippon Phonogram, PHCR-1545 | ~ 363 or 134 Mb | Scans(jpg) -> 101 Mb
Pop Rock / Classic Rock

The Big Picture finds Elton John in strong form, turning in a by-now-predictable collection of ballads and pop songs designed to appeal to the adult contemporary audience. The difference is inspiration. With Made in England, John and his collaborator Bernie Taupin showed signs of life, and they continue that winning streak here. There may be nothing new on The Big Picture, but it's well-crafted professional pop, demonstrating John's knack for catchy pop hooks and his way with a ballad. As with any latter-day John album, hits like "Something About the Way You Look Tonight" are balanced out by some filler, but the key to the album is how album tracks like "Recover Your Soul," "If the River Can Bend," and "The Big Picture" carry emotional and melodic weight. It's a solid effort from one of pop's most reliable artists.

by Stephen Thomas Erlewine
Tracklist:

01. Long Way From Happiness [04:47]
02. Live Like Horses [05:02]
03. The End Will Come [04:52]
04. If The River Can Bend [05:23]
05. Love's Got A Lot To Answer For [05:02]
06. Something About The Way You Look Tonight [05:08]
07. The Big Picture [03:45]
08. Recover Your Soul [05:18]
09. January [04:02]
10. I Can't Steer My Heart Clear Of You [04:10]
11. Wicked Dreams [04:41]
12. I Know Why I'm In Love* [04:30]

Exact Audio Copy V0.99 prebeta 5 from 4. May 2009

EAC extraction logfile from 23. January 2013, 22:14

ELTON JOHN / The Big Picture

Used drive : ASUS DRW-24B3ST Adapter: 3 ID: 0

Read mode : Secure
Utilize accurate stream : Yes
Defeat audio cache : Yes
Make use of C2 pointers : No

Read offset correction : 6
Overread into Lead-In and Lead-Out : No
Fill up missing offset samples with silence : Yes
Delete leading and trailing silent blocks : No
Null samples used in CRC calculations : Yes
Used interface : Native Win32 interface for Win NT & 2000

Used output format : User Defined Encoder
Selected bitrate : 1024 kBit/s
Quality : High
Add ID3 tag : No
Command line compressor : C:\Program Files (x86)\EAC\WV\wavpack.exe
Additional command line options : -h -hh -m %s %d


TOC of the extracted CD

Track | Start | Length | Start sector | End sector
––––––––––––––––––––––––––––-
1 | 0:00.32 | 4:47.28 | 32 | 21584
2 | 4:47.60 | 5:02.12 | 21585 | 44246
3 | 9:49.72 | 4:52.65 | 44247 | 66211
4 | 14:42.62 | 5:23.53 | 66212 | 90489
5 | 20:06.40 | 5:02.35 | 90490 | 113174
6 | 25:09.00 | 5:08.62 | 113175 | 136336
7 | 30:17.62 | 3:45.18 | 136337 | 153229
8 | 34:03.05 | 5:18.25 | 153230 | 177104
9 | 39:21.30 | 4:02.07 | 177105 | 195261
10 | 43:23.37 | 4:10.40 | 195262 | 214051
11 | 47:34.02 | 4:41.15 | 214052 | 235141
12 | 52:15.17 | 4:30.08 | 235142 | 255399


Range status and errors

Selected range

Filename S:\ELTON JOHN\1997- The Big Picture (JP 1999 Nippon Phonogram • PHCR-1545)\ELTON JOHN - The Big Picture.wav

Peak level 100.0 %
Range quality 99.9 %
Test CRC DE4F372F
Copy CRC DE4F372F
Copy OK

No errors occurred


AccurateRip summary

Track 1 accurately ripped (confidence 2) [943EC834]
Track 2 accurately ripped (confidence 2) [24EB619C]
Track 3 accurately ripped (confidence 2) [39967A91]
Track 4 accurately ripped (confidence 2) [0355DB12]
Track 5 accurately ripped (confidence 2) [EA53EEC3]
Track 6 accurately ripped (confidence 2) [E815ECF1]
Track 7 accurately ripped (confidence 2) [5DF079CE]
Track 8 accurately ripped (confidence 2) [C2907214]
Track 9 accurately ripped (confidence 2) [9C5DA234]
Track 10 accurately ripped (confidence 2) [32D771AE]
Track 11 accurately ripped (confidence 2) [4DC44CCE]
Track 12 accurately ripped (confidence 2) [788D5DEA]

All tracks accurately ripped

End of status report


foobar2000 1.2.9 / Dynamic Range Meter 1.1.1
log date: 2017-06-17 18:20:43

––––––––––––––––––––––––––––––––––––––––
Analyzed: ELTON JOHN / The Big Picture
––––––––––––––––––––––––––––––––––––––––

DR Peak RMS Duration Track
––––––––––––––––––––––––––––––––––––––––
DR12 -0.48 dB -14.01 dB 4:47 01-Long Way From Happiness
DR10 -0.30 dB -14.13 dB 5:02 02-Live Like Horses
DR9 -0.30 dB -11.65 dB 4:53 03-The End Will Come
DR11 0.00 dB -13.09 dB 5:24 04-If The River Can Bend
DR11 -0.80 dB -13.33 dB 5:02 05-Love's Got A Lot To Answer For
DR12 -0.30 dB -13.86 dB 5:09 06-Something About The Way You Look Tonight
DR11 -0.30 dB -13.51 dB 3:45 07-The Big Picture
DR11 -0.30 dB -12.23 dB 5:18 08-Recover Your Soul
DR10 -0.30 dB -11.76 dB 4:02 09-January
DR9 -0.30 dB -11.83 dB 4:11 10-I Can't Steer My Heart Clear Of You
DR10 -0.30 dB -11.78 dB 4:41 11-Wicked Dreams
DR12 -0.30 dB -13.91 dB 4:30 12-I Know Why I'm In Love*
––––––––––––––––––––––––––––––––––––––––

Number of tracks: 12
Official DR value: DR11

Samplerate: 44100 Hz
Channels: 2
Bits per sample: 16
Bitrate: 869 kbps
Codec: FLAC
================================================================================



[CUETools log; Date: 17.06.2017 18:20:42; Version: 2.1.4]
Pregap length 00:00:32.
[CTDB TOCID: Li4brSmXuqF4iaDpuIbgEeMg_VQ-] found.
Track | CTDB Status
1 | (18/18) Accurately ripped
2 | (18/18) Accurately ripped
3 | (18/18) Accurately ripped
4 | (18/18) Accurately ripped
5 | (18/18) Accurately ripped
6 | (18/18) Accurately ripped
7 | (18/18) Accurately ripped
8 | (17/18) Accurately ripped
9 | (17/18) Accurately ripped
10 | (18/18) Accurately ripped
11 | (18/18) Accurately ripped
12 | (18/18) Accurately ripped
[AccurateRip ID: 0019f97d-00f1054b-a70d4d0c] found.
Track [ CRC | V2 ] Status
01 [943ec834|c0cbdd26] (2+3/7) Accurately ripped
02 [24eb619c|c43792cc] (2+3/7) Accurately ripped
03 [39967a91|3a082e98] (2+3/7) Accurately ripped
04 [0355db12|ab1d760e] (2+3/7) Accurately ripped
05 [ea53eec3|875a3c4f] (2+3/7) Accurately ripped
06 [e815ecf1|d473e8ef] (2+3/7) Accurately ripped
07 [5df079ce|1ff18064] (2+3/7) Accurately ripped
08 [c2907214|809e4114] (2+2/6) Accurately ripped
09 [9c5da234|41a80f96] (2+2/6) Accurately ripped
10 [32d771ae|68be4ae0] (2+3/7) Accurately ripped
11 [4dc44cce|e976f3b4] (2+3/7) Accurately ripped
12 [788d5dea|e9d6edbb] (2+3/7) Accurately ripped
Offsetted by -327:
01 [af6817c6] (2/7) Accurately ripped
02 [7e26c53b] (2/7) Accurately ripped
03 [92982f54] (2/7) Accurately ripped
04 [2d7422d7] (2/7) Accurately ripped
05 [ccd5f674] (2/7) Accurately ripped
06 [faa46b05] (2/7) Accurately ripped
07 [649fb066] (2/7) Accurately ripped
08 [28f3ebf9] (2/6) Accurately ripped
09 [6ce8d01f] (2/6) Accurately ripped
10 [4a5b7278] (2/7) Accurately ripped
11 [2acfd0f1] (2/7) Accurately ripped
12 [fc334b4a] (2/7) Accurately ripped

Track Peak [ CRC32 ] [W/O NULL] [ LOG ]
– 100,0 [DE4F372F] [F207410E] CRC32
01 94,6 [C56795D0] [AF079F4B]
02 96,6 [C283FE24] [089E0E56]
03 96,6 [880CBD06] [71B3DB56]
04 100,0 [8B39F210] [6A47B0DD]
05 91,2 [77DFFBDC] [7E37EDFE]
06 96,6 [8B06DAB5] [1E513BFB]
07 96,6 [75CDB1EA] [513C96BA]
08 96,6 [C86ECD73] [C8944B9B]
09 96,6 [E4370D3B] [256BE81C]
10 96,6 [2A868761] [F4DB7625]
11 96,6 [548FDD9B] [20C81E58]
12 96,6 [790750AB] [989DE2F4]



All thanks go to the original releasers

Elton John in my Blog

Download Elton John: 3CD (1988 - 1997):