Elton John - The Red Piano (2008) [Blu-Ray]

Posted By: juanchito
Elton John - The Red Piano (2008) [Blu-Ray]

Elton John - The Red Piano (2008)
Blu-ray | BDMV | 1080i (1920x1080, 16:9) | 45.32 GB
Audio: DTS-HD Master Audio 5.1, LPCM 2.0 | Length: 153 minutes
Pop | Nitroflare/Uploadable


For the first time on Blu-ray the stunning Red Piano show live Caesers Palace in Las Vegas, featuring David LaChapelle's background films and stills.

Elton John - The Red Piano (2008) [Blu-Ray]

Elton John - The Red Piano (2008) [Blu-Ray]


Tracklist
01. Bennie And The Jets
02. Philadelphia Freedom
03. Believe
04. Daniel
05. Rocket Man
06. Answer In The Sky
07. Tiny Dancer
08. Don't Let The Sun Go Down On Me
09. Candle In The Wind
10. Pinball Wizard
11. The Bitch Is Back
12. I'm Still Standing
13. Saturday Night's Alright For Fighting
14. Your Song

Bonus
Documentary
The David LaChapelle Film

Disc Title: Elton_John-The_Red_Piano
Disc Size: 48,661,565,656 bytes
Protection: AACS
BD-Java: No
BDInfo: 0.5.8

Notes:

BDINFO HOME:
Cinema Squid
http://www.cinemasquid.com/blu-ray/tools/bdinfo

INCLUDES FORUMS REPORT FOR:
AVS Forum Blu-ray Audio and Video Specifications Thread
http://www.avsforum.com/avs-vb/showthread.php?t=1155731


********************
PLAYLIST: 00000.MPLS
********************

<–- BEGIN FORUMS PASTE –->
                                                                                                                Total   Video                                             
Title                                                           Codec   Length  Movie Size      Disc Size       Bitrate Bitrate Main Audio Track                          Secondary Audio Track
-----                                                           ------  ------- --------------  --------------  ------- ------- ------------------                        ---------------------
00000.MPLS                                                      AVC     1:38:18 18,253,664,256  48,661,565,656  24.76   15.99   LPCM 2.0 2304Kbps (48kHz/24-bit)          DTS-HD Master 5.1 4994Kbps (48kHz/24-bit)


DISC INFO:

Disc Title:     Elton_John-The_Red_Piano
Disc Size:      48,661,565,656 bytes
Protection:     AACS
BD-Java:        No
BDInfo:         0.5.8

PLAYLIST REPORT:

Name:                   00000.MPLS
Length:                 1:38:18.158 (h:m:s.ms)
Size:                   18,253,664,256 bytes
Total Bitrate:          24.76 Mbps

Angle 1 Length:         1:38:16.957 (h:m:s.ms) / 1:38:18.158 (h:m:s.ms)
Angle 1 Size:           15,119,820,480 bytes / 15,176,609,472 bytes
Angle 1 Total Bitrate:  20.51 Mbps / 20.58 Mbps

All Angles Length:      3:16:35.116 (h:m:s.ms)
All Angles Size:        33,373,484,736 bytes
All Angles Bitrate:     22.64 Mbps

VIDEO:

Codec                   Bitrate             Description     
-----                   -------             -----------     
MPEG-4 AVC Video        15993 kbps          1080i / 29.970 fps / 16:9 / High Profile 4.1
MPEG-4 AVC Video (1)    11994 (11997) kbps  1080i / 29.970 fps / 16:9 / High Profile 4.1

AUDIO:

Codec                           Language        Bitrate         Description     
-----                           --------        -------         -----------     
LPCM Audio                      English         2304 kbps       2.0 / 48 kHz / 2304 kbps / 24-bit
DTS-HD Master Audio             English         4994 kbps       5.1 / 48 kHz / 4994 kbps / 24-bit (DTS Core: 5.1 / 48 kHz / 1509 kbps / 24-bit)

FILES:

Name            Time In         Length          Size            Total Bitrate   
----            -------         ------          ----            -------------   
00000.M2TS      0:00:00.000     1:08:18.794     12,622,559,232  24,637          
00015.M2TS (1)  0:00:00.000     1:08:18.794     10,483,257,024  20,461          
00016.M2TS      1:08:18.794     0:29:58.163     5,574,316,032   24,800          
00017.M2TS (1)  1:08:18.794     0:29:58.163     4,636,563,456   20,628          
00012.M2TS      1:38:16.957     0:00:01.201     56,788,992      378,215         

CHAPTERS:

Number          Time In         Length          Avg Video Rate  Max 1-Sec Rate  Max 1-Sec Time  Max 5-Sec Rate  Max 5-Sec Time  Max 10Sec Rate  Max 10Sec Time  Avg Frame Size  Max Frame Size  Max Frame Time  
------          -------         ------          --------------  --------------  --------------  --------------  --------------  --------------  --------------  --------------  --------------  --------------  
1               0:00:00.000     0:08:16.529     18,796 kbps     31,577 kbps     00:08:04.050    28,094 kbps     00:03:51.798    27,447 kbps     00:03:51.798    78,391 bytes    293,389 bytes   00:01:54.714    
2               0:08:16.529     0:05:21.921     15,697 kbps     31,610 kbps     00:09:22.295    24,831 kbps     00:12:46.599    22,341 kbps     00:08:24.537    65,468 bytes    291,951 bytes   00:09:26.198    
3               0:13:38.450     0:06:10.269     13,304 kbps     30,337 kbps     00:14:54.493    26,718 kbps     00:16:59.051    23,076 kbps     00:16:57.216    55,490 bytes    288,223 bytes   00:14:55.494    
4               0:19:48.720     0:04:47.553     14,606 kbps     28,872 kbps     00:24:20.458    23,997 kbps     00:24:24.296    23,170 kbps     00:24:23.995    60,920 bytes    238,537 bytes   00:22:11.063    
5               0:24:36.274     0:13:47.226     17,604 kbps     32,104 kbps     00:36:25.983    30,950 kbps     00:36:22.513    30,313 kbps     00:36:22.813    73,425 bytes    299,110 bytes   00:32:21.139    
6               0:38:23.501     0:05:24.157     14,602 kbps     30,958 kbps     00:43:32.443    23,962 kbps     00:39:28.833    22,477 kbps     00:39:30.367    60,904 bytes    277,063 bytes   00:43:12.990    
7               0:43:47.658     0:08:00.446     15,009 kbps     31,872 kbps     00:51:23.713    26,959 kbps     00:50:08.872    24,323 kbps     00:46:41.632    62,599 bytes    290,812 bytes   00:45:41.171    
8               0:51:48.105     0:03:51.965     17,946 kbps     31,835 kbps     00:52:19.536    30,473 kbps     00:51:49.139    28,003 kbps     00:53:55.999    74,848 bytes    286,161 bytes   00:53:56.633    
9               0:55:40.070     0:07:00.920     15,754 kbps     30,797 kbps     00:58:14.057    26,109 kbps     00:57:45.662    22,988 kbps     00:55:49.813    65,709 bytes    272,148 bytes   00:58:14.691    
10              1:02:40.990     0:05:37.804     14,103 kbps     30,424 kbps     01:07:44.260    28,604 kbps     01:07:05.821    25,570 kbps     01:07:00.916    58,820 bytes    292,670 bytes   01:08:07.116    
11              1:08:18.794     0:01:35.095     20,287 kbps     31,889 kbps     01:08:51.760    30,483 kbps     01:08:51.160    26,793 kbps     01:08:49.992    84,616 bytes    290,570 bytes   01:08:45.821    
12              1:09:53.889     0:05:26.125     17,307 kbps     31,150 kbps     01:14:50.786    26,270 kbps     01:14:46.782    24,200 kbps     01:14:07.743    72,185 bytes    296,261 bytes   01:13:16.291    
13              1:15:20.015     0:04:14.487     19,184 kbps     30,704 kbps     01:16:22.945    28,383 kbps     01:18:12.654    25,082 kbps     01:16:51.173    80,014 bytes    293,852 bytes   01:17:01.083    
14              1:19:34.503     0:03:20.600     16,576 kbps     31,438 kbps     01:22:02.150    25,415 kbps     01:21:52.307    22,122 kbps     01:21:47.802    69,136 bytes    295,345 bytes   01:21:53.842    
15              1:22:55.103     0:04:54.360     20,342 kbps     31,191 kbps     01:24:29.631    27,182 kbps     01:27:40.622    24,612 kbps     01:25:56.351    84,844 bytes    296,660 bytes   01:25:59.153    
16              1:27:49.464     0:03:24.204     12,459 kbps     29,808 kbps     01:30:20.615    26,314 kbps     01:30:00.328    22,463 kbps     01:29:59.494    51,964 bytes    281,797 bytes   01:28:07.482    
17              1:31:13.668     0:04:39.278     10,468 kbps     29,392 kbps     01:35:51.345    25,319 kbps     01:35:47.441    20,119 kbps     01:35:42.937    43,661 bytes    234,703 bytes   01:34:11.979    
18              1:35:52.947     0:02:24.010     10,535 kbps     27,705 kbps     01:37:02.917    22,501 kbps     01:36:04.925    20,274 kbps     01:36:04.859    43,941 bytes    274,608 bytes   01:36:45.799    
19              1:38:16.957     0:00:01.201     109 kbps        114 kbps        01:38:16.991    0 kbps          00:00:00.000    0 kbps          00:00:00.000    466 bytes       2,439 bytes     01:38:17.558    

STREAM DIAGNOSTICS:

File            PID             Type            Codec           Language                Seconds                 Bitrate                 Bytes           Packets         
----            ---             ----            -----           --------                --------------          --------------          -------------   -----           
00000.M2TS      4113 (0x1011)   0x1B            AVC                                     4098.695                15,999                  8,197,112,018   44,682,190      
00000.M2TS      4352 (0x1100)   0x80            LPCM            eng (English)           4098.695                2,310                   1,183,731,996   6,558,072       
00000.M2TS      4353 (0x1101)   0x86            DTS-HD MA       eng (English)           4098.695                4,929                   2,525,544,264   14,364,880      
00015.M2TS (1)  4113 (0x1011)   0x1B            AVC                                     4102.832                11,999                  6,153,949,206   33,578,363      
00015.M2TS (1)  4352 (0x1100)   0x80            LPCM            eng (English)           4102.832                2,308                   1,183,713,224   6,557,968       
00015.M2TS (1)  4353 (0x1101)   0x86            DTS-HD MA       eng (English)           4102.832                4,924                   2,525,503,372   14,364,646      
00016.M2TS      4113 (0x1011)   0x1B            AVC                                     1798.096                15,992                  3,594,297,284   19,592,751      
00016.M2TS      4352 (0x1100)   0x80            LPCM            eng (English)           1798.096                2,310                   519,308,608     2,877,056       
00016.M2TS      4353 (0x1101)   0x86            DTS-HD MA       eng (English)           1798.096                5,094                   1,144,926,616   6,502,815       
00017.M2TS (1)  4113 (0x1011)   0x1B            AVC                                     1798.096                11,993                  2,695,601,515   14,708,464      
00017.M2TS (1)  4352 (0x1100)   0x80            LPCM            eng (English)           1798.096                2,310                   519,310,052     2,877,064       
00017.M2TS (1)  4353 (0x1101)   0x86            DTS-HD MA       eng (English)           1798.096                5,094                   1,144,954,900   6,502,969       
00012.M2TS      4113 (0x1011)   0x1B            AVC                                     1.101                   136                     18,740          130             
00012.M2TS      4352 (0x1100)   0x80            LPCM            eng (English)           1.101                   252,435                 34,744,488      216,252         
00012.M2TS      4353 (0x1101)   0x86            DTS-HD MA       eng (English)           1.101                   85,263                  11,735,360      73,346          

<–– END FORUMS PASTE ––>

QUICK SUMMARY:

Disc Title: Elton_John-The_Red_Piano
Disc Size: 48,661,565,656 bytes
Protection: AACS
BD-Java: No
Playlist: 00000.MPLS
Size: 18,253,664,256 bytes
Length: 1:38:18.158
Total Bitrate: 24.76 Mbps
Video: MPEG-4 AVC Video / 15993 kbps / 1080i / 29.970 fps / 16:9 / High Profile 4.1
Video: MPEG-4 AVC Video (1) / 11994 (11997) kbps / 1080i / 29.970 fps / 16:9 / High Profile 4.1
Audio: English / LPCM Audio / 2.0 / 48 kHz / 2304 kbps / 24-bit
Audio: English / DTS-HD Master Audio / 5.1 / 48 kHz / 4994 kbps / 24-bit (DTS Core: 5.1 / 48 kHz / 1509 kbps / 24-bit)


********************
PLAYLIST: 00002.MPLS
********************

<–- BEGIN FORUMS PASTE –->
                                                                                                                Total   Video                                             
Title                                                           Codec   Length  Movie Size      Disc Size       Bitrate Bitrate Main Audio Track                          Secondary Audio Track
-----                                                           ------  ------- --------------  --------------  ------- ------- ------------------                        ---------------------
00002.MPLS                                                      AVC     0:57:36 7,774,574,592   48,661,565,656  17.99   11.99   LPCM 2.0 1536Kbps (48kHz/16-bit)          DTS-HD Master 5.1 3057Kbps (48kHz/16-bit)


DISC INFO:

Disc Title:     Elton_John-The_Red_Piano
Disc Size:      48,661,565,656 bytes
Protection:     AACS
BD-Java:        No
BDInfo:         0.5.8

PLAYLIST REPORT:

Name:                   00002.MPLS
Length:                 0:57:36.686 (h:m:s.ms)
Size:                   7,774,574,592 bytes
Total Bitrate:          17.99 Mbps

VIDEO:

Codec                   Bitrate             Description     
-----                   -------             -----------     
MPEG-4 AVC Video        11994 kbps          1080i / 29.970 fps / 16:9 / High Profile 4.1

AUDIO:

Codec                           Language        Bitrate         Description     
-----                           --------        -------         -----------     
LPCM Audio                      English         1536 kbps       2.0 / 48 kHz / 1536 kbps / 16-bit
DTS-HD Master Audio             English         3057 kbps       5.1 / 48 kHz / 3057 kbps / 16-bit (DTS Core: 5.1 / 48 kHz / 1509 kbps / 16-bit)

FILES:

Name            Time In         Length          Size            Total Bitrate   
----            -------         ------          ----            -------------   
00001.M2TS      0:00:00.000     0:57:35.485     7,717,785,600   17,868          
00012.M2TS      0:57:35.485     0:00:01.201     56,788,992      378,215         

CHAPTERS:

Number          Time In         Length          Avg Video Rate  Max 1-Sec Rate  Max 1-Sec Time  Max 5-Sec Rate  Max 5-Sec Time  Max 10Sec Rate  Max 10Sec Time  Avg Frame Size  Max Frame Size  Max Frame Time  
------          -------         ------          --------------  --------------  --------------  --------------  --------------  --------------  --------------  --------------  --------------  --------------  
1               0:00:00.000     0:05:16.315     14,913 kbps     24,716 kbps     00:04:44.951    20,433 kbps     00:03:01.881    19,940 kbps     00:02:56.543    62,195 bytes    216,833 bytes   00:03:57.237    
2               0:05:16.315     0:04:14.654     13,334 kbps     19,236 kbps     00:08:56.335    17,751 kbps     00:08:56.535    16,638 kbps     00:08:52.765    55,615 bytes    159,648 bytes   00:09:27.366    
3               0:09:30.970     0:03:53.833     9,858 kbps      15,716 kbps     00:12:43.729    13,521 kbps     00:12:40.626    12,643 kbps     00:11:10.469    41,117 bytes    117,530 bytes   00:10:34.633    
4               0:13:24.803     0:11:31.691     8,589 kbps      16,812 kbps     00:19:51.523    13,968 kbps     00:19:49.588    12,964 kbps     00:18:50.028    35,822 bytes    113,888 bytes   00:19:58.797    
5               0:24:56.495     0:03:55.235     9,746 kbps      14,695 kbps     00:27:04.222    13,336 kbps     00:27:08.526    12,906 kbps     00:25:15.046    40,651 bytes    122,804 bytes   00:25:54.152    
6               0:28:51.730     0:05:49.348     9,602 kbps      11,705 kbps     00:34:36.974    10,768 kbps     00:32:58.376    10,558 kbps     00:32:52.970    40,050 bytes    134,257 bytes   00:34:35.873    
7               0:34:41.078     0:03:45.224     8,562 kbps      14,149 kbps     00:35:31.128    13,144 kbps     00:35:27.225    11,856 kbps     00:35:22.119    35,710 bytes    108,641 bytes   00:35:57.355    
8               0:38:26.303     0:07:04.424     11,554 kbps     26,411 kbps     00:39:03.174    20,778 kbps     00:41:59.016    19,308 kbps     00:41:54.411    48,188 bytes    217,469 bytes   00:43:13.390    
9               0:45:30.728     0:04:09.248     15,781 kbps     25,937 kbps     00:49:08.979    23,955 kbps     00:46:29.553    23,143 kbps     00:49:01.338    65,820 bytes    196,275 bytes   00:49:09.947    
10              0:49:39.976     0:03:12.992     16,827 kbps     25,912 kbps     00:52:45.295    23,347 kbps     00:51:38.094    22,393 kbps     00:51:35.692    70,181 bytes    227,551 bytes   00:51:40.697    
11              0:52:52.969     0:04:42.515     19,260 kbps     28,798 kbps     00:57:26.376    27,149 kbps     00:57:26.476    25,140 kbps     00:57:22.038    80,329 bytes    285,489 bytes   00:57:32.048    
12              0:57:35.485     0:00:01.201     109 kbps        114 kbps        00:57:35.518    0 kbps          00:00:00.000    0 kbps          00:00:00.000    466 bytes       2,439 bytes     00:57:36.085    

STREAM DIAGNOSTICS:

File            PID             Type            Codec           Language                Seconds                 Bitrate                 Bytes           Packets         
----            ---             ----            -----           --------                --------------          --------------          -------------   -----           
00001.M2TS      4113 (0x1011)   0x1B            AVC                                     3455.352                11,999                  5,182,532,529   28,279,927      
00001.M2TS      4352 (0x1100)   0x80            LPCM            eng (English)           3455.352                1,542                   666,211,724     4,146,546       
00001.M2TS      4353 (0x1101)   0x86            DTS-HD MA       eng (English)           3455.352                3,031                   1,309,193,480   7,654,547       
00012.M2TS      4113 (0x1011)   0x1B            AVC                                     1.101                   136                     18,740          130             
00012.M2TS      4352 (0x1100)   0x80            LPCM            eng (English)           1.101                   252,435                 34,744,488      216,252         
00012.M2TS      4353 (0x1101)   0x86            DTS-HD MA       eng (English)           1.101                   85,263                  11,735,360      73,346          

<–– END FORUMS PASTE ––>

QUICK SUMMARY:

Disc Title: Elton_John-The_Red_Piano
Disc Size: 48,661,565,656 bytes
Protection: AACS
BD-Java: No
Playlist: 00002.MPLS
Size: 7,774,574,592 bytes
Length: 0:57:36.686
Total Bitrate: 17.99 Mbps
Video: MPEG-4 AVC Video / 11994 kbps / 1080i / 29.970 fps / 16:9 / High Profile 4.1
Audio: English / LPCM Audio / 2.0 / 48 kHz / 1536 kbps / 16-bit
Audio: English / DTS-HD Master Audio / 5.1 / 48 kHz / 3057 kbps / 16-bit (DTS Core: 5.1 / 48 kHz / 1509 kbps / 16-bit)


********************
PLAYLIST: 00003.MPLS
********************

<–- BEGIN FORUMS PASTE –->
                                                                                                                Total   Video                                             
Title                                                           Codec   Length  Movie Size      Disc Size       Bitrate Bitrate Main Audio Track                          Secondary Audio Track
-----                                                           ------  ------- --------------  --------------  ------- ------- ------------------                        ---------------------
00003.MPLS                                                      AVC     0:53:22 5,925,193,728   48,661,565,656  14.80   11.99   LPCM 2.0 1536Kbps (48kHz/16-bit)          


DISC INFO:

Disc Title:     Elton_John-The_Red_Piano
Disc Size:      48,661,565,656 bytes
Protection:     AACS
BD-Java:        No
BDInfo:         0.5.8

PLAYLIST REPORT:

Name:                   00003.MPLS
Length:                 0:53:22.332 (h:m:s.ms)
Size:                   5,925,193,728 bytes
Total Bitrate:          14.80 Mbps

VIDEO:

Codec                   Bitrate             Description     
-----                   -------             -----------     
MPEG-4 AVC Video        11993 kbps          1080i / 29.970 fps / 16:9 / High Profile 4.1

AUDIO:

Codec                           Language        Bitrate         Description     
-----                           --------        -------         -----------     
LPCM Audio                      English         1536 kbps       2.0 / 48 kHz / 1536 kbps / 16-bit

SUBTITLES:

Codec                           Language        Bitrate         Description     
-----                           --------        -------         -----------     
Presentation Graphics           English         33.866 kbps                     
Presentation Graphics           French          33.301 kbps                     
Presentation Graphics           German          35.657 kbps                     
Presentation Graphics           Spanish         30.043 kbps                     
Presentation Graphics           Italian         33.440 kbps                     
Presentation Graphics           Portuguese      32.026 kbps                     
Presentation Graphics           Japanese        21.809 kbps                     

FILES:

Name            Time In         Length          Size            Total Bitrate   
----            -------         ------          ----            -------------   
00002.M2TS      0:00:00.000     0:53:21.131     5,882,468,352   14,701          
00013.M2TS      0:53:21.131     0:00:01.201     42,725,376      284,551         

CHAPTERS:

Number          Time In         Length          Avg Video Rate  Max 1-Sec Rate  Max 1-Sec Time  Max 5-Sec Rate  Max 5-Sec Time  Max 10Sec Rate  Max 10Sec Time  Avg Frame Size  Max Frame Size  Max Frame Time  
------          -------         ------          --------------  --------------  --------------  --------------  --------------  --------------  --------------  --------------  --------------  --------------  
1               0:00:00.000     0:06:09.469     12,131 kbps     30,693 kbps     00:05:07.306    24,645 kbps     00:01:23.917    23,651 kbps     00:01:23.783    50,590 bytes    289,227 bytes   00:05:08.107    
2               0:06:09.469     0:09:20.593     12,366 kbps     30,753 kbps     00:08:14.727    27,848 kbps     00:08:14.360    26,214 kbps     00:08:11.157    51,576 bytes    292,387 bytes   00:06:50.309    
3               0:15:30.062     0:04:06.980     14,047 kbps     31,361 kbps     00:16:46.305    27,761 kbps     00:16:46.138    23,286 kbps     00:16:38.731    58,588 bytes    288,485 bytes   00:16:02.494    
4               0:19:37.042     0:11:19.178     11,191 kbps     27,366 kbps     00:22:21.239    24,779 kbps     00:27:03.855    24,359 kbps     00:27:04.322    46,674 bytes    289,984 bytes   00:25:26.591    
5               0:30:56.221     0:04:09.749     11,844 kbps     22,491 kbps     00:31:58.983    18,728 kbps     00:34:56.861    15,747 kbps     00:33:48.292    49,399 bytes    214,785 bytes   00:32:28.112    
6               0:35:05.970     0:12:34.186     13,951 kbps     30,616 kbps     00:44:23.527    28,962 kbps     00:44:58.128    26,370 kbps     00:44:10.014    58,186 bytes    292,990 bytes   00:41:13.537    
7               0:47:40.157     0:05:40.973     7,158 kbps      13,825 kbps     00:47:41.592    10,043 kbps     00:52:30.947    9,157 kbps      00:51:42.165    29,855 bytes    260,942 bytes   00:51:36.193    
8               0:53:21.131     0:00:01.201     109 kbps        114 kbps        00:53:21.164    0 kbps          00:00:00.000    0 kbps          00:00:00.000    466 bytes       2,439 bytes     00:53:21.731    

STREAM DIAGNOSTICS:

File            PID             Type            Codec           Language                Seconds                 Bitrate                 Bytes           Packets         
----            ---             ----            -----           --------                --------------          --------------          -------------   -----           
00002.M2TS      4113 (0x1011)   0x1B            AVC                                     3200.998                11,997                  4,800,482,369   26,193,265      
00002.M2TS      4352 (0x1100)   0x80            LPCM            eng (English)           3200.998                1,542                   617,178,828     3,841,362       
00002.M2TS      4608 (0x1200)   0x90            PGS             eng (English)           3200.998                34                      13,554,584      76,070          
00002.M2TS      4609 (0x1201)   0x90            PGS             fra (French)            3200.998                33                      13,328,779      74,900          
00002.M2TS      4610 (0x1202)   0x90            PGS             deu (German)            3200.998                36                      14,271,820      80,029          
00002.M2TS      4611 (0x1203)   0x90            PGS             spa (Spanish)           3200.998                30                      12,024,619      67,805          
00002.M2TS      4612 (0x1204)   0x90            PGS             ita (Italian)           3200.998                33                      13,384,378      75,198          
00002.M2TS      4613 (0x1205)   0x90            PGS             por (Portuguese)        3200.998                32                      12,818,163      72,106          
00002.M2TS      4614 (0x1206)   0x90            PGS             jpn (Japanese)          3200.998                22                      8,728,306       49,885          
00013.M2TS      4113 (0x1011)   0x1B            AVC                                     1.101                   136                     18,740          130             
00013.M2TS      4352 (0x1100)   0x80            LPCM            eng (English)           1.101                   252,435                 34,744,488      216,252         
00013.M2TS      4608 (0x1200)   0x90            PGS             eng (English)           1.101                   11                      1,490           15              
00013.M2TS      4609 (0x1201)   0x90            PGS             fra (French)            1.101                   11                      1,490           15              
00013.M2TS      4610 (0x1202)   0x90            PGS             deu (German)            1.101                   11                      1,490           15              
00013.M2TS      4611 (0x1203)   0x90            PGS             spa (Spanish)           1.101                   11                      1,490           15              
00013.M2TS      4612 (0x1204)   0x90            PGS             ita (Italian)           1.101                   11                      1,490           15              
00013.M2TS      4613 (0x1205)   0x90            PGS             por (Portuguese)        1.101                   11                      1,490           15              
00013.M2TS      4614 (0x1206)   0x90            PGS             jpn (Japanese)          1.101                   11                      1,490           15              

<–– END FORUMS PASTE ––>

QUICK SUMMARY:

Disc Title: Elton_John-The_Red_Piano
Disc Size: 48,661,565,656 bytes
Protection: AACS
BD-Java: No
Playlist: 00003.MPLS
Size: 5,925,193,728 bytes
Length: 0:53:22.332
Total Bitrate: 14.80 Mbps
Video: MPEG-4 AVC Video / 11993 kbps / 1080i / 29.970 fps / 16:9 / High Profile 4.1
Audio: English / LPCM Audio / 2.0 / 48 kHz / 1536 kbps / 16-bit
Subtitle: English / 33.866 kbps
Subtitle: French / 33.301 kbps
Subtitle: German / 35.657 kbps
Subtitle: Spanish / 30.043 kbps
Subtitle: Italian / 33.440 kbps
Subtitle: Portuguese / 32.026 kbps
Subtitle: Japanese / 21.809 kbps


********************
PLAYLIST: 00011.MPLS
********************

<–- BEGIN FORUMS PASTE –->
                                                                                                                Total   Video                                             
Title                                                           Codec   Length  Movie Size      Disc Size       Bitrate Bitrate Main Audio Track                          Secondary Audio Track
-----                                                           ------  ------- --------------  --------------  ------- ------- ------------------                        ---------------------
00011.MPLS                                                      AVC     0:03:17 908,967,936     48,661,565,656  36.83   29.82   DTS-HD Master 5.1 5149Kbps (48kHz/24-bit) 


DISC INFO:

Disc Title:     Elton_John-The_Red_Piano
Disc Size:      48,661,565,656 bytes
Protection:     AACS
BD-Java:        No
BDInfo:         0.5.8

PLAYLIST REPORT:

Name:                   00011.MPLS
Length:                 0:03:17.430 (h:m:s.ms)
Size:                   908,967,936 bytes
Total Bitrate:          36.83 Mbps

VIDEO:

Codec                   Bitrate             Description     
-----                   -------             -----------     
MPEG-4 AVC Video        29818 kbps          1080i / 29.970 fps / 16:9 / High Profile 4.1

AUDIO:

Codec                           Language        Bitrate         Description     
-----                           --------        -------         -----------     
DTS-HD Master Audio             English         5149 kbps       5.1 / 48 kHz / 5149 kbps / 24-bit (DTS Core: 5.1 / 48 kHz / 1509 kbps / 24-bit)

FILES:

Name            Time In         Length          Size            Total Bitrate   
----            -------         ------          ----            -------------   
00019.M2TS      0:00:00.000     0:03:16.229     908,931,072     37,056          
00020.M2TS      0:03:16.229     0:00:01.201     36,864          246             

CHAPTERS:

Number          Time In         Length          Avg Video Rate  Max 1-Sec Rate  Max 1-Sec Time  Max 5-Sec Rate  Max 5-Sec Time  Max 10Sec Rate  Max 10Sec Time  Avg Frame Size  Max Frame Size  Max Frame Time  
------          -------         ------          --------------  --------------  --------------  --------------  --------------  --------------  --------------  --------------  --------------  --------------  
1               0:00:00.000     0:03:16.229     30,000 kbps     38,116 kbps     00:01:29.389    33,852 kbps     00:01:52.679    32,509 kbps     00:01:50.076    125,103 bytes   299,630 bytes   00:00:33.633    
2               0:03:16.229     0:00:01.201     109 kbps        114 kbps        00:03:16.262    0 kbps          00:00:00.000    0 kbps          00:00:00.000    466 bytes       2,439 bytes     00:03:16.829    

STREAM DIAGNOSTICS:

File            PID             Type            Codec           Language                Seconds                 Bitrate                 Bytes           Packets         
----            ---             ----            -----           --------                --------------          --------------          -------------   -----           
00019.M2TS      4113 (0x1011)   0x1B            AVC                                     196.096                 30,020                  735,850,731     4,006,177       
00019.M2TS      4352 (0x1100)   0x86            DTS-HD MA       eng (English)           196.096                 5,184                   127,065,180     721,229         
00020.M2TS      4113 (0x1011)   0x1B            AVC                                     1.101                   136                     18,740          130             

<–– END FORUMS PASTE ––>

QUICK SUMMARY:

Disc Title: Elton_John-The_Red_Piano
Disc Size: 48,661,565,656 bytes
Protection: AACS
BD-Java: No
Playlist: 00011.MPLS
Size: 908,967,936 bytes
Length: 0:03:17.430
Total Bitrate: 36.83 Mbps
Video: MPEG-4 AVC Video / 29818 kbps / 1080i / 29.970 fps / 16:9 / High Profile 4.1
Audio: English / DTS-HD Master Audio / 5.1 / 48 kHz / 5149 kbps / 24-bit (DTS Core: 5.1 / 48 kHz / 1509 kbps / 24-bit)


********************
PLAYLIST: 00004.MPLS
********************

<–- BEGIN FORUMS PASTE –->
                                                                                                                Total   Video                                             
Title                                                           Codec   Length  Movie Size      Disc Size       Bitrate Bitrate Main Audio Track                          Secondary Audio Track
-----                                                           ------  ------- --------------  --------------  ------- ------- ------------------                        ---------------------
00004.MPLS                                                      AVC     0:00:47 134,823,936     48,661,565,656  22.56   17.92   LPCM 2.0 1536Kbps (48kHz/16-bit)          LPCM 2.0 1536Kbps (48kHz/16-bit)


DISC INFO:

Disc Title:     Elton_John-The_Red_Piano
Disc Size:      48,661,565,656 bytes
Protection:     AACS
BD-Java:        No
BDInfo:         0.5.8

PLAYLIST REPORT:

Name:                   00004.MPLS
Length:                 0:00:47.814 (h:m:s.ms)
Size:                   134,823,936 bytes
Total Bitrate:          22.56 Mbps

VIDEO:

Codec                   Bitrate             Description     
-----                   -------             -----------     
MPEG-4 AVC Video        17923 kbps          1080i / 29.970 fps / 16:9 / High Profile 4.1

AUDIO:

Codec                           Language        Bitrate         Description     
-----                           --------        -------         -----------     
LPCM Audio                      English         1536 kbps       2.0 / 48 kHz / 1536 kbps / 16-bit
LPCM Audio                      English         1536 kbps       2.0 / 48 kHz / 1536 kbps / 16-bit

SUBTITLES:

Codec                           Language        Bitrate         Description     
-----                           --------        -------         -----------     
Presentation Graphics           English         0.249 kbps                      
Presentation Graphics           French          0.249 kbps                      
Presentation Graphics           German          0.249 kbps                      
Presentation Graphics           Spanish         0.249 kbps                      
Presentation Graphics           Italian         0.249 kbps                      
Presentation Graphics           Portuguese      0.249 kbps                      
Presentation Graphics           Japanese        0.249 kbps                      
Interactive Graphics            English         45.569 kbps                     

FILES:

Name            Time In         Length          Size            Total Bitrate   
----            -------         ------          ----            -------------   
00003.M2TS      0:00:00.000     0:00:47.814     134,823,936     22,558          

CHAPTERS:

Number          Time In         Length          Avg Video Rate  Max 1-Sec Rate  Max 1-Sec Time  Max 5-Sec Rate  Max 5-Sec Time  Max 10Sec Rate  Max 10Sec Time  Avg Frame Size  Max Frame Size  Max Frame Time  
------          -------         ------          --------------  --------------  --------------  --------------  --------------  --------------  --------------  --------------  --------------  --------------  
1               0:00:00.000     0:00:47.814     17,923 kbps     20,240 kbps     00:00:24.290    18,496 kbps     00:00:20.253    18,236 kbps     00:00:15.248    74,755 bytes    237,607 bytes   00:00:04.804    

STREAM DIAGNOSTICS:

File            PID             Type            Codec           Language                Seconds                 Bitrate                 Bytes           Packets         
----            ---             ----            -----           --------                --------------          --------------          -------------   -----           
00003.M2TS      4113 (0x1011)   0x1B            AVC                                     47.748                  17,948                  107,124,513     584,244         
00003.M2TS      4352 (0x1100)   0x80            LPCM            eng (English)           47.748                  1,545                   9,218,732       57,378          
00003.M2TS      4353 (0x1101)   0x80            LPCM            eng (English)           47.748                  1,545                   9,218,732       57,378          
00003.M2TS      4608 (0x1200)   0x90            PGS             eng (English)           47.748                  0                       1,490           15              
00003.M2TS      4609 (0x1201)   0x90            PGS             fra (French)            47.748                  0                       1,490           15              
00003.M2TS      4610 (0x1202)   0x90            PGS             deu (German)            47.748                  0                       1,490           15              
00003.M2TS      4611 (0x1203)   0x90            PGS             spa (Spanish)           47.748                  0                       1,490           15              
00003.M2TS      4612 (0x1204)   0x90            PGS             ita (Italian)           47.748                  0                       1,490           15              
00003.M2TS      4613 (0x1205)   0x90            PGS             por (Portuguese)        47.748                  0                       1,490           15              
00003.M2TS      4614 (0x1206)   0x90            PGS             jpn (Japanese)          47.748                  0                       1,490           15              
00003.M2TS      5120 (0x1400)   0x91            IGS             eng (English)           47.748                  46                      272,359         1,497           

<–– END FORUMS PASTE ––>

QUICK SUMMARY:

Disc Title: Elton_John-The_Red_Piano
Disc Size: 48,661,565,656 bytes
Protection: AACS
BD-Java: No
Playlist: 00004.MPLS
Size: 134,823,936 bytes
Length: 0:00:47.814
Total Bitrate: 22.56 Mbps
Video: MPEG-4 AVC Video / 17923 kbps / 1080i / 29.970 fps / 16:9 / High Profile 4.1
Audio: English / LPCM Audio / 2.0 / 48 kHz / 1536 kbps / 16-bit
Audio: English / LPCM Audio / 2.0 / 48 kHz / 1536 kbps / 16-bit
Subtitle: English / 0.249 kbps
Subtitle: French / 0.249 kbps
Subtitle: German / 0.249 kbps
Subtitle: Spanish / 0.249 kbps
Subtitle: Italian / 0.249 kbps
Subtitle: Portuguese / 0.249 kbps
Subtitle: Japanese / 0.249 kbps
Subtitle: English / 45.569 kbps


********************
PLAYLIST: 00010.MPLS
********************

<–- BEGIN FORUMS PASTE –->
                                                                                                                Total   Video                                             
Title                                                           Codec   Length  Movie Size      Disc Size       Bitrate Bitrate Main Audio Track                          Secondary Audio Track
-----                                                           ------  ------- --------------  --------------  ------- ------- ------------------                        ---------------------
00010.MPLS                                                      AVC     0:00:47 112,484,352     48,661,565,656  18.82   17.92                                             


DISC INFO:

Disc Title:     Elton_John-The_Red_Piano
Disc Size:      48,661,565,656 bytes
Protection:     AACS
BD-Java:        No
BDInfo:         0.5.8

PLAYLIST REPORT:

Name:                   00010.MPLS
Length:                 0:00:47.814 (h:m:s.ms)
Size:                   112,484,352 bytes
Total Bitrate:          18.82 Mbps

VIDEO:

Codec                   Bitrate             Description     
-----                   -------             -----------     
MPEG-4 AVC Video        17923 kbps          1080i / 29.970 fps / 16:9 / High Profile 4.1

FILES:

Name            Time In         Length          Size            Total Bitrate   
----            -------         ------          ----            -------------   
00018.M2TS      0:00:00.000     0:00:47.814     112,484,352     18,820          

CHAPTERS:

Number          Time In         Length          Avg Video Rate  Max 1-Sec Rate  Max 1-Sec Time  Max 5-Sec Rate  Max 5-Sec Time  Max 10Sec Rate  Max 10Sec Time  Avg Frame Size  Max Frame Size  Max Frame Time  
------          -------         ------          --------------  --------------  --------------  --------------  --------------  --------------  --------------  --------------  --------------  --------------  
1               0:00:00.000     0:00:47.814     17,923 kbps     20,240 kbps     00:00:24.290    18,496 kbps     00:00:20.253    18,236 kbps     00:00:15.248    74,755 bytes    237,607 bytes   00:00:04.804    

STREAM DIAGNOSTICS:

File            PID             Type            Codec           Language                Seconds                 Bitrate                 Bytes           Packets         
----            ---             ----            -----           --------                --------------          --------------          -------------   -----           
00018.M2TS      4113 (0x1011)   0x1B            AVC                                     47.748                  17,948                  107,124,513     584,244         

<–– END FORUMS PASTE ––>

QUICK SUMMARY:

Disc Title: Elton_John-The_Red_Piano
Disc Size: 48,661,565,656 bytes
Protection: AACS
BD-Java: No
Playlist: 00010.MPLS
Size: 112,484,352 bytes
Length: 0:00:47.814
Total Bitrate: 18.82 Mbps
Video: MPEG-4 AVC Video / 17923 kbps / 1080i / 29.970 fps / 16:9 / High Profile 4.1


********************
PLAYLIST: 00006.MPLS
********************

<–- BEGIN FORUMS PASTE –->
                                                                                                                Total   Video                                             
Title                                                           Codec   Length  Movie Size      Disc Size       Bitrate Bitrate Main Audio Track                          Secondary Audio Track
-----                                                           ------  ------- --------------  --------------  ------- ------- ------------------                        ---------------------
00006.MPLS                                                      AVC     0:00:40 114,075,648     48,661,565,656  22.75   17.91   LPCM 2.0 1536Kbps (48kHz/16-bit)          LPCM 2.0 1536Kbps (48kHz/16-bit)


DISC INFO:

Disc Title:     Elton_John-The_Red_Piano
Disc Size:      48,661,565,656 bytes
Protection:     AACS
BD-Java:        No
BDInfo:         0.5.8

PLAYLIST REPORT:

Name:                   00006.MPLS
Length:                 0:00:40.106 (h:m:s.ms)
Size:                   114,075,648 bytes
Total Bitrate:          22.75 Mbps

VIDEO:

Codec                   Bitrate             Description     
-----                   -------             -----------     
MPEG-4 AVC Video        17909 kbps          1080i / 29.970 fps / 16:9 / High Profile 4.1

AUDIO:

Codec                           Language        Bitrate         Description     
-----                           --------        -------         -----------     
LPCM Audio                      English         1536 kbps       2.0 / 48 kHz / 1536 kbps / 16-bit
LPCM Audio                      English         1536 kbps       2.0 / 48 kHz / 1536 kbps / 16-bit

SUBTITLES:

Codec                           Language        Bitrate         Description     
-----                           --------        -------         -----------     
Presentation Graphics           English         0.297 kbps                      
Presentation Graphics           French          0.297 kbps                      
Presentation Graphics           German          0.297 kbps                      
Presentation Graphics           Spanish         0.297 kbps                      
Presentation Graphics           Italian         0.297 kbps                      
Presentation Graphics           Portuguese      0.297 kbps                      
Presentation Graphics           Japanese        0.297 kbps                      
Interactive Graphics            English         248.422 kbps                    

FILES:

Name            Time In         Length          Size            Total Bitrate   
----            -------         ------          ----            -------------   
00005.M2TS      0:00:00.000     0:00:40.106     114,075,648     22,754          

CHAPTERS:

Number          Time In         Length          Avg Video Rate  Max 1-Sec Rate  Max 1-Sec Time  Max 5-Sec Rate  Max 5-Sec Time  Max 10Sec Rate  Max 10Sec Time  Avg Frame Size  Max Frame Size  Max Frame Time  
------          -------         ------          --------------  --------------  --------------  --------------  --------------  --------------  --------------  --------------  --------------  --------------  
1               0:00:00.000     0:00:40.106     17,909 kbps     21,809 kbps     00:00:19.786    19,890 kbps     00:00:16.649    18,941 kbps     00:00:11.644    74,694 bytes    188,543 bytes   00:00:19.219    

STREAM DIAGNOSTICS:

File            PID             Type            Codec           Language                Seconds                 Bitrate                 Bytes           Packets         
----            ---             ----            -----           --------                --------------          --------------          -------------   -----           
00005.M2TS      4113 (0x1011)   0x1B            AVC                                     40.040                  17,938                  89,781,818      489,610         
00005.M2TS      4352 (0x1100)   0x80            LPCM            eng (English)           40.040                  1,545                   7,733,208       48,132          
00005.M2TS      4353 (0x1101)   0x80            LPCM            eng (English)           40.040                  1,545                   7,733,208       48,132          
00005.M2TS      4608 (0x1200)   0x90            PGS             eng (English)           40.040                  0                       1,490           15              
00005.M2TS      4609 (0x1201)   0x90            PGS             fra (French)            40.040                  0                       1,490           15              
00005.M2TS      4610 (0x1202)   0x90            PGS             deu (German)            40.040                  0                       1,490           15              
00005.M2TS      4611 (0x1203)   0x90            PGS             spa (Spanish)           40.040                  0                       1,490           15              
00005.M2TS      4612 (0x1204)   0x90            PGS             ita (Italian)           40.040                  0                       1,490           15              
00005.M2TS      4613 (0x1205)   0x90            PGS             por (Portuguese)        40.040                  0                       1,490           15              
00005.M2TS      4614 (0x1206)   0x90            PGS             jpn (Japanese)          40.040                  0                       1,490           15              
00005.M2TS      5120 (0x1400)   0x91            IGS             eng (English)           40.040                  249                     1,245,426    			  		 	 	  		 	    	 			   		   	  		 	 	  		 		   	 			   			  	  		  	   	 			   		  	   		 	    		  					    6,805           

<–– END FORUMS PASTE ––>

QUICK SUMMARY:

Disc Title: Elton_John-The_Red_Piano
Disc Size: 48,661,565,656 bytes
Protection: AACS
BD-Java: No
Playlist: 00006.MPLS
Size: 114,075,648 bytes
Length: 0:00:40.106
Total Bitrate: 22.75 Mbps
Video: MPEG-4 AVC Video / 17909 kbps / 1080i / 29.970 fps / 16:9 / High Profile 4.1
Audio: English / LPCM Audio / 2.0 / 48 kHz / 1536 kbps / 16-bit
Audio: English / LPCM Audio / 2.0 / 48 kHz / 1536 kbps / 16-bit
Subtitle: English / 0.297 kbps
Subtitle: French / 0.297 kbps
Subtitle: German / 0.297 kbps
Subtitle: Spanish / 0.297 kbps
Subtitle: Italian / 0.297 kbps
Subtitle: Portuguese / 0.297 kbps
Subtitle: Japanese / 0.297 kbps
Subtitle: English / 248.422 kbps


********************
PLAYLIST: 00007.MPLS
********************

<–- BEGIN FORUMS PASTE –->
                                                                                                                Total   Video                                             
Title                                                           Codec   Length  Movie Size      Disc Size       Bitrate Bitrate Main Audio Track                          Secondary Audio Track
-----                                                           ------  ------- --------------  --------------  ------- ------- ------------------                        ---------------------
00007.MPLS                                                      AVC     0:00:35 98,949,120      48,661,565,656  22.53   17.90   LPCM 2.0 1536Kbps (48kHz/16-bit)          LPCM 2.0 1536Kbps (48kHz/16-bit)


DISC INFO:

Disc Title:     Elton_John-The_Red_Piano
Disc Size:      48,661,565,656 bytes
Protection:     AACS
BD-Java:        No
BDInfo:         0.5.8

PLAYLIST REPORT:

Name:                   00007.MPLS
Length:                 0:00:35.135 (h:m:s.ms)
Size:                   98,949,120 bytes
Total Bitrate:          22.53 Mbps

VIDEO:

Codec                   Bitrate             Description     
-----                   -------             -----------     
MPEG-4 AVC Video        17896 kbps          1080i / 29.970 fps / 16:9 / High Profile 4.1

AUDIO:

Codec                           Language        Bitrate         Description     
-----                           --------        -------         -----------     
LPCM Audio                      English         1536 kbps       2.0 / 48 kHz / 1536 kbps / 16-bit
LPCM Audio                      English         1536 kbps       2.0 / 48 kHz / 1536 kbps / 16-bit

SUBTITLES:

Codec                           Language        Bitrate         Description     
-----                           --------        -------         -----------     
Presentation Graphics           English         0.339 kbps                      
Presentation Graphics           French          0.339 kbps                      
Presentation Graphics           German          0.339 kbps                      
Presentation Graphics           Spanish         0.339 kbps                      
Presentation Graphics           Italian         0.339 kbps                      
Presentation Graphics           Portuguese      0.339 kbps                      
Presentation Graphics           Japanese        0.339 kbps                      
Interactive Graphics            English         37.142 kbps                     

FILES:

Name            Time In         Length          Size            Total Bitrate   
----            -------         ------          ----            -------------   
00006.M2TS      0:00:00.000     0:00:35.135     98,949,120      22,530          

CHAPTERS:

Number          Time In         Length          Avg Video Rate  Max 1-Sec Rate  Max 1-Sec Time  Max 5-Sec Rate  Max 5-Sec Time  Max 10Sec Rate  Max 10Sec Time  Avg Frame Size  Max Frame Size  Max Frame Time  
------          -------         ------          --------------  --------------  --------------  --------------  --------------  --------------  --------------  --------------  --------------  --------------  
1               0:00:00.000     0:00:35.135     17,896 kbps     18,314 kbps     00:00:05.605    18,063 kbps     00:00:01.601    18,031 kbps     00:00:15.815    74,640 bytes    114,267 bytes   00:00:06.606    

STREAM DIAGNOSTICS:

File            PID             Type            Codec           Language                Seconds                 Bitrate                 Bytes           Packets         
----            ---             ----            -----           --------                --------------          --------------          -------------   -----           
00006.M2TS      4113 (0x1011)   0x1B            AVC                                     35.035                  17,947                  78,595,405      428,826         
00006.M2TS      4352 (0x1100)   0x80            LPCM            eng (English)           35.035                  1,547                   6,774,992       42,168          
00006.M2TS      4353 (0x1101)   0x80            LPCM            eng (English)           35.035                  1,547                   6,774,992       42,168          
00006.M2TS      4608 (0x1200)   0x90            PGS             eng (English)           35.035                  0                       1,490           15              
00006.M2TS      4609 (0x1201)   0x90            PGS             fra (French)            35.035                  0                       1,490           15              
00006.M2TS      4610 (0x1202)   0x90            PGS             deu (German)            35.035                  0                       1,490           15              
00006.M2TS      4611 (0x1203)   0x90            PGS             spa (Spanish)           35.035                  0                       1,490           15              
00006.M2TS      4612 (0x1204)   0x90            PGS             ita (Italian)           35.035                  0                       1,490           15              
00006.M2TS      4613 (0x1205)   0x90            PGS             por (Portuguese)        35.035                  0                       1,490           15              
00006.M2TS      4614 (0x1206)   0x90            PGS             jpn (Japanese)          35.035                  0                       1,490           15              
00006.M2TS      5120 (0x1400)   0x91            IGS             eng (English)           35.035                  37                      163,122         912             

<–– END FORUMS PASTE ––>

QUICK SUMMARY:

Disc Title: Elton_John-The_Red_Piano
Disc Size: 48,661,565,656 bytes
Protection: AACS
BD-Java: No
Playlist: 00007.MPLS
Size: 98,949,120 bytes
Length: 0:00:35.135
Total Bitrate: 22.53 Mbps
Video: MPEG-4 AVC Video / 17896 kbps / 1080i / 29.970 fps / 16:9 / High Profile 4.1
Audio: English / LPCM Audio / 2.0 / 48 kHz / 1536 kbps / 16-bit
Audio: English / LPCM Audio / 2.0 / 48 kHz / 1536 kbps / 16-bit
Subtitle: English / 0.339 kbps
Subtitle: French / 0.339 kbps
Subtitle: German / 0.339 kbps
Subtitle: Spanish / 0.339 kbps
Subtitle: Italian / 0.339 kbps
Subtitle: Portuguese / 0.339 kbps
Subtitle: Japanese / 0.339 kbps
Subtitle: English / 37.142 kbps


********************
PLAYLIST: 00005.MPLS
********************

<–- BEGIN FORUMS PASTE –->
                                                                                                                Total   Video                                             
Title                                                           Codec   Length  Movie Size      Disc Size       Bitrate Bitrate Main Audio Track                          Secondary Audio Track
-----                                                           ------  ------- --------------  --------------  ------- ------- ------------------                        ---------------------
00005.MPLS                                                      AVC     0:00:32 90,212,352      48,661,565,656  22.51   17.89   LPCM 2.0 1536Kbps (48kHz/16-bit)          LPCM 2.0 1536Kbps (48kHz/16-bit)


DISC INFO:

Disc Title:     Elton_John-The_Red_Piano
Disc Size:      48,661,565,656 bytes
Protection:     AACS
BD-Java:        No
BDInfo:         0.5.8

PLAYLIST REPORT:

Name:                   00005.MPLS
Length:                 0:00:32.065 (h:m:s.ms)
Size:                   90,212,352 bytes
Total Bitrate:          22.51 Mbps

VIDEO:

Codec                   Bitrate             Description     
-----                   -------             -----------     
MPEG-4 AVC Video        17886 kbps          1080i / 29.970 fps / 16:9 / High Profile 4.1

AUDIO:

Codec                           Language        Bitrate         Description     
-----                           --------        -------         -----------     
LPCM Audio                      English         1536 kbps       2.0 / 48 kHz / 1536 kbps / 16-bit
LPCM Audio                      English         1536 kbps       2.0 / 48 kHz / 1536 kbps / 16-bit

SUBTITLES:

Codec                           Language        Bitrate         Description     
-----                           --------        -------         -----------     
Presentation Graphics           English         0.372 kbps                      
Presentation Graphics           French          0.372 kbps                      
Presentation Graphics           German          0.372 kbps                      
Presentation Graphics           Spanish         0.372 kbps                      
Presentation Graphics           Italian         0.372 kbps                      
Presentation Graphics           Portuguese      0.372 kbps                      
Presentation Graphics           Japanese        0.372 kbps                      
Interactive Graphics            English         45.868 kbps                     

FILES:

Name            Time In         Length          Size            Total Bitrate   
----            -------         ------          ----            -------------   
00004.M2TS      0:00:00.000     0:00:32.065     90,212,352      22,507          

CHAPTERS:

Number          Time In         Length          Avg Video Rate  Max 1-Sec Rate  Max 1-Sec Time  Max 5-Sec Rate  Max 5-Sec Time  Max 10Sec Rate  Max 10Sec Time  Avg Frame Size  Max Frame Size  Max Frame Time  
------          -------         ------          --------------  --------------  --------------  --------------  --------------  --------------  --------------  --------------  --------------  --------------  
1               0:00:00.000     0:00:32.065     17,886 kbps     21,599 kbps     00:00:03.703    19,451 kbps     00:00:02.001    18,813 kbps     00:00:00.567    74,598 bytes    166,489 bytes   00:00:03.136    

STREAM DIAGNOSTICS:

File            PID             Type            Codec           Language                Seconds                 Bitrate                 Bytes           Packets         
----            ---             ----            -----           --------                --------------          --------------          -------------   -----           
00004.M2TS      4113 (0x1011)   0x1B            AVC                                     31.965                  17,942                  71,688,357      390,668         
00004.M2TS      4352 (0x1100)   0x80            LPCM            eng (English)           31.965                  1,547                   6,183,096       38,484          
00004.M2TS      4353 (0x1101)   0x80            LPCM            eng (English)           31.965                  1,547                   6,183,096       38,484          
00004.M2TS      4608 (0x1200)   0x90            PGS             eng (English)           31.965                  0                       1,490           15              
00004.M2TS      4609 (0x1201)   0x90            PGS             fra (French)            31.965                  0                       1,490           15              
00004.M2TS      4610 (0x1202)   0x90            PGS             deu (German)            31.965                  0                       1,490           15              
00004.M2TS      4611 (0x1203)   0x90            PGS             spa (Spanish)           31.965                  0                       1,490           15              
00004.M2TS      4612 (0x1204)   0x90            PGS             ita (Italian)           31.965                  0                       1,490           15              
00004.M2TS      4613 (0x1205)   0x90            PGS             por (Portuguese)        31.965                  0                       1,490           15              
00004.M2TS      4614 (0x1206)   0x90            PGS             jpn (Japanese)          31.965                  0                       1,490           15              
00004.M2TS      5120 (0x1400)   0x91            IGS             eng (English)           31.965                  46                      183,845         1,030           

<–– END FORUMS PASTE ––>

QUICK SUMMARY:

Disc Title: Elton_John-The_Red_Piano
Disc Size: 48,661,565,656 bytes
Protection: AACS
BD-Java: No
Playlist: 00005.MPLS
Size: 90,212,352 bytes
Length: 0:00:32.065
Total Bitrate: 22.51 Mbps
Video: MPEG-4 AVC Video / 17886 kbps / 1080i / 29.970 fps / 16:9 / High Profile 4.1
Audio: English / LPCM Audio / 2.0 / 48 kHz / 1536 kbps / 16-bit
Audio: English / LPCM Audio / 2.0 / 48 kHz / 1536 kbps / 16-bit
Subtitle: English / 0.372 kbps
Subtitle: French / 0.372 kbps
Subtitle: German / 0.372 kbps
Subtitle: Spanish / 0.372 kbps
Subtitle: Italian / 0.372 kbps
Subtitle: Portuguese / 0.372 kbps
Subtitle: Japanese / 0.372 kbps
Subtitle: English / 45.868 kbps


********************
PLAYLIST: 00008.MPLS
********************

<–- BEGIN FORUMS PASTE –->
                                                                                                                Total   Video                                             
Title                                                           Codec   Length  Movie Size      Disc Size       Bitrate Bitrate Main Audio Track                          Secondary Audio Track
-----                                                           ------  ------- --------------  --------------  ------- ------- ------------------                        ---------------------
00008.MPLS                                                      AVC     0:00:32 90,580,992      48,661,565,656  22.60   17.89   LPCM 2.0 1536Kbps (48kHz/16-bit)          LPCM 2.0 1536Kbps (48kHz/16-bit)


DISC INFO:

Disc Title:     Elton_John-The_Red_Piano
Disc Size:      48,661,565,656 bytes
Protection:     AACS
BD-Java:        No
BDInfo:         0.5.8

PLAYLIST REPORT:

Name:                   00008.MPLS
Length:                 0:00:32.065 (h:m:s.ms)
Size:                   90,580,992 bytes
Total Bitrate:          22.60 Mbps

VIDEO:

Codec                   Bitrate             Description     
-----                   -------             -----------     
MPEG-4 AVC Video        17886 kbps          1080i / 29.970 fps / 16:9 / High Profile 4.1

AUDIO:

Codec                           Language        Bitrate         Description     
-----                           --------        -------         -----------     
LPCM Audio                      English         1536 kbps       2.0 / 48 kHz / 1536 kbps / 16-bit
LPCM Audio                      English         1536 kbps       2.0 / 48 kHz / 1536 kbps / 16-bit

SUBTITLES:

Codec                           Language        Bitrate         Description     
-----                           --------        -------         -----------     
Presentation Graphics           English         0.372 kbps                      
Presentation Graphics           French          0.372 kbps                      
Presentation Graphics           German          0.372 kbps                      
Presentation Graphics           Spanish         0.372 kbps                      
Presentation Graphics           Italian         0.372 kbps                      
Presentation Graphics           Portuguese      0.372 kbps                      
Presentation Graphics           Japanese        0.372 kbps                      
Interactive Graphics            English         122.768 kbps                    

FILES:

Name            Time In         Length          Size            Total Bitrate   
----            -------         ------          ----            -------------   
00007.M2TS      0:00:00.000     0:00:32.065     90,580,992      22,599          

CHAPTERS:

Number          Time In         Length          Avg Video Rate  Max 1-Sec Rate  Max 1-Sec Time  Max 5-Sec Rate  Max 5-Sec Time  Max 10Sec Rate  Max 10Sec Time  Avg Frame Size  Max Frame Size  Max Frame Time  
------          -------         ------          --------------  --------------  --------------  --------------  --------------  --------------  --------------  --------------  --------------  --------------  
1               0:00:00.000     0:00:32.065     17,886 kbps     19,403 kbps     00:00:12.245    18,281 kbps     00:00:08.241    18,141 kbps     00:00:03.236    74,598 bytes    219,371 bytes   00:00:13.213    

STREAM DIAGNOSTICS:

File            PID             Type            Codec           Language                Seconds                 Bitrate                 Bytes           Packets         
----            ---             ----            -----           --------                --------------          --------------          -------------   -----           
00007.M2TS      4113 (0x1011)   0x1B            AVC                                     31.932                  17,960                  71,688,357      391,063         
00007.M2TS      4352 (0x1100)   0x80            LPCM            eng (English)           31.932                  1,546                   6,169,600       38,400          
00007.M2TS      4353 (0x1101)   0x80            LPCM            eng (English)           31.932                  1,546                   6,169,600       38,400          
00007.M2TS      4608 (0x1200)   0x90            PGS             eng (English)           31.932                  0                       1,490           15              
00007.M2TS      4609 (0x1201)   0x90            PGS             fra (French)            31.932                  0                       1,490           15              
00007.M2TS      4610 (0x1202)   0x90            PGS             deu (German)            31.932                  0                       1,490           15              
00007.M2TS      4611 (0x1203)   0x90            PGS             spa (Spanish)           31.932                  0                       1,490           15              
00007.M2TS      4612 (0x1204)   0x90            PGS             ita (Italian)           31.932                  0                       1,490           15              
00007.M2TS      4613 (0x1205)   0x90            PGS             por (Portuguese)        31.932                  0                       1,490           15              
00007.M2TS      4614 (0x1206)   0x90            PGS             jpn (Japanese)          31.932                  0                       1,490           15              
00007.M2TS      5120 (0x1400)   0x91            IGS             eng (English)           31.932                  123                     492,076         2,728           

<–– END FORUMS PASTE ––>

QUICK SUMMARY:

Disc Title: Elton_John-The_Red_Piano
Disc Size: 48,661,565,656 bytes
Protection: AACS
BD-Java: No
Playlist: 00008.MPLS
Size: 90,580,992 bytes
Length: 0:00:32.065
Total Bitrate: 22.60 Mbps
Video: MPEG-4 AVC Video / 17886 kbps / 1080i / 29.970 fps / 16:9 / High Profile 4.1
Audio: English / LPCM Audio / 2.0 / 48 kHz / 1536 kbps / 16-bit
Audio: English / LPCM Audio / 2.0 / 48 kHz / 1536 kbps / 16-bit
Subtitle: English / 0.372 kbps
Subtitle: French / 0.372 kbps
Subtitle: German / 0.372 kbps
Subtitle: Spanish / 0.372 kbps
Subtitle: Italian / 0.372 kbps
Subtitle: Portuguese / 0.372 kbps
Subtitle: Japanese / 0.372 kbps
Subtitle: English / 122.768 kbps





Thanks to the original uploader