Subcategories

Elvis Presley - 24 Karat Hits! (1997) [DCC, GZS-1117]

Posted By: v3122
Elvis Presley - 24 Karat Hits! (1997) [DCC, GZS-1117]

Elvis Presley - 24 Karat Hits! (1997)
EAC | Flac(Image) + Cue + Log & MP3 CBR 320Kbps
DCC, GZS-1117 | ~ 344 or 149 Mb | Scans(jpg) -> 73 Mb
Pop, Rock, Rock'n'Roll, Blues

Had Elvis Presley done nothing else but record "That's Alright, Mama," his place in pop music history would be secure. With his first regional hit, Presley fused rhythm and blues with country, put a handsome white face out front for audiences to see, and in so doing legitimized beat music for white audiences. It is no understatement to call Presley the chief catalyst of the rock-and-roll era. During the 1950s, Presley's records spent a collective 53 weeks in the number one chart position. Only the Beatles can boast similar sales success.
Presley's monumental accomplishments continued until his untimely death in 1977. After a stint in the Army, he spent a decade making profitable but forgettable movies. Then in 1968 he reestablished his artistic relevance with a spectacular television special and several great albums. During the last decade of his career, Presley's live show was the hottest ticket in America. A great singer first and last, Presley was equally adept at raunchy blues, lilting boogie, operatic pop, and country tear-jerkers.

~ allmusic
Elvis Presley - 24 Karat Hits! (1997):

Elvis Presley - 24 Karat Hits! (1997) [DCC, GZS-1117]

Tracklist:

01. Heartbreak Hotel [2:13]
02. Love Me [2:48]
03. Don’t Be Cruel [2:06]
04. Hound Dog [2:20]
05. Love Me Tender [2:47]
06. All Shook Up [2:04]
07. (Let Me Be Your) Teddy Bear [1:52]
08. Jailhouse Rock [2:32]
09. Wear My Ring Around Your Neck [2:19]
10. A Big Hunk o’ Love [2:22]
11. Stuck on You [2:24]
12. It’s Now or Never [3:24]
13. Are You Lonesome Tonight? [3:13]
14. Surrender [2:00]
15. (Marie’s the Name) His Latest Flame [2:12]
16. Little Sister [2:39]
17. Can’t Help Falling in Love [3:05]
18. Good Luck Charm [2:32]
19. She’s Not You [2:15]
20. Return to Sender [2:17]
21. (You’re the) Devil in Disguise [2:25]
22. Crying in the Chapel [2:29]
23. In the Ghetto [2:49]
24. Suspicious Minds [4:30]

Exact Audio Copy V1.1 from 23. June 2015

EAC extraction logfile from 10. March 2016, 1:44

ELVIS PRESLEY / 24 Karat Hits! (USA, DCC GZS-1117)

Used drive : ASUS DRW-24B3ST Adapter: 1 ID: 2

Read mode : Secure
Utilize accurate stream : Yes
Defeat audio cache : Yes
Make use of C2 pointers : No

Read offset correction : 6
Overread into Lead-In and Lead-Out : No
Fill up missing offset samples with silence : Yes
Delete leading and trailing silent blocks : No
Null samples used in CRC calculations : Yes
Used interface : Native Win32 interface for Win NT & 2000

Used output format : User Defined Encoder
Selected bitrate : 1024 kBit/s
Quality : High
Add ID3 tag : No
Command line compressor : C:\Program Files\EAC(v.1.1)\WV\wavpack.exe
Additional command line options : -h -hh -m %source%


TOC of the extracted CD

Track | Start | Length | Start sector | End sector
––––––––––––––––––––––––––––-
1 | 0:00.32 | 2:13.20 | 32 | 10026
2 | 2:13.52 | 2:48.25 | 10027 | 22651
3 | 5:02.02 | 2:05.43 | 22652 | 32069
4 | 7:07.45 | 2:19.67 | 32070 | 42561
5 | 9:27.37 | 2:47.30 | 42562 | 55116
6 | 12:14.67 | 2:03.48 | 55117 | 64389
7 | 14:18.40 | 1:51.72 | 64390 | 72786
8 | 16:10.37 | 2:31.70 | 72787 | 84181
9 | 18:42.32 | 2:18.40 | 84182 | 94571
10 | 21:00.72 | 2:21.48 | 94572 | 105194
11 | 23:22.45 | 2:24.30 | 105195 | 116024
12 | 25:47.00 | 3:23.42 | 116025 | 131291
13 | 29:10.42 | 3:13.13 | 131292 | 145779
14 | 32:23.55 | 2:00.02 | 145780 | 154781
15 | 34:23.57 | 2:11.68 | 154782 | 164674
16 | 36:35.50 | 2:38.55 | 164675 | 176579
17 | 39:14.30 | 3:05.10 | 176580 | 190464
18 | 42:19.40 | 2:31.57 | 190465 | 201846
19 | 44:51.22 | 2:14.63 | 201847 | 211959
20 | 47:06.10 | 2:17.17 | 211960 | 222251
21 | 49:23.27 | 2:24.68 | 222252 | 233119
22 | 51:48.20 | 2:29.20 | 233120 | 244314
23 | 54:17.40 | 2:48.57 | 244315 | 256971
24 | 57:06.22 | 4:30.23 | 256972 | 277244


Range status and errors

Selected range

Filename F:\ELVIS PRESLEY - 24 Karat Hits! (US 1997 DCC Compact Classics, Inc. • GZS-1117)\ELVIS PRESLEY - 24 Karat Hits! (USA, DCC GZS-1117).wav

Peak level 100.0 %
Extraction speed 7.5 X
Range quality 100.0 %
Test CRC BF276B18
Copy CRC BF276B18
Copy OK

No errors occurred


AccurateRip summary

Track 1 accurately ripped (confidence 14) [F485E787] (AR v2)
Track 2 accurately ripped (confidence 14) [FEB0867F] (AR v2)
Track 3 accurately ripped (confidence 14) [3B3A8142] (AR v2)
Track 4 accurately ripped (confidence 14) [6EC181B8] (AR v2)
Track 5 accurately ripped (confidence 14) [54313946] (AR v2)
Track 6 accurately ripped (confidence 14) [7CF748E5] (AR v2)
Track 7 accurately ripped (confidence 14) [37C5AAB8] (AR v2)
Track 8 accurately ripped (confidence 14) [7B741056] (AR v2)
Track 9 accurately ripped (confidence 14) [4587EA3F] (AR v2)
Track 10 accurately ripped (confidence 14) [C53D4560] (AR v2)
Track 11 accurately ripped (confidence 14) [9646CD9F] (AR v2)
Track 12 accurately ripped (confidence 14) [92E2F87A] (AR v2)
Track 13 accurately ripped (confidence 14) [8B0C8F3B] (AR v2)
Track 14 accurately ripped (confidence 14) [A16D59CB] (AR v2)
Track 15 accurately ripped (confidence 14) [CC1805A1] (AR v2)
Track 16 accurately ripped (confidence 14) [A3CFA890] (AR v2)
Track 17 accurately ripped (confidence 14) [427816D3] (AR v2)
Track 18 accurately ripped (confidence 14) [F43CACBD] (AR v2)
Track 19 accurately ripped (confidence 14) [587C33FE] (AR v2)
Track 20 accurately ripped (confidence 14) [0F1CD161] (AR v2)
Track 21 accurately ripped (confidence 14) [445C5F3C] (AR v2)
Track 22 accurately ripped (confidence 14) [2BEB66DD] (AR v2)
Track 23 accurately ripped (confidence 14) [FE72F471] (AR v2)
Track 24 accurately ripped (confidence 13) [23D34A22] (AR v2)

All tracks accurately ripped

End of status report

==== Log checksum 74232BE9D00DC752656958EB1FE89E1D689B2E67CB509B461DD6AF6E30807BEC ====


[CUETools log; Date: 22.11.2017 18:29:00; Version: 2.1.5]
Pregap length 00:00:32.
[AccurateRip ID: 00328530-0371787e-5a0e7018] found.
Track [ CRC | V2 ] Status
01 [53a7cc2d|f485e787] (16+19/81) Accurately ripped
02 [b672c679|feb0867f] (16+19/81) Accurately ripped
03 [cee096e4|3b3a8142] (16+19/80) Accurately ripped
04 [d895f68b|6ec181b8] (16+19/80) Accurately ripped
05 [e29a5c14|54313946] (16+19/80) Accurately ripped
06 [30944a4a|7cf748e5] (16+19/77) Accurately ripped
07 [5de067bb|37c5aab8] (16+19/81) Accurately ripped
08 [34489719|7b741056] (16+19/81) Accurately ripped
09 [b7ed8c5d|4587ea3f] (16+19/81) Accurately ripped
10 [27a284ea|c53d4560] (16+19/81) Accurately ripped
11 [4b73622f|9646cd9f] (16+19/81) Accurately ripped
12 [0ea676d1|92e2f87a] (16+19/81) Accurately ripped
13 [2b967cd1|8b0c8f3b] (16+19/80) Accurately ripped
14 [cfd5bedd|a16d59cb] (16+19/81) Accurately ripped
15 [15864e97|cc1805a1] (16+19/81) Accurately ripped
16 [3ac21c5f|a3cfa890] (16+19/81) Accurately ripped
17 [913c475e|427816d3] (16+19/80) Accurately ripped
18 [c4d546a1|f43cacbd] (16+19/80) Accurately ripped
19 [37c504d7|587c33fe] (16+19/80) Accurately ripped
20 [02acf073|0f1cd161] (16+19/80) Accurately ripped
21 [0e4daf5c|445c5f3c] (16+19/79) Accurately ripped
22 [a78c12c5|2beb66dd] (16+19/79) Accurately ripped
23 [775f8fad|fe72f471] (16+19/78) Accurately ripped
24 [3a820bb8|23d34a22] (16+18/77) Accurately ripped
Offsetted by -1826:
01 [54037b05] (03/81) Accurately ripped
02 [5f49b6ab] (03/81) Accurately ripped
03 [ed912fff] (02/80) Accurately ripped
04 [7d5739a8] (00/80) No match (V2 was not tested)
05 [a07b9ecc] (03/80) Accurately ripped
06 [189bb151] (00/77) No match (V2 was not tested)
07 [94a3601a] (03/81) Accurately ripped
08 [0f2d013f] (03/81) Accurately ripped
09 [53b0898f] (03/81) Accurately ripped
10 [36752248] (00/81) No match (V2 was not tested)
11 [bfca2964] (03/81) Accurately ripped
12 [ae528b8d] (03/81) Accurately ripped
13 [63214276] (03/80) Accurately ripped
14 [8766481f] (03/81) Accurately ripped
15 [6a5e0dab] (03/81) Accurately ripped
16 [7134547d] (03/81) Accurately ripped
17 [2cd62fb8] (03/80) Accurately ripped
18 [82386ddb] (03/80) Accurately ripped
19 [bd1d8b19] (03/80) Accurately ripped
20 [f2697a33] (03/80) Accurately ripped
21 [90c65071] (03/79) Accurately ripped
22 [a43e0e6f] (03/79) Accurately ripped
23 [94f9d0e1] (03/78) Accurately ripped
24 [0105522f] (00/77) No match (V2 was not tested)
Offsetted by -1820:
01 [7858b2a0] (00/81) No match (V2 was not tested)
02 [1fec7c3e] (00/81) No match (V2 was not tested)
03 [72a34445] (00/80) No match (V2 was not tested)
04 [e198683b] (00/80) No match (V2 was not tested)
05 [3a8a5620] (00/80) No match (V2 was not tested)
06 [43f71a32] (00/77) No match (V2 was not tested)
07 [c7991ba7] (00/81) No match (V2 was not tested)
08 [e7d05be6] (00/81) No match (V2 was not tested)
09 [bdf9f6b9] (00/81) No match (V2 was not tested)
10 [dfd038f2] (00/81) No match (V2 was not tested)
11 [0f017646] (00/81) No match (V2 was not tested)
12 [021a4c11] (00/81) No match (V2 was not tested)
13 [2b717a11] (00/80) No match (V2 was not tested)
14 [5ec051dc] (00/81) No match (V2 was not tested)
15 [666eb535] (00/81) No match (V2 was not tested)
16 [36b20bc4] (00/81) No match (V2 was not tested)
17 [b6b948d0] (00/80) No match (V2 was not tested)
18 [a93b41e9] (00/80) No match (V2 was not tested)
19 [4d11bfc0] (00/80) No match (V2 was not tested)
20 [fd213270] (00/80) No match (V2 was not tested)
21 [21e32ce7] (00/79) No match (V2 was not tested)
22 [efb2214e] (00/79) No match (V2 was not tested)
23 [ea515fcb] (00/78) No match (V2 was not tested)
24 [696411dc] (00/77) No match (V2 was not tested)
Offsetted by -1301:
01 [74697d5d] (18/81) Accurately ripped
02 [adb05f4f] (18/81) Accurately ripped
03 [71f00de8] (00/80) No match (V2 was not tested)
04 [41af9615] (00/80) No match (V2 was not tested)
05 [548edaaa] (18/80) Accurately ripped
06 [f2f0f519] (00/77) No match (V2 was not tested)
07 [b1f8fecf] (18/81) Accurately ripped
08 [1bc8ea83] (18/81) Accurately ripped
09 [988b682a] (18/81) Accurately ripped
10 [7ba2ec1e] (00/81) No match (V2 was not tested)
11 [d779780a] (18/81) Accurately ripped
12 [c9ebfdbf] (18/81) Accurately ripped
13 [590b8497] (18/80) Accurately ripped
14 [548f046c] (18/81) Accurately ripped
15 [28bf9775] (18/81) Accurately ripped
16 [3df4e767] (18/81) Accurately ripped
17 [b71929a1] (18/80) Accurately ripped
18 [d0d51873] (18/80) Accurately ripped
19 [22c25b9a] (18/80) Accurately ripped
20 [6b5c735f] (18/80) Accurately ripped
21 [70337184] (17/79) Accurately ripped
22 [fb8e8b6a] (17/79) Accurately ripped
23 [3737e856] (17/78) Accurately ripped
24 [c701a7b1] (16/77) Accurately ripped

Track Peak [ CRC32 ] [W/O NULL] [ LOG ]
– 100,0 [BF276B18] [670A2281] CRC32
01 96,6 [F29E58FC] [F0D31D1B]
02 90,9 [4BCAE756] [F93C1A8C]
03 92,9 [EC5D79CE] [5C9EA08A]
04 86,2 [586374CA] [A6C9DC07]
05 78,6 [54DAD72B] [BB6B899B]
06 99,9 [8C6C9BAD] [56E4C348]
07 83,2 [32CA172E] [019AE41B]
08 96,7 [01278835] [2B44D1D8]
09 99,9 [010C7DE8] [F1385FEC]
10 96,7 [1EDE9391] [9638E7F8]
11 94,7 [A7807ABF] [EBFF2B30]
12 100,0 [3597FACF] [442AFB98]
13 83,7 [5E5BC590] [7883FA74]
14 84,8 [06352D3D] [5EFDC946]
15 98,5 [E78BB5DE] [2A7E0634]
16 91,7 [CC47E9A4] [7D19ADE8]
17 96,7 [F768F1ED] [767493CC]
18 100,0 [A6C76F8D] [A2537122]
19 88,2 [E189EB65] [E60CFEC2]
20 97,9 [96281A9E] [57886155]
21 94,4 [64E401CF] [0F0EDE8F]
22 79,9 [8266582E] [327B0D74]
23 96,8 [F2E370F7] [0DB164D7]
24 99,8 [DA2688A5] [C7966BF1]


Elvis Presley - 24 Karat Hits! (1997) [DCC, GZS-1117]

All thanks go to the original releaser

Elvis Presley or Elvis Presley in my Blog

Download Elvis Presley - 24 Karat Hits! (1997):