Subcategories

Elvis Presley - That's The Way It Is (1970) [2014, 2CD Legacy Edition]

Posted By: BlondStyle
Elvis Presley - That's The Way It Is (1970) [2014, 2CD Legacy Edition]

Elvis Presley - That's The Way It Is (1970) [2014, 2CD Legacy Edition]
Pop/Rock, AM Pop, Rock'N'Roll | EAC Rip | FLAC, Img+CUE+LOG+Scans (JPEG) | 02:28:43 | 893,86 Mb
Label: RCA/Legacy/Sony Music (EU) | Cat.# 88843077792 | Released: 2014-08-05 (1970-11-11)

This 2 CD Legacy Edition of "Elvis: That's The Way It Is" features an expanded version of the original RCA album. Added is four single sides from the period and a selection of "fly-on-the-wall" outtakes from the June Nashville sessions that produced the majority of tracks for the LP. Disc 2 features a previously unreleased concert from Elvis' 1970 "Summer Season" recorded on August 12. The 24-page booklet features an insightful essay, photos and memorabilia. This new 2-CD Legacy Edition of the album Elvis: That's The Way It Is that accompanied the film directed by Denis Sanders celebrates this memorable era in the career of Elvis Presley with an expanded version of the original Gold-certified RCA release.
~Review by Amazon

Elvis Presley - That's The Way It Is (1970) [2014, 2CD Legacy Edition]

That's the Way It Is is arguably where Elvis Presley's discography gets very confusing. Sharing a title with Denis Sanders' 1970 documentary of Elvis' return to the stage, That's the Way It Is in its original 1970 LP incarnation isn't precisely a soundtrack to the film. In fact, only a third of the album captures Presley live on-stage in Vegas, with the remainder of the record derived from sessions he recorded in Nashville just a few months prior to launching his long-standing gig at the International Hotel. Vegas looms large over Elvis' legend in the '70s and many of the clichés - the jumpsuits, the splashy arrangements of contemporary standards, the snazzy melodies of his old hits - were born on That's the Way It Is, either on film or on the record. In its original LP incarnation, this wasn't especially apparent due to the record's reliance on the Nashville sessions, where Elvis recorded a fair share of perfectly pleasant middle-of-the-road material pitched halfway between Hollywood and Music City. These tunes - "Twenty Days and Twenty Nights," "How the Web Was Woven," "Just Pretend," and "Stranger in the Crowd" - are easy to spot because they're by songwriters without marquee names (Colonel Tom Parker insisted Elvis take a larger percentage of publishing, which kept away many writers) and, more tellingly, on the 2014 expansions of the album -- available in a double-disc set, which presents a remastered version of the original album supplemented by single versions of four tracks ("I've Lost You," "The Next Step Is Love," "You Don't Have to Say You Love Me," "Patch It Up"), five outtakes of alternate tracks, then a full set from August 12; there is also a gigantic eight-CD/two-DVD box that replicates that expanded first disc and six full sets recorded during the filming of the documentary, plus a disc of rehearsals -- these are the songs that don't appear in the live set. They may not have been part of Presley's repertoire but they do indicate how he was shifting away from the soulful, funky sound inspired by his 1968 comeback into something that felt showbiz. The live recordings, though, show that he was still performing with passion, figuring out what worked on-stage and what didn't after his long hiatus from performing. Again, this isn't so apparent on the 1970 LP, which was basically a good studio album that essayed Elvis' new persona for the coming decade, but all the various expanded editions (which include a 2000 special edition that adds a hefty dose of live material) capture the King starting to relax and enjoy his reign yet again. Certainly, the eight-disc set illustrates this in spades, and while it's undoubtedly one for the devoted, it nevertheless isn't overkill because it captures a peerless performer putting his amazing band through the paces. It's wonderful music that actually is more valuable now than it was at the time: Elvis would record more great music in the next few years, but this record - especially in its 2014 expansion - captures him at a pivotal moment, when he retained the power of his 1968 comeback and had yet to succumb to all the glitz of Vegas.
~Review by Stephen Thomas Erlewine

Elvis Presley - That's The Way It Is (1970) [2014, 2CD Legacy Edition]

Elvis Presley - That's The Way It Is (1970) [2014, 2CD Legacy Edition]

Elvis Presley - That's The Way It Is (1970) [2014, 2CD Legacy Edition]


Release of the album: 1970, December [LP RCA Victor, Cat.# LSP-4445, ZPRS-1867, USA]
Release of this CD: 2014, August, 5 [CD RCA Music/Legacy (EU), Cat.# 88843077792 / UPC: 888430777927]
This compilation © & ℗ 2014 RCA Music, a Division of Sony Music Entertainment
Made in the EU

Credits:

A&R [Original A&R] – Felton Jarvis
Art Direction, Research [Photo Research] – Roger Semon
Backing Vocals [Vocal Accompaniment, Overdub] – Ginger Holladay (tracks: 1-2, 1-3, 1-5, 1-6, 1-9 to 1-16), The Imperials (tracks: 1-2, 1-3, 1-5, 1-6, 1-9 to 1-16), Mary (Jeannie) Greene (tracks: 1-2, 1-3, 1-5, 1-6, 1-9 to 1-16), June Page (tracks: 1-2, 1-3, 1-5, 1-6, 1-9 to 1-16), Mary Holladay (tracks: 1-2, 1-3, 1-5, 1-6, 1-9 to 1-16), Millie Kirkham (tracks: 1-2, 1-3, 1-5, 1-6, 1-9 to 1-16), Temple Riser (tracks: 1-2, 1-3, 1-5, 1-6, 1-9 to 1-16)
Bass – Jerry Scheff (tracks: 1-1, 1-4, 1-7, 1-8, 2-1 to 2-17), Norbert Putnam (tracks: 1-2, 1-3, 1-5, 1-6, 1-9 to 1-16)
Design – Amy Knowles
Drums – Jerry Carrigan (tracks: 1-2, 1-3, 1-5, 1-6, 1-9 to 1-16), Ronnie Tutt (tracks: 1-1, 1-4, 1-7, 1-8, 2-1 to 2-17)
Engineer [Original Engineer] – Al Pachucki
Flute [Overdub], Saxophone [Overdub], Clarinet [Overdub] – Skip Lane (tracks: 1-2, 1-3, 1-5, 1-6, 1-9 to 1-16)
Guitar – Chip Young (tracks: 1-2, 1-3, 1-5, 1-6, 1-9 to 1-16), Elvis Presley (tracks: 1-2, 1-3, 1-5, 1-6, 1-9 to 1-16), James Burton, John Wilkinson (tracks: 1-1, 1-4, 1-7, 1-8, 2-1 to 2-17)
Guitar [Overdub] – James Burton (tracks: 1-2, 1-3, 1-5, 1-6, 1-9 to 1-16)
Guitar, Harmony Vocals – Charlie Hodge (tracks: 1-2, 1-3, 1-5, 1-6, 1-9 to 1-16)
Guitar, Vocals – Charlie Hodge (tracks: 1-1, 1-4, 1-7, 1-8, 2-1 to 2-17)
Liner Notes – Warren Zanes
Mastered By – Vic Anesini
Mixed By – Kabir Hernon, Steve Rosenthal
Oboe [Overdub] – Bobby Taylor (tracks: 1-2, 1-3, 1-5, 1-6, 1-9 to 1-16)
Orchestra – Joe Guercio & His Orchestra (tracks: 1-1, 1-4, 1-7, 1-8, 2-1 to 2-17)
Organ [Overdub] – David Briggs (tracks: 1-2, 1-3, 1-5, 1-6, 1-9 to 1-16)
Organ, Harmonica – Charlie McCoy (tracks: 1-2, 1-3, 1-5, 1-6, 1-9 to 1-16)
Percussion [Overdub] – Jerry Carrigan (tracks: 1-2, 1-3, 1-5, 1-6, 1-9 to 1-16)
Percussion [Overdub], Vibraphone [Overdub] – Farrell Morris (tracks: 1-2, 1-3, 1-5, 1-6, 1-9 to 1-16)
Piano – David Briggs (tracks: 1-2, 1-3, 1-5, 1-6, 1-9 to 1-16), Glen D. Hardin (tracks: 1-1, 1-4, 1-7, 1-8, 2-1 to 2-17)
Product Manager [Product Direction] – John Jackson, Tom Burleigh
Production Manager [Project Direction] – Jim Parham, Marisa Jeffries
Reissue Producer – Ernst Mikael Jørgensen, Rob Santos
Research [Recording Information] – Ernst Mikael Jørgensen
Saxophone [Overdub] – Wayne Butler (tracks: 1-2, 1-3, 1-5, 1-6, 1-9 to 1-16)
Steel Guitar [Overdub] – Weldon Myrick (tracks: 1-2, 1-3, 1-5, 1-6, 1-9 to 1-16)
Supervised By [Editorial Supervision] – Mike Cimicata
Tape [Tape Transfers], Edited By [Digital Assembly] – Mike Placentini
Trombone [Overdub] – Gene Mullins (tracks: 1-2, 1-3, 1-5, 1-6, 1-9 to 1-16)
Trumpet [Overdub] – Don Sheffield (tracks: 1-2, 1-3, 1-5, 1-6, 1-9 to 1-16), George Tidwell (tracks: 1-2, 1-3, 1-5, 1-6, 1-9 to 1-16)
Vocals – The Imperials (tracks: 1-1, 1-4, 1-7, 1-8, 2-1 to 2-17), Millie Kirkham (tracks: 1-1, 1-4, 1-7, 1-8, 2-1 to 2-17), The Sweet Inspirations (tracks: 1-1, 1-4, 1-7, 1-8, 2-1 to 2-17)


Tracklist:

Disc 1:

THE ORIGINAL ALBUM
01. I Just Can't Help Believin' (C. Weil / B. Mann) 4:40
02. Twenty Days and Twenty Nights (B. Weisman / C. Westlake) 3:17
03. How the Web Was Woven (C. Westlake / D. Most) 3:25
04. Patch It Up (E. Rabbit / R. Bourke) 4:00
05. Mary in the Morning (J. Cymbal / M. Rashkow) 4:10
06. You Don't Have to Say You Love Me (V. Vickham / S. Napier-Bell / P. Donaggio / V. Pallavicini) 2:30
07. You've Lost That Loving Feeling (C. Weil / B. Mann) 4:24
08. I've Lost You (K. Howard / A. Blaikley) 3:40
09. Just Pretend (D. Flett / G. Fletcher) 4:03
10. Stranger in the Crowd (W. Scott) 3:47
11. The Next Step Is Love (P. Evans / P. Parnes) 3:33
12. Bridge over Troubled Water (P. Simon) 4:35

THE ORIGINAL SINGLES
13. I've Lost You (Single Version) (K. Howard / A/ Blaikley) 3:33
14. The Next Step Is Love (Single Version) (P. Evans / P. Parnes) 3:32
15. You Don't Have to Say You Love Me (Single Version) (V. Vickham / S. Napier-Bell / P. Donaggio / V. Pallavicini) 2:31
16. Patch It Up (Single Version) (E. Rabbit / R. Bourke) 3:10

THE OUTTAKES
17. How the Web Was Woven (Take 1) (C. Westlake / D. Most) 4:24
18. I've Lost You (Take 1) (K. Howard / A. Blaikley) 4:31
19. You Don't Have to Say You Love Me (Take 2) (V. Vickham / S. Napier-Bell / P. Donaggio / V. Pallavicini) 2:52
20. Patch It Up (Take 1) (E. Rabbit / R. Bourke) 2:41
21. Bridge over Troubled Water (Take 1) (P. Simon) 5:30

Disc 2:

AUGUST 12 - DINNER SHOW
01. That's All Right (A. Crudup) 3:51
02. I Got a Woman (R. Charles) 2:41
03. Hound Dog (J. Leiber / M. Stoller) 5:00
04. Heartbreak Hotel (M.B.Axton / T. Durden / E/ Presley) 2:18
05. Love Me Tender (V. Matson / E. Presley) 4:04
06. I've Lost You (K. Howard / A. Blaikley) 4:11
07. I Just Can't Help Believin' (C. Weil / B. Mann) 4:00
08. Patch It Up (E. Rabbit / R. Bourke) 5:43
09. Twenty Days and Twenty Nights (B. Weisman / C. Westlake) 4:36
10. You've Lost That Lovin' Feelin' (C. Weil / B. Mann) 4:03
11. Polk Salad Annie (T.J. White) 6:55
12. Introductions 5:15
13. Blue Suede Shoes (C. Perkins) 0:54
14. You Don't Have to Say You Love Me (V. Vickham / S. Napier-Bell / P. Donaggio / V. Pallavicini) 2:17
15. Bridge over Troubled Water (P. Simon) 4:40
16. Suspicious Minds (M. James) 6:42
17. Can't Help Falling in Love (H. Peretti / L. Creatore / G. Weiss) 2:02

Notes:

The album title on the front cover only appears as "That's the way it is". On the spine it's "That's The Way It Is: Legacy Edition" and on the discs "That's The Way It Is (Legacy Edition)".

Disc 1
The studio recordings: RCA Studio "B", Nashville, TN, 1970
June 4
Twenty Days And Twenty Nights
I've Lost you (Single 47-9873, released July 14, 1970)
June 5
Bridge Over Troubled Water
How The Web Was Woven
Stranger In The Crowd
Mary In The Morning
June 6
You Don't Have To Say You Love Me (Single 47-9916, released October 6, 1970)
Just Pretend
June 7
The Next Step Is Love (Single 47-9873, released July 14, 1970)
June 8
Patch It Up (Single 47-9916, released October 6, 1970)
The live recordings: International Hotel, Las Vegas
Tracks 1-1 to 1-12 first issued on RCA album "That's The Way It Is" LSP 445, released November 1970
Tracks 1-4 & 1-8 also issued on RCA 4-album set "The Other Sides - Worldwide Gold Award Hits Vol. 2" LPM 6402, released August 1971
Track 1-17, 1-18, 1-21 first issued on FTD release "The Nashville Marathon" 74321-95406-2, released July 2002
Track 1-19 first issued on RCA release "A Hundred Years From Now - Essential Elvis Volume 4" 07863-66866-2, released July 1996
Track 1-20 first issued on FTD release "That's The Way It Is" 88697-29696-2, released April 2008

Disc 2
Showroom Internationale
August 12 - Dinner Show
Patch It Up (First issued on RCA album "That's The Way It Is" LSP 445, released November 1970)
Twenty Days And Twenty Nights (First issued on RCA 3-CD set "That's The Way It Is: Special Edition" 07863-67938-2, released November 2000)
You Don't Have To Say You Love Me (First issued on FTD release "The Way It Was" 74321-84216-2, released August 2001)
Bridge Over Troubled Water (First issued on FTD release "The Way It Was" 74321-84216-2, released August 2001)
All other tracks on CD2 previously unreleased

Exact Audio Copy V0.99 prebeta 5 from 4. May 2009

EAC extraction logfile from 21. June 2015, 20:24

Elvis Presley / That's The Way It Is (Legacy Edition) CD 1

Used drive : ATAPI iHAS122 C Adapter: 1 ID: 1

Read mode : Secure
Utilize accurate stream : Yes
Defeat audio cache : Yes
Make use of C2 pointers : No

Read offset correction : 6
Overread into Lead-In and Lead-Out : No
Fill up missing offset samples with silence : Yes
Delete leading and trailing silent blocks : No
Null samples used in CRC calculations : Yes
Used interface : Native Win32 interface for Win NT & 2000

Used output format : Internal WAV Routines
Sample format : 44.100 Hz; 16 Bit; Stereo


TOC of the extracted CD

Track | Start | Length | Start sector | End sector
––––––––––––––––––––––––––––-
1 | 0:00.00 | 4:39.73 | 0 | 20997
2 | 4:39.73 | 3:17.13 | 20998 | 35785
3 | 7:57.11 | 3:25.20 | 35786 | 51180
4 | 11:22.31 | 4:00.42 | 51181 | 69222
5 | 15:22.73 | 4:10.54 | 69223 | 88026
6 | 19:33.52 | 2:31.17 | 88027 | 99368
7 | 22:04.69 | 4:24.14 | 99369 | 119182
8 | 26:29.08 | 3:40.58 | 119183 | 135740
9 | 30:09.66 | 4:05.38 | 135741 | 154153
10 | 34:15.29 | 3:47.56 | 154154 | 171234
11 | 38:03.10 | 3:33.35 | 171235 | 187244
12 | 41:36.45 | 4:38.11 | 187245 | 208105
13 | 46:14.56 | 3:35.02 | 208106 | 224232
14 | 49:49.58 | 3:33.74 | 224233 | 240281
15 | 53:23.57 | 2:32.72 | 240282 | 251753
16 | 55:56.54 | 3:12.42 | 251754 | 266195
17 | 59:09.21 | 4:26.24 | 266196 | 286169
18 | 63:35.45 | 4:33.08 | 286170 | 306652
19 | 68:08.53 | 2:54.40 | 306653 | 319742
20 | 71:03.18 | 2:43.18 | 319743 | 331985
21 | 73:46.36 | 5:30.47 | 331986 | 356782


Range status and errors

Selected range

Filename C:\Users\London\Desktop\Elvis Presley - That's The Way It Is (Legacy Edition) CD 1.wav

Peak level 100.0 %
Range quality 100.0 %
Test CRC 9016DE7B
Copy CRC 9016DE7B
Copy OK

No errors occurred


AccurateRip summary

Track 1 cannot be verified as accurate (confidence 15) [7550A63E], AccurateRip returned [2136F0DE]
Track 2 cannot be verified as accurate (confidence 15) [1325CA4C], AccurateRip returned [6EC2D54C]
Track 3 cannot be verified as accurate (confidence 15) [C920060E], AccurateRip returned [9D4E69C7]
Track 4 cannot be verified as accurate (confidence 15) [2B7362AB], AccurateRip returned [B1688863]
Track 5 cannot be verified as accurate (confidence 15) [0EFC3453], AccurateRip returned [793B2975]
Track 6 cannot be verified as accurate (confidence 15) [72C38F8A], AccurateRip returned [77DDEDA7]
Track 7 cannot be verified as accurate (confidence 15) [86CBE57F], AccurateRip returned [4CFCA08B]
Track 8 cannot be verified as accurate (confidence 15) [68A6AE4F], AccurateRip returned [FA42C48B]
Track 9 cannot be verified as accurate (confidence 15) [5130D9E3], AccurateRip returned [A207DCFA]
Track 10 cannot be verified as accurate (confidence 15) [6E055F59], AccurateRip returned [0215C984]
Track 11 cannot be verified as accurate (confidence 15) [0EE6B869], AccurateRip returned [3BF0F3C9]
Track 12 cannot be verified as accurate (confidence 15) [93AA382B], AccurateRip returned [6F5D37F5]
Track 13 cannot be verified as accurate (confidence 15) [57D88F96], AccurateRip returned [CE90B0AC]
Track 14 cannot be verified as accurate (confidence 16) [831FA414], AccurateRip returned [96F7072F]
Track 15 cannot be verified as accurate (confidence 15) [CDF9E5D7], AccurateRip returned [15F7A373]
Track 16 cannot be verified as accurate (confidence 15) [19F0298A], AccurateRip returned [1346C9AA]
Track 17 cannot be verified as accurate (confidence 15) [5CF2AC4C], AccurateRip returned [16422740]
Track 18 cannot be verified as accurate (confidence 15) [BE9E81C6], AccurateRip returned [166A5645]
Track 19 cannot be verified as accurate (confidence 15) [4FE64160], AccurateRip returned [F1EFE17D]
Track 20 cannot be verified as accurate (confidence 15) [5EE8D514], AccurateRip returned [8BFAB698]
Track 21 cannot be verified as accurate (confidence 15) [D91E9A87], AccurateRip returned [8A69CAFF]

No tracks could be verified as accurate
You may have a different pressing from the one(s) in the database

End of status report

Exact Audio Copy V0.99 prebeta 5 from 4. May 2009

EAC extraction logfile from 21. June 2015, 20:07

Elvis Presley / That's The Way It Is (Legacy Edition) CD 2

Used drive : ATAPI iHAS122 C Adapter: 1 ID: 1

Read mode : Secure
Utilize accurate stream : Yes
Defeat audio cache : Yes
Make use of C2 pointers : No

Read offset correction : 6
Overread into Lead-In and Lead-Out : No
Fill up missing offset samples with silence : Yes
Delete leading and trailing silent blocks : No
Null samples used in CRC calculations : Yes
Used interface : Native Win32 interface for Win NT & 2000

Used output format : Internal WAV Routines
Sample format : 44.100 Hz; 16 Bit; Stereo


TOC of the extracted CD

Track | Start | Length | Start sector | End sector
––––––––––––––––––––––––––––-
1 | 0:00.00 | 3:51.36 | 0 | 17360
2 | 3:51.36 | 2:47.01 | 17361 | 29886
3 | 6:38.37 | 5:00.02 | 29887 | 52388
4 | 11:38.39 | 2:18.26 | 52389 | 62764
5 | 13:56.65 | 4:04.11 | 62765 | 81075
6 | 18:01.01 | 4:11.46 | 81076 | 99946
7 | 22:12.47 | 4:00.57 | 99947 | 118003
8 | 26:13.29 | 5:43.01 | 118004 | 143729
9 | 31:56.30 | 4:36.57 | 143730 | 164486
10 | 36:33.12 | 4:03.31 | 164487 | 182742
11 | 40:36.43 | 6:55.00 | 182743 | 213867
12 | 47:31.43 | 5:15.60 | 213868 | 237552
13 | 52:47.28 | 0:54.42 | 237553 | 241644
14 | 53:41.70 | 2:17.67 | 241645 | 251986
15 | 55:59.62 | 4:40.69 | 251987 | 273055
16 | 60:40.56 | 6:42.55 | 273056 | 303260
17 | 67:23.36 | 2:01.74 | 303261 | 312409


Range status and errors

Selected range

Filename C:\Users\London\Desktop\Elvis Presley - That's The Way It Is (Legacy Edition) CD 2.wav

Peak level 96.3 %
Range quality 100.0 %
Test CRC CFFEC4C7
Copy CRC CFFEC4C7
Copy OK

No errors occurred


AccurateRip summary

Track 1 cannot be verified as accurate (confidence 14) [6327A60D], AccurateRip returned [5F53B916]
Track 2 cannot be verified as accurate (confidence 14) [DAE3C93E], AccurateRip returned [B0CF7EED]
Track 3 cannot be verified as accurate (confidence 14) [53B11B55], AccurateRip returned [C3A51A34]
Track 4 cannot be verified as accurate (confidence 14) [ED4609DA], AccurateRip returned [E3717EA6]
Track 5 cannot be verified as accurate (confidence 14) [48A672FB], AccurateRip returned [6C24F152]
Track 6 cannot be verified as accurate (confidence 14) [4705A7B8], AccurateRip returned [A7FD6FCA]
Track 7 cannot be verified as accurate (confidence 14) [812F3A37], AccurateRip returned [642686B3]
Track 8 cannot be verified as accurate (confidence 14) [4BD7EE0D], AccurateRip returned [83CC66BE]
Track 9 cannot be verified as accurate (confidence 14) [57B64F96], AccurateRip returned [1FA3B155]
Track 10 cannot be verified as accurate (confidence 14) [2D3AEA44], AccurateRip returned [3734DB7A]
Track 11 cannot be verified as accurate (confidence 14) [B7977134], AccurateRip returned [C768260E]
Track 12 cannot be verified as accurate (confidence 14) [B0B99411], AccurateRip returned [1EE9EE64]
Track 13 cannot be verified as accurate (confidence 14) [601FAFB3], AccurateRip returned [52410A75]
Track 14 cannot be verified as accurate (confidence 14) [E146C687], AccurateRip returned [B9883D60]
Track 15 cannot be verified as accurate (confidence 14) [5DAC1D27], AccurateRip returned [7EDCF23A]
Track 16 cannot be verified as accurate (confidence 13) [DD9DED77], AccurateRip returned [E0E4B717]
Track 17 cannot be verified as accurate (confidence 13) [769888CC], AccurateRip returned [2536442D]

No tracks could be verified as accurate
You may have a different pressing from the one(s) in the database

End of status report

––––––––––––––––––––––––––––––––––––––––
Analyzed: Elvis Presley / That's The Way It Is (Legacy Edition) CD 1
––––––––––––––––––––––––––––––––––––––––

DR Peak RMS Duration Track
––––––––––––––––––––––––––––––––––––––––
DR12 -0.25 dB -16.76 dB 4:40 01-I Just Can't Help Believin'
DR11 -1.39 dB -15.61 dB 3:17 02-Twenty Days and Twenty Nights
DR10 -0.27 dB -13.35 dB 3:25 03-How the Web Was Woven
DR10 0.00 dB -12.69 dB 4:01 04-Patch It Up
DR11 -2.03 dB -15.95 dB 4:11 05-Mary in the Morning
DR10 -0.13 dB -12.29 dB 2:31 06-You Don't Have to Say You Love Me
DR11 0.00 dB -15.90 dB 4:24 07-You've Lost That Loving Feeling
DR11 -0.14 dB -15.20 dB 3:41 08-I've Lost You
DR10 -0.15 dB -13.83 dB 4:06 09-Just Pretend
DR10 -0.11 dB -12.27 dB 3:48 10-Stranger in the Crowd
DR10 -0.64 dB -13.93 dB 3:33 11-The Next Step Is Love
DR11 -0.18 dB -16.83 dB 4:38 12-Bridge over Troubled Water
DR11 -0.72 dB -14.69 dB 3:35 13-I've Lost You [Single Version]
DR11 0.00 dB -13.79 dB 3:34 14-The Next Step Is Love [Single Version]
DR12 -0.18 dB -14.53 dB 2:33 15-You Don't Have to Say You Love Me [Single Version]
DR11 -1.06 dB -14.09 dB 3:13 16-Patch It Up [Single Version]
DR12 -0.21 dB -15.75 dB 4:26 17-How the Web Was Woven [Take 1]
DR12 -0.13 dB -16.01 dB 4:33 18-I've Lost You [Take 1]
DR12 -0.82 dB -16.31 dB 2:55 19-You Don't Have to Say You Love Me [Take 2]
DR14 -0.23 dB -16.13 dB 2:43 20-Patch It Up [Take 1]
DR13 -0.90 dB -17.21 dB 5:31 21-Bridge over Troubled Water [Take 1]
––––––––––––––––––––––––––––––––––––––––

Number of tracks: 21
Official DR value: DR11

Samplerate: 44100 Hz
Channels: 2
Bits per sample: 16
Bitrate: 776 kbps
Codec: FLAC
================================================================================

––––––––––––––––––––––––––––––––––––––––
Analyzed: Elvis Presley / That's The Way It Is (Legacy Edition) CD 2
––––––––––––––––––––––––––––––––––––––––

DR Peak RMS Duration Track
––––––––––––––––––––––––––––––––––––––––
DR10 -0.37 dB -13.92 dB 3:51 01-That's All Right [August 12 - Dinner Show]
DR10 -0.38 dB -13.09 dB 2:47 02-I Got a Woman [August 12 - Dinner Show]
DR12 -0.59 dB -18.68 dB 5:00 03-Hound Dog [August 12 - Dinner Show]
DR13 -0.68 dB -16.90 dB 2:18 04-Heartbreak Hotel [August 12 - Dinner Show]
DR10 -0.39 dB -13.83 dB 4:04 05-Love Me Tender [August 12 - Dinner Show]
DR10 -0.38 dB -14.05 dB 4:12 06-I've Lost You [August 12 - Dinner Show]
DR13 -0.51 dB -17.02 dB 4:01 07-I Just Can't Help Believin' [August 12 - Dinner Show]
DR10 -0.38 dB -13.75 dB 5:43 08-Patch It Up [August 12 - Dinner Show]
DR11 -0.45 dB -16.39 dB 4:37 09-Twenty Days and Twenty Nights [August 12 - Dinner Show]
DR11 -0.43 dB -15.13 dB 4:03 10-You've Lost That Lovin' Feelin' [August 12 - Dinner Show]
DR12 -0.44 dB -15.35 dB 6:55 11-Polk Salad Annie [August 12 - Dinner Show]
DR21 -0.44 dB -27.18 dB 5:16 12-Introductions [August 12 - Dinner Show]
DR11 -0.44 dB -13.19 dB 0:55 13-Blue Suede Shoes [August 12 - Dinner Show]
DR11 -0.41 dB -13.49 dB 2:18 14-You Don't Have to Say You Love Me [August 12 - Dinner Show]
DR12 -0.39 dB -16.70 dB 4:41 15-Bridge over Troubled Water [August 12 - Dinner Show]
DR10 -0.32 dB -12.58 dB 6:43 16-Suspicious Minds [August 12 - Dinner Show]
DR10 -0.39 dB -12.90 dB 2:02 17-Can't Help Falling in Love [August 12 - Dinner Show]
––––––––––––––––––––––––––––––––––––––––

Number of tracks: 17
Official DR value: DR12

Samplerate: 44100 Hz
Channels: 2
Bits per sample: 16
Bitrate: 795 kbps
Codec: FLAC
================================================================================

Thanks to my friend, London

See also:
Elvis Presley - Heartbreak Hotel [CD-Single] (1996)

♫~Welcome To My Blog~♫

password: BlondStyle