Subcategories
Tags
Language
Tags

Joanna Ławrynowicz, Andrzej Gębski, Andrzej Wróbel - Emanuel Kania: Cello Sonata, Piano Trio (2007)

Posted By: tirexiss
Joanna Ławrynowicz, Andrzej Gębski, Andrzej Wróbel - Emanuel Kania: Cello Sonata, Piano Trio (2007)

Joanna Ławrynowicz, Andrzej Gębski, Andrzej Wróbel - Emanuel Kania: Cello Sonata, Piano Trio (2007)
EAC | FLAC (image+.cue, log) | Covers Included | 56:03 | 331 MB
Genre: Classical | Label: Acte Préalable | Catalog: AP0169

These appear to be the only chamber works this pianist and teacher wrote (there are lots of piano pieces, songs and a comic opera) and their dates are uncertain. The sonata is simple and elegant with more than a touch of the salon in its slow movement but the 33-minute trio is more impressive, with a three-note motive in the first movement you'll swear you've known all your life, a light and Mendelssohnian scherzo, a slow movement with much more depth and an allegro con fuoco finale as advertised. Joanna Lawrynowicz (piano), Andrzej Gebski (violin), Andrzej Wróbel (cello).

Joanna Ławrynowicz, Andrzej Gębski, Andrzej Wróbel - Emanuel Kania: Cello Sonata, Piano Trio (2007)

Track List:

Emanuel Kania (1827-1887)

01. Sonata for cello and piano in A minor - I. Maestoso. Allegro moderato [0:09:19.15]
02. Sonata for cello and piano in A minor - II. Adagio con espressione [0:06:02.34]
03. Sonata for cello and piano in A minor - III. Finale. Allegetto spirituoso [0:07:12.33]
04. Piano Trio in G minor - I. Allegro con brio [0:12:50.54]
05. Piano Trio in G minor - II. Allegretto [0:04:35.24]
06. Piano Trio in G minor - III. Adagio [0:08:57.68]
07. Piano Trio in G minor - IV. Allegro con fuoco [0:07:05.35]

Performers:
Joanna Ławrynowicz - piano
Andrzej Gębski - violin
Andrzej Wróbel - cello

Exact Audio Copy V1.0 beta 3 from 29. August 2011

EAC extraction logfile from 10. May 2012, 21:07

- / Emanuel Kania - Cello Sonata, Piano Trio - J.Lawrynowicz

Used drive : HL-DT-STDVDRAM GSA-H10A Adapter: 0 ID: 0

Read mode : Secure
Utilize accurate stream : Yes
Defeat audio cache : Yes
Make use of C2 pointers : No

Read offset correction : 667
Overread into Lead-In and Lead-Out : No
Fill up missing offset samples with silence : Yes
Delete leading and trailing silent blocks : No
Null samples used in CRC calculations : Yes
Used interface : Native Win32 interface for Win NT & 2000

Used output format : User Defined Encoder
Selected bitrate : 1024 kBit/s
Quality : High
Add ID3 tag : No
Command line compressor : C:\Program Files\Exact Audio Copy\Flac\flac.exe
Additional command line options : -8 -V -T "TITLE=%title%" -T "ARTIST=%artist%" -T "ALBUMARTIST=%albumartist%" -T "ALBUM=%albumtitle%" -T "DATE=%year%" -T "TRACKNUMBER=%tracknr%" -T "TRACKTOTAL=%numtracks%" -T "GENRE=%genre%" -T "COMMENT=%comment%" -T "PERFORMER=%albuminterpret%" -T "COMPOSER=%composer%" %source% -o %dest%


TOC of the extracted CD

Track | Start | Length | Start sector | End sector
––––––––––––––––––––––––––––-
1 | 0:00.00 | 9:19.15 | 0 | 41939
2 | 9:19.15 | 6:02.34 | 41940 | 69123
3 | 15:21.49 | 7:12.33 | 69124 | 101556
4 | 22:34.07 | 12:50.54 | 101557 | 159360
5 | 35:24.61 | 4:35.24 | 159361 | 180009
6 | 40:00.10 | 8:57.68 | 180010 | 220352
7 | 48:58.03 | 7:05.35 | 220353 | 252262


Range status and errors

Selected range

Filename F:\Ripped general\[9846] Emanuel Kania - Cello Sonata, Piano Trio - J.Lawrynowicz\Emanuel Kania - Cello Sonata, Piano Trio - J.Lawrynowicz.wav

Peak level 100.0 %
Extraction speed 7.4 X
Range quality 99.9 %
Test CRC AC496665
Copy CRC AC496665
Copy OK

No errors occurred


AccurateRip summary

Track 1 not present in database
Track 2 not present in database
Track 3 not present in database
Track 4 not present in database
Track 5 not present in database
Track 6 not present in database
Track 7 not present in database

None of the tracks are present in the AccurateRip database

End of status report

Thanks to the Original ripper (unknown)!

Welcome to my blog!

Download: