Subcategories

Emerson, Lake & Palmer - Emerson, Lake & Palmer (1970)

Posted By: v3122
Emerson, Lake & Palmer - Emerson, Lake & Palmer (1970)

Emerson, Lake & Palmer - Emerson, Lake & Palmer (1970)
EAC | Flac(Image) + Cue + Log & MP3 CBR 320Kbps
1987 | Warner-Pioneer/Atlantic, 32XD-748 | Japan | ~ 257 or 98 Mb | Scans(jpg) -> 33 Mb
Progressive Rock

Lively, ambitious, almost entirely successful debut album, made up of keyboard-dominated instrumentals ("The Barbarian," "Three Fates") and romantic ballads ("Lucky Man") showcasing all three members' very daunting talents. This album, which reached the Top 20 in America and got to number four in England, showcased the group at its least pretentious and most musicianly – with the exception of a few moments on "Three Fates" and perhaps "Take a Pebble," there isn't much excess, and there is a lot of impressive musicianship here. "Take a Pebble" might have passed for a Moody Blues track of the era but for the fact that none of the Moody Blues' keyboard men could solo like Keith Emerson. Even here, in a relatively balanced collection of material, the album shows the beginnings of a dark, savage, imposingly gothic edge that had scarcely been seen before in so-called "art rock," mostly courtesy of Emerson's larger-than-life organ and synthesizer attacks. Greg Lake's beautifully sung, deliberately archaic "Lucky Man" had a brush with success on FM radio, and Carl Palmer became the idol of many thousands of would-be drummers based on this one album (especially for "Three Fates" and "Tank"), but Emerson emerged as the overpowering talent here for much of the public.

by Bruce Eder, allmusic
Emerson, Lake & Palmer - Emerson, Lake & Palmer (1970)


Emerson, Lake & Palmer - Emerson, Lake & Palmer (1970):

Emerson, Lake & Palmer - Emerson, Lake & Palmer (1970)

Tracklist:

01. The Barbarian - 4:34
02. Take A Pebble - 12:34
03. Knife Edge - 5:08
04. The Three Fates - 7:45
05. Tank - 6:52
06. Lucky Man - 4:38

Exact Audio Copy V1.0 beta 4 from 7. December 2014

EAC extraction logfile from 19. February 2015, 23:55

Emerson, Lake & Palmer / Emerson, Lake & Palmer (1987, 32XD-748)

Used drive : ATAPI iHAS124 B Adapter: 1 ID: 0

Read mode : Secure
Utilize accurate stream : Yes
Defeat audio cache : Yes
Make use of C2 pointers : No

Read offset correction : 6
Overread into Lead-In and Lead-Out : No
Fill up missing offset samples with silence : Yes
Delete leading and trailing silent blocks : No
Null samples used in CRC calculations : Yes
Used interface : Installed external ASPI interface

Used output format : User Defined Encoder
Selected bitrate : 128 kBit/s
Quality : High
Add ID3 tag : Yes
Command line compressor : C:\Program Files (x86)\Exact Audio Copy\Flac\flac.exe
Additional command line options : -V -8 -T "Date=%year%" -T "Genre=%genre%" %source%


TOC of the extracted CD

Track | Start | Length | Start sector | End sector
––––––––––––––––––––––––––––-
1 | 0:00.37 | 4:33.40 | 37 | 20551
2 | 4:34.02 | 12:33.73 | 20552 | 77099
3 | 17:08.00 | 5:08.00 | 77100 | 100199
4 | 22:16.00 | 7:44.62 | 100200 | 135061
5 | 30:00.62 | 6:52.13 | 135062 | 165974
6 | 36:53.00 | 4:38.17 | 165975 | 186841


Range status and errors

Selected range

Filename G:\CD\ELP - Emerson, Lake & Palmer.wav

Peak level 97.6 %
Extraction speed 5.7 X
Range quality 100.0 %
Test CRC 195B653C
Copy CRC 195B653C
Copy OK

No errors occurred


AccurateRip summary

Track 1 accurately ripped (confidence 3) [D9FE0A9F] (AR v2)
Track 2 accurately ripped (confidence 3) [90BFE42B] (AR v2)
Track 3 accurately ripped (confidence 3) [CEEEA61C] (AR v2)
Track 4 accurately ripped (confidence 3) [265BAC27] (AR v2)
Track 5 accurately ripped (confidence 3) [7C9657DD] (AR v2)
Track 6 accurately ripped (confidence 3) [814338F9] (AR v2)

All tracks accurately ripped

End of status report

–– CUETools DB Plugin V2.1.4

[CTDB TOCID: FPA9iyA8rI.rfIM0BdwLjN37PPY-] found
Submit result: already submitted
Track | CTDB Status
1 | (2/2) Accurately ripped
2 | (2/2) Accurately ripped
3 | (2/2) Accurately ripped
4 | (2/2) Accurately ripped
5 | (2/2) Accurately ripped
6 | (2/2) Accurately ripped


==== Log checksum B9AE937726EF6B774194429E00369573512EDA4FCA57344DF350841BDA949235 ====

foobar2000 1.2.9 / Dynamic Range Meter 1.1.1
log date: 2017-05-05 00:17:33

––––––––––––––––––––––––––––––––––––––––
Analyzed: Emerson, Lake & Palmer / Emerson, Lake & Palmer (1987, 32XD-748)
––––––––––––––––––––––––––––––––––––––––

DR Peak RMS Duration Track
––––––––––––––––––––––––––––––––––––––––
DR10 -0.79 dB -14.93 dB 4:34 01-The Barbarian
DR13 -0.80 dB -19.33 dB 12:34 02-Take A Pebble
DR11 -0.21 dB -14.81 dB 5:08 03-Knife Edge
DR12 -1.04 dB -16.62 dB 7:45 04-The Three Fates
DR11 -0.69 dB -16.03 dB 6:52 05-Tank
DR11 -0.26 dB -16.84 dB 4:38 06-Lucky Man
––––––––––––––––––––––––––––––––––––––––

Number of tracks: 6
Official DR value: DR11

Samplerate: 44100 Hz
Channels: 2
Bits per sample: 16
Bitrate: 841 kbps
Codec: FLAC

[CUETools log; Date: 05.05.2017 0:06:53; Version: 2.1.4]
Pregap length 00:00:37.
[CTDB TOCID: FPA9iyA8rI.rfIM0BdwLjN37PPY-] found.
Track | CTDB Status
1 | (6/6) Accurately ripped
2 | (6/6) Accurately ripped
3 | (6/6) Accurately ripped
4 | (6/6) Accurately ripped
5 | (6/6) Accurately ripped
6 | (6/6) Accurately ripped
[AccurateRip ID: 000a76c8-0037bac7-3909bb06] found.
Track [ CRC | V2 ] Status
01 [63196c36|d9fe0a9f] (0+4/4) Accurately ripped
02 [e296abda|90bfe42b] (0+4/4) Accurately ripped
03 [738a85dd|ceeea61c] (0+4/4) Accurately ripped
04 [c215a285|265bac27] (0+4/4) Accurately ripped
05 [33d8384f|7c9657dd] (0+4/4) Accurately ripped
06 [85b03efd|814338f9] (0+4/4) Accurately ripped

Track Peak [ CRC32 ] [W/O NULL] [ LOG ]
– 97,6 [195B653C] [E053ED3F] CRC32
01 91,3 [B6CFAACF] [3B7776B9]
02 91,2 [12593DC2] [DE080F61]
03 97,6 [6ECEA3D9] [0CAED556]
04 88,7 [A0E8BD87] [3C691D65]
05 92,3 [99F85EF7] [13B6AA05]
06 97,0 [891B4A7A] [6697343A]

Emerson, Lake & Palmer - Emerson, Lake & Palmer (1970)

All thanks go to the original releaser

Emerson, Lake & Palmer in my Blog

Download Emerson, Lake & Palmer - Emerson, Lake & Palmer (1970):