Subcategories

Emerson Lake & Palmer: Collection (1970-1994) [15 SHM-CD, 2010, Japan]

Posted By: v3122
Emerson Lake & Palmer: Collection (1970-1994) [15 SHM-CD, 2010, Japan]

Emerson Lake & Palmer: Collection (1970-1994)
EAC | Flac(Image) + Cue + Log & MP3 CBR 320Kbps
Victor Entertainment, VICP-70148~62 | ~ 5416 or 2354 Mb | Artwork(png) -> 648 Mb
Progressive Rock, Symphonic Rock

Popular English progressive rock group formed by members of The Nice (Keith Emerson), King Crimson (Greg Lake) and Atomic Rooster (Carl Palmer). The band are notable for their classical and jazz influenced compositions, virtuoso musicianship and over-the-top live performances.

~ discogs
Emerson Lake & Palmer: Collection (1970-1994):

Emerson Lake & Palmer: Collection (1970-1994) [15 SHM-CD, 2010, Japan]

Tracklist CD01 - 1970 - Emerson, Lake & Palmer:

01. The Barbarian
02. Take A Pebble
03. Knife Edge
04. The Three Fates
a) Clotho (Rotal Festival Hall Organ)
b) Lachesis (Piano Solo)
c) Atropos (Piano Trio)
05. Tank
06. Lucky Man
Bonus Tracks:
07. The Barbarian (Live At The Isle Of Wight Festival)
08. Take A Pebble (Live At The Isle Of Wight Festival)

Exact Audio Copy V1.0 beta 2 from 29. April 2011

EAC extraction logfile from 13. July 2011, 21:24

Emerson Lake & Palmer / Emerson Lake & Palmer

Used drive : HL-DT-STDVDRAM GSA-H60N Adapter: 2 ID: 0

Read mode : Secure
Utilize accurate stream : Yes
Defeat audio cache : Yes
Make use of C2 pointers : No

Read offset correction : 667
Overread into Lead-In and Lead-Out : No
Fill up missing offset samples with silence : Yes
Delete leading and trailing silent blocks : No
Null samples used in CRC calculations : Yes
Used interface : Native Win32 interface for Win NT & 2000

Used output format : Internal WAV Routines
Sample format : 44.100 Hz; 16 Bit; Stereo


TOC of the extracted CD

Track | Start | Length | Start sector | End sector
––––––––––––––––––––––––––––-
1 | 0:00.00 | 4:35.09 | 0 | 20633
2 | 4:35.09 | 12:38.70 | 20634 | 77553
3 | 17:14.04 | 5:10.35 | 77554 | 100838
4 | 22:24.39 | 7:47.65 | 100839 | 135928
5 | 30:12.29 | 6:53.05 | 135929 | 166908
6 | 37:05.34 | 4:49.39 | 166909 | 188622
7 | 41:54.73 | 5:08.37 | 188623 | 211759
8 | 47:03.35 | 11:53.06 | 211760 | 265240


Range status and errors

Selected range

Filename C:\Documents and Settings\Администратор\Рабочий стол\Rip by ALLexxess\2010 Emerson Lake & Palmer 12 SHM-CD Japan\1970 Emerson Lake & Palmer\Emerson Lake & Palmer - Emerson Lake & Palmer.wav

Peak level 97.9 %
Extraction speed 6.2 X
Range quality 100.0 %
Test CRC DFCB0A81
Copy CRC DFCB0A81
Copy OK

No errors occurred


AccurateRip summary

Track 1 accurately ripped (confidence 2) [350D9B48] (AR v1)
Track 2 accurately ripped (confidence 2) [CE15ADD2] (AR v1)
Track 3 accurately ripped (confidence 2) [73DEECCA] (AR v1)
Track 4 accurately ripped (confidence 2) [DC971E08] (AR v1)
Track 5 accurately ripped (confidence 2) [9F1049B7] (AR v1)
Track 6 accurately ripped (confidence 2) [E6453352] (AR v1)
Track 7 accurately ripped (confidence 2) [5AF3FEB5] (AR v1)
Track 8 accurately ripped (confidence 2) [D971474A] (AR v1)

All tracks accurately ripped

End of status report

==== Log checksum 16B6DDDC0064033413CF57215EDEF55DCFAB9137F3005889AF8B5FED8E1DF58B ====


[CUETools log; Date: 20.12.2018 19:44:03; Version: 2.1.4]
[AccurateRip ID: 0011d081-0076687c-640dd008] found.
Track [ CRC | V2 ] Status
01 [350d9b48|4bd71358] (04+08/17) Accurately ripped
02 [ce15add2|91e4ab28] (04+08/17) Accurately ripped
03 [73deecca|8ffa0883] (04+08/17) Accurately ripped
04 [dc971e08|0d7ce36e] (04+08/17) Accurately ripped
05 [9f1049b7|de46fd92] (04+08/17) Accurately ripped
06 [e6453352|cfe2ca48] (04+08/17) Accurately ripped
07 [5af3feb5|64fec110] (04+08/17) Accurately ripped
08 [d971474a|a1ad60f0] (03+08/16) Accurately ripped
Offsetted by -114:
01 [b83efd18] (00/17) No match (V2 was not tested)
02 [1511a25e] (00/17) No match (V2 was not tested)
03 [c9cb4278] (00/17) No match (V2 was not tested)
04 [79531657] (00/17) No match (V2 was not tested)
05 [ad7af2ca] (00/17) No match (V2 was not tested)
06 [55446868] (00/17) No match (V2 was not tested)
07 [b2b4e0eb] (00/17) No match (V2 was not tested)
08 [fa0d9423] (00/16) No match (V2 was not tested)
Offsetted by 6:
01 [05ba2a58] (00/17) No match (V2 was not tested)
02 [6c086b0e] (00/17) No match (V2 was not tested)
03 [e89c9770] (00/17) No match (V2 was not tested)
04 [7c586dfa] (00/17) No match (V2 was not tested)
05 [22b876ef] (00/17) No match (V2 was not tested)
06 [31453e00] (00/17) No match (V2 was not tested)
07 [08ac642e] (00/17) No match (V2 was not tested)
08 [79144660] (00/16) No match (V2 was not tested)

Track Peak [ CRC32 ] [W/O NULL] [ LOG ]
– 97,9 [DFCB0A81] [4341FF6F] CRC32
01 96,6 [4B22BCC1] [971FF168]
02 96,6 [F0281C15] [19A2BD48]
03 96,6 [0D30D403] [F8B9DF3D]
04 96,6 [7CD4AFEE] [D9D548F0]
05 96,6 [B630BC5D] [DCC00ADD]
06 96,6 [DBD5B8EF] [57FC8769]
07 97,9 [76447321] [6660C57D]
08 97,9 [48351327] [53FAC80D]


Emerson Lake & Palmer: Collection (1970-1994) [15 SHM-CD, 2010, Japan]

Tracklist CD02 - 1971 - Tarkus:

01. Tarkus
a) Eruption
b) Stones Of Years
c) Iconoclast
d) Mass
e) Manticore
f) The Battlefield
g) Aquatarkus
02. Jeremy Bender
03. Bitches Crystal
04. The Only Way (Hymn)
05. Infinite Space (Conclusion)
06. A Time And A Place
07. Are You Ready Eddy?
Bonus Track:
08. Prelude And Fugue

Exact Audio Copy V1.0 beta 2 from 29. April 2011

EAC extraction logfile from 12. July 2011, 23:39

Emerson Lake & Palmer / Tarkus

Used drive : HL-DT-STDVDRAM GSA-H60N Adapter: 2 ID: 0

Read mode : Secure
Utilize accurate stream : Yes
Defeat audio cache : Yes
Make use of C2 pointers : No

Read offset correction : 667
Overread into Lead-In and Lead-Out : No
Fill up missing offset samples with silence : Yes
Delete leading and trailing silent blocks : No
Null samples used in CRC calculations : Yes
Used interface : Native Win32 interface for Win NT & 2000

Used output format : Internal WAV Routines
Sample format : 44.100 Hz; 16 Bit; Stereo


TOC of the extracted CD

Track | Start | Length | Start sector | End sector
––––––––––––––––––––––––––––-
1 | 0:00.00 | 20:52.64 | 0 | 93963
2 | 20:52.64 | 1:48.60 | 93964 | 102123
3 | 22:41.49 | 4:00.25 | 102124 | 120148
4 | 26:41.74 | 3:50.45 | 120149 | 137443
5 | 30:32.44 | 3:21.28 | 137444 | 152546
6 | 33:53.72 | 3:01.35 | 152547 | 166156
7 | 36:55.32 | 2:22.40 | 166157 | 176846
8 | 39:17.72 | 3:17.36 | 176847 | 191657


Range status and errors

Selected range

Filename C:\Documents and Settings\Администратор\Рабочий стол\Rip by ALLexxess\2010 Emerson Lake & Palmer 12 SHM-CD Japan\1971 Tarkus\Emerson Lake & Palmer - Tarkus.wav

Peak level 98.8 %
Extraction speed 5.6 X
Range quality 99.9 %
Test CRC 8B58E3AB
Copy CRC 8B58E3AB
Copy OK

No errors occurred


AccurateRip summary

Track 1 accurately ripped (confidence 2) [4D6ECA0E] (AR v1)
Track 2 accurately ripped (confidence 2) [841E3343] (AR v1)
Track 3 accurately ripped (confidence 2) [D9DFAF70] (AR v1)
Track 4 accurately ripped (confidence 2) [C48656E9] (AR v1)
Track 5 accurately ripped (confidence 2) [8FD65FED] (AR v1)
Track 6 accurately ripped (confidence 2) [0A9543AB] (AR v1)
Track 7 accurately ripped (confidence 2) [2E316859] (AR v1)
Track 8 accurately ripped (confidence 2) [A87257B0] (AR v1)

All tracks accurately ripped

End of status report

==== Log checksum 51B89D02D54A40245F8177D41E5ABE5E8612FB6EB9B621A4E7F9D1F77E93FE90 ====


[CUETools log; Date: 20.12.2018 19:49:53; Version: 2.1.4]
[AccurateRip ID: 0011689a-0068fbc4-5e09fb08] found.
Track [ CRC | V2 ] Status
01 [4d6eca0e|59224179] (05+13/24) Accurately ripped
02 [841e3343|d8232356] (05+13/24) Accurately ripped
03 [d9dfaf70|f8c1cb4c] (05+13/24) Accurately ripped
04 [c48656e9|938074bb] (05+13/24) Accurately ripped
05 [8fd65fed|50cf2776] (05+13/24) Accurately ripped
06 [0a9543ab|403a9a72] (05+13/24) Accurately ripped
07 [2e316859|22973842] (05+13/24) Accurately ripped
08 [a87257b0|2edd5181] (05+13/24) Accurately ripped
Offsetted by -114:
01 [a900869e] (00/24) No match (V2 was not tested)
02 [9f1263cd] (00/24) No match (V2 was not tested)
03 [0e5bb338] (00/24) No match (V2 was not tested)
04 [74289189] (00/24) No match (V2 was not tested)
05 [07202bbb] (00/24) No match (V2 was not tested)
06 [b666f065] (00/24) No match (V2 was not tested)
07 [a5841751] (00/24) No match (V2 was not tested)
08 [e93b3704] (00/24) No match (V2 was not tested)
Offsetted by 6:
01 [561646de] (00/24) No match (V2 was not tested)
02 [246230b5] (00/24) No match (V2 was not tested)
03 [a1377958] (00/24) No match (V2 was not tested)
04 [2eca4107] (00/24) No match (V2 was not tested)
05 [3091b6a5] (00/24) No match (V2 was not tested)
06 [376f480d] (00/24) No match (V2 was not tested)
07 [78c14431] (00/24) No match (V2 was not tested)
08 [daee81d4] (00/24) No match (V2 was not tested)

Track Peak [ CRC32 ] [W/O NULL] [ LOG ]
– 98,8 [8B58E3AB] [50A5BA4B] CRC32
01 96,6 [859E69D9] [2BAD9C78]
02 96,6 [5B59893F] [F507EAAD]
03 96,6 [33B14A79] [E431EB6E]
04 96,6 [DE37522B] [386EC815]
05 96,6 [FEEAE000] [9E722DF7]
06 96,6 [DACA0C45] [3FFCA682]
07 96,6 [CDBA5084] [DD197ABB]
08 98,8 [F5AEAA32] [AA784D7A]


Emerson Lake & Palmer: Collection (1970-1994) [15 SHM-CD, 2010, Japan]

Tracklist CD03 - 1971 - Pictures At An Exhibition:

Pictures At An Exhibition
01. Promenade
02. The Gnome
03. Promenade
04. The Sage
05. The Old Castle
06. Blues Variation
07. Promenade
08. The Hut Of Baba Yaga
09. The Curse Of Baba Yaga
10. The Hut Of Baba Yaga
11. The Great Gates Of Kiev
The End
12. Nutrocker
Bonus Track:
13. Rondo (Live At Lyceum 9/Dec/1970)

Exact Audio Copy V1.0 beta 2 from 29. April 2011

EAC extraction logfile from 13. July 2011, 20:18

Emerson Lake & Palmer / Pictures At An Exhibition

Used drive : HL-DT-STDVDRAM GSA-H60N Adapter: 2 ID: 0

Read mode : Secure
Utilize accurate stream : Yes
Defeat audio cache : Yes
Make use of C2 pointers : No

Read offset correction : 667
Overread into Lead-In and Lead-Out : No
Fill up missing offset samples with silence : Yes
Delete leading and trailing silent blocks : No
Null samples used in CRC calculations : Yes
Used interface : Native Win32 interface for Win NT & 2000

Used output format : Internal WAV Routines
Sample format : 44.100 Hz; 16 Bit; Stereo


TOC of the extracted CD

Track | Start | Length | Start sector | End sector
––––––––––––––––––––––––––––-
1 | 0:00.00 | 1:57.74 | 0 | 8848
2 | 1:57.74 | 4:18.15 | 8849 | 28213
3 | 6:16.14 | 1:23.40 | 28214 | 34478
4 | 7:39.54 | 4:42.05 | 34479 | 55633
5 | 12:21.59 | 2:33.18 | 55634 | 67126
6 | 14:55.02 | 4:23.07 | 67127 | 86858
7 | 19:18.09 | 1:28.43 | 86859 | 93501
8 | 20:46.52 | 1:12.70 | 93502 | 98971
9 | 21:59.47 | 4:10.74 | 98972 | 117795
10 | 26:10.46 | 1:06.63 | 117796 | 122808
11 | 27:17.34 | 6:37.55 | 122809 | 152638
12 | 33:55.14 | 4:35.21 | 152639 | 173284
13 | 38:30.35 | 14:29.40 | 173285 | 238499


Range status and errors

Selected range

Filename C:\Documents and Settings\Администратор\Рабочий стол\Rip by ALLexxess\2010 Emerson Lake & Palmer 12 SHM-CD Japan\1971 Pictures At An Exhibition\Emerson Lake & Palmer - Pictures At An Exhibition.wav

Peak level 98.8 %
Extraction speed 2.0 X
Range quality 100.0 %
Test CRC AAD1CD8D
Copy CRC AAD1CD8D
Copy OK

No errors occurred


AccurateRip summary

Track 1 not present in database
Track 2 not present in database
Track 3 not present in database
Track 4 not present in database
Track 5 not present in database
Track 6 not present in database
Track 7 not present in database
Track 8 not present in database
Track 9 not present in database
Track 10 not present in database
Track 11 not present in database
Track 12 not present in database
Track 13 not present in database

None of the tracks are present in the AccurateRip database

End of status report

==== Log checksum 38F442176DEB1D616354D33449CF7D90BDD75CE5E184595FBABA281C1C95A6A2 ====


[CUETools log; Date: 20.12.2018 19:46:40; Version: 2.1.4]
[AccurateRip ID: 001382c9-00c832c6-a40c6c0d] found.
Track [ CRC | V2 ] Status
01 [c8f6be79|3ae44ee4] (2+6/8) Accurately ripped
02 [6feecb74|8ddbeacc] (2+6/8) Accurately ripped
03 [78f4bdbc|18e0af43] (2+6/8) Accurately ripped
04 [ae7460e8|6696eefc] (2+6/8) Accurately ripped
05 [4c741d47|84a0eda0] (2+6/8) Accurately ripped
06 [4bf31e3a|0770e3b7] (2+6/8) Accurately ripped
07 [9cc922b8|058c5216] (2+6/8) Accurately ripped
08 [9eab50b1|ebe15528] (2+6/8) Accurately ripped
09 [382593bd|77311167] (2+6/8) Accurately ripped
10 [9c195320|fa174a1a] (2+6/8) Accurately ripped
11 [0e700a86|27c56279] (2+6/8) Accurately ripped
12 [afa81281|3d220987] (2+6/8) Accurately ripped
13 [968154c4|02130d77] (2+6/8) Accurately ripped

Track Peak [ CRC32 ] [W/O NULL] [ LOG ]
– 98,8 [AAD1CD8D] [90BED417] CRC32
01 96,6 [2D488686] [A29F245A]
02 96,6 [6C10BD4C] [2F087CAB]
03 25,7 [89DFA7F5] [766CF809]
04 96,4 [1300F09C] [4EC78519]
05 96,6 [AFE57EF1] [09EC78C1]
06 96,6 [95C04704] [BD08070D]
07 96,6 [03A4682B] [56D83AF6]
08 96,6 [D2EE562D] [78EF2D3C]
09 96,6 [1F6BEBD9] [03A48BE2]
10 96,6 [FE898908] [DC108594]
11 96,6 [7B4A7AC0] [17807E73]
12 96,6 [4130C5E4] [BC9D81D4]
13 98,8 [77E0482E] [166E8B9A]


Emerson Lake & Palmer: Collection (1970-1994) [15 SHM-CD, 2010, Japan]

Tracklist CD04 - 1972 - Trilogy:

01. The Endless Enigma (Part One)
02. Fugue
03. The Endless Enigma (Part Two)
04. From The Beginning
05. The Sheriff
06. Hoedown (Taken From Rodeo)
07. Trilogy
08. Living Sin
09. Abaddon's Bolero
Bonus Tracks:
10. Hoedown (Live)
11. Take A Pebble (Live At Mar Y Sol 1972)
12. Abaddon's Bolero (Orchestra Version)

Exact Audio Copy V1.0 beta 2 from 29. April 2011

EAC extraction logfile from 13. July 2011, 17:45

Emerson Lake & Palmer / Trilogy

Used drive : HL-DT-STDVDRAM GSA-H60N Adapter: 2 ID: 0

Read mode : Secure
Utilize accurate stream : Yes
Defeat audio cache : Yes
Make use of C2 pointers : No

Read offset correction : 667
Overread into Lead-In and Lead-Out : No
Fill up missing offset samples with silence : Yes
Delete leading and trailing silent blocks : No
Null samples used in CRC calculations : Yes
Used interface : Native Win32 interface for Win NT & 2000

Used output format : Internal WAV Routines
Sample format : 44.100 Hz; 16 Bit; Stereo


TOC of the extracted CD

Track | Start | Length | Start sector | End sector
––––––––––––––––––––––––––––-
1 | 0:00.00 | 6:39.14 | 0 | 29938
2 | 6:39.14 | 1:56.19 | 29939 | 38657
3 | 8:35.33 | 2:02.11 | 38658 | 47818
4 | 10:37.44 | 4:14.35 | 47819 | 66903
5 | 14:52.04 | 3:21.38 | 66904 | 82016
6 | 18:13.42 | 3:45.00 | 82017 | 98891
7 | 21:58.42 | 8:50.32 | 98892 | 138673
8 | 30:48.74 | 3:10.73 | 138674 | 152996
9 | 33:59.72 | 8:15.70 | 152997 | 190191
10 | 42:15.67 | 4:07.71 | 190192 | 208787
11 | 46:23.63 | 4:51.66 | 208788 | 230678
12 | 51:15.54 | 8:04.64 | 230679 | 267042


Range status and errors

Selected range

Filename C:\Documents and Settings\Администратор\Рабочий стол\Rip by ALLexxess\2010 Emerson Lake & Palmer 12 SHM-CD Japan\1972 Trilogy\Emerson Lake & Palmer - Trilogy.wav

Peak level 98.8 %
Extraction speed 6.2 X
Range quality 100.0 %
Test CRC 180CECFF
Copy CRC 180CECFF
Copy OK

No errors occurred


AccurateRip summary

Track 1 accurately ripped (confidence 4) [3AC9AD4F] (AR v1)
Track 2 accurately ripped (confidence 4) [F6302F5B] (AR v1)
Track 3 accurately ripped (confidence 4) [4D854889] (AR v1)
Track 4 accurately ripped (confidence 4) [597B28CA] (AR v1)
Track 5 accurately ripped (confidence 4) [9247B87B] (AR v1)
Track 6 accurately ripped (confidence 4) [984AF1D8] (AR v1)
Track 7 accurately ripped (confidence 4) [7666E735] (AR v1)
Track 8 accurately ripped (confidence 3) [166112C6] (AR v1)
Track 9 accurately ripped (confidence 4) [07E19482] (AR v1)
Track 10 accurately ripped (confidence 3) [1B7BD170] (AR v1)
Track 11 accurately ripped (confidence 3) [07E44FAB] (AR v1)
Track 12 accurately ripped (confidence 4) [942D91E3] (AR v1)

All tracks accurately ripped

End of status report

==== Log checksum E61E2BCE921930B5907F9258455B6A05542A0C89971F9A8F087E1E22559397A7 ====


[CUETools log; Date: 20.12.2018 19:53:37; Version: 2.1.4]
[AccurateRip ID: 0017b0da-00e1fe1f-9d0de80c] found.
Track [ CRC | V2 ] Status
01 [3ac9ad4f|b46f3a38] (06+08/17) Accurately ripped
02 [f6302f5b|235a5cf0] (06+08/17) Accurately ripped
03 [4d854889|e0c261d5] (06+08/17) Accurately ripped
04 [597b28ca|e4ce83e8] (06+08/17) Accurately ripped
05 [9247b87b|7850b6de] (06+08/17) Accurately ripped
06 [984af1d8|8923bc69] (06+08/17) Accurately ripped
07 [7666e735|401880ad] (06+08/17) Accurately ripped
08 [166112c6|18e0e24b] (05+08/16) Accurately ripped
09 [07e19482|53749b62] (06+08/17) Accurately ripped
10 [1b7bd170|9f036e90] (05+08/16) Accurately ripped
11 [07e44fab|1f283154] (05+08/16) Accurately ripped
12 [942d91e3|806ce2e5] (06+08/17) Accurately ripped
Offsetted by 6:
01 [46869da8] (00/17) No match (V2 was not tested)
02 [3d24676c] (00/17) No match (V2 was not tested)
03 [28aa73d9] (00/17) No match (V2 was not tested)
04 [6253a36a] (00/17) No match (V2 was not tested)
05 [395d6cd9] (00/17) No match (V2 was not tested)
06 [21a15ea2] (00/17) No match (V2 was not tested)
07 [d9355b29] (00/17) No match (V2 was not tested)
08 [7ba7036c] (00/16) No match (V2 was not tested)
09 [88705326] (00/17) No match (V2 was not tested)
10 [2789aa06] (00/16) No match (V2 was not tested)
11 [5f04ba2d] (00/16) No match (V2 was not tested)
12 [0bed7bd3] (00/17) No match (V2 was not tested)

Track Peak [ CRC32 ] [W/O NULL] [ LOG ]
– 98,8 [180CECFF] [97A46E9C] CRC32
01 96,6 [5B9EC992] [BC23AA0E]
02 96,4 [311B31B5] [3CD02DCF]
03 96,6 [EA60F1CF] [AA4778D6]
04 96,6 [6F5AB0BD] [BD5E0ACD]
05 96,6 [EEA97C1F] [9CEE71B4]
06 96,6 [4E2885BD] [8398848F]
07 96,6 [647F5DE4] [30878B02]
08 96,6 [A90E4234] [DBFED90E]
09 96,6 [7F6D6F58] [7B144A8B]
10 98,8 [C83935DB] [F09BAFD8]
11 98,8 [74A08054] [183EA2A5]
12 98,8 [AA53661E] [3CBE59F0]


Emerson Lake & Palmer: Collection (1970-1994) [15 SHM-CD, 2010, Japan]

Tracklist CD5 - 1973 - Brain Salad Surger:

01. Jerusalem
02. Toccata
03. Still… You Turn Me On
04. Benny The Bouncer
05. Karn Evil 9
a) 1st Impression
b) 2nd Impression
c) 3rd Impression
Bonus Tracks:
06. Jerusalem (First Mix)
07. Karn Evil 9 3rd Impression
08. Excerpts From Brain Balad Sugery (From The NME Flex Disc)

Exact Audio Copy V1.0 beta 2 from 29. April 2011

EAC extraction logfile from 12. July 2011, 22:14

Emerson Lake & Palmer / Brain Salad Surgery

Used drive : HL-DT-STDVDRAM GSA-H60N Adapter: 2 ID: 0

Read mode : Secure
Utilize accurate stream : Yes
Defeat audio cache : Yes
Make use of C2 pointers : No

Read offset correction : 667
Overread into Lead-In and Lead-Out : No
Fill up missing offset samples with silence : Yes
Delete leading and trailing silent blocks : No
Null samples used in CRC calculations : Yes
Used interface : Native Win32 interface for Win NT & 2000

Used output format : Internal WAV Routines
Sample format : 44.100 Hz; 16 Bit; Stereo


TOC of the extracted CD

Track | Start | Length | Start sector | End sector
––––––––––––––––––––––––––––-
1 | 0:00.00 | 2:45.00 | 0 | 12374
2 | 2:45.00 | 7:22.47 | 12375 | 45571
3 | 10:07.47 | 2:52.62 | 45572 | 58533
4 | 13:00.34 | 2:21.08 | 58534 | 69116
5 | 15:21.42 | 29:56.18 | 69117 | 203834
6 | 45:17.60 | 2:47.47 | 203835 | 216406
7 | 48:05.32 | 9:10.54 | 216407 | 257710
8 | 57:16.11 | 2:54.00 | 257711 | 270760


Range status and errors

Selected range

Filename C:\Documents and Settings\Администратор\Рабочий стол\Rip by ALLexxess\2010 Emerson Lake & Palmer 12 SHM-CD Japan\1973 Brain Salad Surgery\Emerson Lake & Palmer - Brain Salad Surgery.wav

Peak level 97.9 %
Extraction speed 2.1 X
Range quality 100.0 %
Test CRC E3BA5400
Copy CRC E3BA5400
Copy OK

No errors occurred


AccurateRip summary

Track 1 accurately ripped (confidence 3) [4410DF1B] (AR v1)
Track 2 accurately ripped (confidence 3) [73BE66F1] (AR v1)
Track 3 accurately ripped (confidence 3) [CFC829A7] (AR v1)
Track 4 accurately ripped (confidence 3) [C62FEAF4] (AR v1)
Track 5 accurately ripped (confidence 3) [1D319C26] (AR v1)
Track 6 accurately ripped (confidence 3) [FD941F27] (AR v1)
Track 7 accurately ripped (confidence 3) [B7BBF20C] (AR v1)
Track 8 accurately ripped (confidence 2) [DA90B609] (AR v1)

All tracks accurately ripped

End of status report

==== Log checksum 35B26BE729D5809B830758A691A099AD403E5827568D3B532B30780E4762CF03 ====


[CUETools log; Date: 20.12.2018 19:58:02; Version: 2.1.4]
[AccurateRip ID: 00114ee8-0079ba70-7c0e1a08] found.
Track [ CRC | V2 ] Status
01 [4410df1b|6c05131d] (05+11/20) Accurately ripped
02 [73be66f1|a4680f7b] (05+11/20) Accurately ripped
03 [cfc829a7|8959267b] (05+11/20) Accurately ripped
04 [c62feaf4|ea980c97] (05+11/20) Accurately ripped
05 [1d319c26|00053b9f] (05+11/20) Accurately ripped
06 [fd941f27|15b14d44] (05+11/20) Accurately ripped
07 [b7bbf20c|bfbeff3d] (05+11/20) Accurately ripped
08 [da90b609|0e8df499] (04+11/19) Accurately ripped
Offsetted by -114:
01 [41aac83a] (00/20) No match (V2 was not tested)
02 [73a02e68] (00/20) No match (V2 was not tested)
03 [8eb8ddef] (00/20) No match (V2 was not tested)
04 [ed3b918c] (00/20) No match (V2 was not tested)
05 [a4c5666c] (00/20) No match (V2 was not tested)
06 [99083611] (00/20) No match (V2 was not tested)
07 [b2d847f2] (00/20) No match (V2 was not tested)
08 [359eb6b5] (00/19) No match (V2 was not tested)
Offsetted by 6:
01 [dda067ab] (00/20) No match (V2 was not tested)
02 [1d885db7] (00/20) No match (V2 was not tested)
03 [240c560f] (00/20) No match (V2 was not tested)
04 [14f968ec] (00/20) No match (V2 was not tested)
05 [b7be0ac4] (00/20) No match (V2 was not tested)
06 [da731079] (00/20) No match (V2 was not tested)
07 [08d566ca] (00/20) No match (V2 was not tested)
08 [0baaebe5] (00/19) No match (V2 was not tested)

Track Peak [ CRC32 ] [W/O NULL] [ LOG ]
– 97,9 [E3BA5400] [1AD057B8] CRC32
01 96,6 [2573E28A] [D49727A3]
02 96,6 [9E77B9B9] [71709A40]
03 96,6 [AA1731AC] [9D73CAA5]
04 96,6 [E7404749] [1B86CE38]
05 96,6 [38E2A551] [4D212544]
06 97,9 [BFCFD9D3] [813C359A]
07 97,9 [26CC587D] [AD3B7755]
08 97,9 [07FB4506] [50E64D6E]


Emerson Lake & Palmer: Collection (1970-1994) [15 SHM-CD, 2010, Japan]

Tracklist CD06-07 - 1974 - Welcome Back My Friends To The Show That Never Ends ~ Ladies And Gentlemen:

01. Hoedown (Taken From Rodeo)
02. Jerusalem
03. Toccata (An Adaptation Of Ginastera's 1st Piano Concerto, 4th Movement)
04. Tarkus
a) Eruption
b) Stones Of Years
c) Iconoclast
d) Mass
e) Manticore
f) Battlefield (Including Epitaph)
g) Aquatarkus
05. Take A Pebble (Including Still… You Turn Me On And Lucky Man)

Exact Audio Copy V1.0 beta 2 from 29. April 2011

EAC extraction logfile from 12. July 2011, 19:41

Emerson Lake & Palmer / Welcome Back My Friends To The Show That Never Ends… Ladies And Gentlemen CD1

Used drive : HL-DT-STDVDRAM GSA-H60N Adapter: 2 ID: 0

Read mode : Secure
Utilize accurate stream : Yes
Defeat audio cache : Yes
Make use of C2 pointers : No

Read offset correction : 667
Overread into Lead-In and Lead-Out : No
Fill up missing offset samples with silence : Yes
Delete leading and trailing silent blocks : No
Null samples used in CRC calculations : Yes
Used interface : Native Win32 interface for Win NT & 2000

Used output format : Internal WAV Routines
Sample format : 44.100 Hz; 16 Bit; Stereo


TOC of the extracted CD

Track | Start | Length | Start sector | End sector
––––––––––––––––––––––––––––-
1 | 0:00.00 | 4:54.45 | 0 | 22094
2 | 4:54.45 | 2:51.65 | 22095 | 34984
3 | 7:46.35 | 7:23.03 | 34985 | 68212
4 | 15:09.38 | 27:33.20 | 68213 | 192207
5 | 42:42.58 | 11:06.47 | 192208 | 242204


Range status and errors

Selected range

Filename C:\Documents and Settings\Администратор\Рабочий стол\Rip by ALLexxess\2010 Emerson Lake & Palmer 12 SHM-CD Japan\1974 Welcome Back My Friends\Emerson Lake & Palmer - Welcome Back My Friends CD1.wav

Peak level 96.6 %
Extraction speed 6.0 X
Range quality 99.9 %
Test CRC C6093E0F
Copy CRC C6093E0F
Copy OK

No errors occurred


AccurateRip summary

Track 1 accurately ripped (confidence 9) [A08FDAFA] (AR v1)
Track 2 accurately ripped (confidence 9) [3974E84E] (AR v1)
Track 3 accurately ripped (confidence 9) [42337C98] (AR v1)
Track 4 accurately ripped (confidence 9) [4FFF1A0E] (AR v1)
Track 5 accurately ripped (confidence 9) [2CD71B8C] (AR v1)

All tracks accurately ripped

End of status report

==== Log checksum 2A772094410D01DE976EA6E12B434381DC9C701C1A2F82607824AD03D723667C ====


[CUETools log; Date: 20.12.2018 20:00:05; Version: 2.1.4]
[AccurateRip ID: 00088a5a-002b472c-410c9d05] found.
Track [ CRC | V2 ] Status
01 [a08fdafa|469e813e] (13+19/34) Accurately ripped
02 [3974e84e|7f3970d3] (13+19/34) Accurately ripped
03 [42337c98|687a4801] (12+19/33) Accurately ripped
04 [4fff1a0e|95f15728] (13+19/34) Accurately ripped
05 [2cd71b8c|140c623a] (13+19/34) Accurately ripped
Offsetted by 6:
01 [f5cdc168] (00/34) No match (V2 was not tested)
02 [74b602f8] (00/34) No match (V2 was not tested)
03 [0778b0da] (00/33) No match (V2 was not tested)
04 [37b77d15] (00/34) No match (V2 was not tested)
05 [c18ddbf3] (00/34) No match (V2 was not tested)

Track Peak [ CRC32 ] [W/O NULL] [ LOG ]
– 96,6 [C6093E0F] [DE08B623] CRC32
01 96,6 [F9DF78DE] [3376B0ED]
02 96,6 [B05B3FA6] [9BE65E31]
03 96,6 [6F1C6C52] [94A7B83F]
04 96,6 [8CF60DB9] [430DDF2A]
05 96,6 [DD460714] [2C774D51]


01. Piano Improvisations (Including Friedrich Gulda's 'Fugue' And Joe Sullivan's 'Little Rock Getaway')
02. Take A Pebble (Conclusion)
03. Jeremy Bender / The Sheriff (Medley)
04. Karn Evil 9
a) 1st Impression (Includes Percussion Solo)
b) 2nd Impression
c) 3rd Impression
Bonus Tracks:
05. Still… You Turn Me On (Live At Anaheim 1973/1974)
06. Lucky Man (Live At Anaheim 1973/1974)

Exact Audio Copy V1.0 beta 2 from 29. April 2011

EAC extraction logfile from 12. July 2011, 20:51

Emerson Lake & Palmer / Welcome Back My Friends To The Show That Never Ends CD2

Used drive : HL-DT-STDVDRAM GSA-H60N Adapter: 2 ID: 0

Read mode : Secure
Utilize accurate stream : Yes
Defeat audio cache : Yes
Make use of C2 pointers : No

Read offset correction : 667
Overread into Lead-In and Lead-Out : No
Fill up missing offset samples with silence : Yes
Delete leading and trailing silent blocks : No
Null samples used in CRC calculations : Yes
Used interface : Native Win32 interface for Win NT & 2000

Used output format : Internal WAV Routines
Sample format : 44.100 Hz; 16 Bit; Stereo


TOC of the extracted CD

Track | Start | Length | Start sector | End sector
––––––––––––––––––––––––––––-
1 | 0:00.00 | 11:53.32 | 0 | 53506
2 | 11:53.32 | 3:32.28 | 53507 | 69434
3 | 15:25.60 | 5:04.22 | 69435 | 92256
4 | 20:30.07 | 35:37.30 | 92257 | 252561
5 | 56:07.37 | 3:14.62 | 252562 | 267173
6 | 59:22.24 | 2:44.57 | 267174 | 279530


Range status and errors

Selected range

Filename C:\Documents and Settings\Администратор\Рабочий стол\Rip by ALLexxess\2010 Emerson Lake & Palmer 12 SHM-CD Japan\1974 Welcome Back My Friends\CD2\Emerson Lake & Palmer - Welcome Back My Friends CD2.wav

Peak level 98.8 %
Extraction speed 6.3 X
Range quality 100.0 %
Test CRC BDFAC6D7
Copy CRC BDFAC6D7
Copy OK

No errors occurred


AccurateRip summary

Track 1 accurately ripped (confidence 2) [530184BF] (AR v1)
Track 2 accurately ripped (confidence 2) [A8AD1C4B] (AR v1)
Track 3 accurately ripped (confidence 2) [1B56F72B] (AR v1)
Track 4 accurately ripped (confidence 2) [603A664C] (AR v1)
Track 5 accurately ripped (confidence 2) [641A4E77] (AR v1)
Track 6 accurately ripped (confidence 2) [05BE2F02] (AR v1)

All tracks accurately ripped

End of status report

==== Log checksum 0CE89F6D188BEBB50311233C60E5E1A9DB4A5546339EE474AADFBF5485E2A668 ====


[CUETools log; Date: 20.12.2018 20:02:26; Version: 2.1.4]
[AccurateRip ID: 000f7ac2-00540767-500e8f06] found.
Track [ CRC | V2 ] Status
01 [530184bf|7a3f7b5a] (05+07/12) Accurately ripped
02 [a8ad1c4b|d213564e] (05+07/12) Accurately ripped
03 [1b56f72b|5da51862] (05+07/12) Accurately ripped
04 [603a664c|f9565339] (04+07/11) Accurately ripped
05 [641a4e77|3c71e344] (05+07/12) Accurately ripped
06 [05be2f02|66e75e3e] (05+07/12) Accurately ripped

Track Peak [ CRC32 ] [W/O NULL] [ LOG ]
– 98,8 [BDFAC6D7] [47C79968] CRC32
01 96,6 [73FD4AE1] [14122086]
02 96,6 [D45F8A13] [7A70245F]
03 96,6 [3EA0AE57] [8DB938D6]
04 96,6 [A363C5E8] [2A3948CF]
05 98,8 [BFA639B1] [89DFC2E3]
06 98,8 [37C55610] [3E4FE854]


Emerson Lake & Palmer: Collection (1970-1994) [15 SHM-CD, 2010, Japan]

Tracklist CD8-09 - 1977 Works Volume 1:

Keith Emerson
01. Piano Concerto No. 1
a) First Movement: Allegro Glojoso
b) Second Movement: Andante Molto Cantabile
c) Third Movement: Toccata Con Fuoco
Greg Lake
02. Lend Your Love To Me Tonight
03. C'est La Vie
04. Hallowed Be Thy Name
05. Nobody Loves You Like I Do
06. Closer To Believing

Exact Audio Copy V1.0 beta 2 from 29. April 2011

EAC extraction logfile from 11. July 2011, 22:58

Emerson Lake & Palmer / Works Volume 1 CD1

Used drive : HL-DT-STDVDRAM GSA-H60N Adapter: 2 ID: 0

Read mode : Secure
Utilize accurate stream : Yes
Defeat audio cache : Yes
Make use of C2 pointers : No

Read offset correction : 667
Overread into Lead-In and Lead-Out : No
Fill up missing offset samples with silence : Yes
Delete leading and trailing silent blocks : No
Null samples used in CRC calculations : Yes
Used interface : Native Win32 interface for Win NT & 2000

Used output format : Internal WAV Routines
Sample format : 44.100 Hz; 16 Bit; Stereo


TOC of the extracted CD

Track | Start | Length | Start sector | End sector
––––––––––––––––––––––––––––-
1 | 0:00.00 | 18:28.38 | 0 | 83137
2 | 18:28.38 | 4:05.00 | 83138 | 101512
3 | 22:33.38 | 4:18.37 | 101513 | 120899
4 | 26:52.00 | 4:37.38 | 120900 | 141712
5 | 31:29.38 | 4:00.37 | 141713 | 159749
6 | 35:30.00 | 5:35.40 | 159750 | 184914


Range status and errors

Selected range

Filename C:\Documents and Settings\Администратор\Рабочий стол\Rip by ALLexxess\2010 Emerson Lake & Palmer 12 SHM-CD Japan\1977 Works Volume 1\CD1\Emerson Lake & Palmer - Works Volume 1 CD1.wav

Peak level 97.9 %
Extraction speed 5.7 X
Range quality 100.0 %
Test CRC 89851AAB
Copy CRC 89851AAB
Copy OK

No errors occurred


AccurateRip summary

Track 1 accurately ripped (confidence 5) [F3BF8FA1] (AR v1)
Track 2 accurately ripped (confidence 6) [BD3A51B4] (AR v1)
Track 3 accurately ripped (confidence 6) [B0604C38] (AR v1)
Track 4 accurately ripped (confidence 6) [4E00EEE3] (AR v1)
Track 5 accurately ripped (confidence 6) [26EDEBDD] (AR v1)
Track 6 accurately ripped (confidence 6) [3A345870] (AR v1)

All tracks accurately ripped

End of status report

==== Log checksum 4D436B3E388ADB47E5402F9A060EF5D6EF191B4892E357F1D7E23D5BA7E4B949 ====


[CUETools log; Date: 20.12.2018 20:04:12; Version: 2.1.4]
[AccurateRip ID: 000c1579-003bc06e-3a09a106] found.
Track [ CRC | V2 ] Status
01 [f3bf8fa1|4e3ebebd] (05+17/30) Accurately ripped
02 [bd3a51b4|830d30f5] (06+17/31) Accurately ripped
03 [b0604c38|77106b94] (06+17/33) Accurately ripped
04 [4e00eee3|1194fd01] (06+17/31) Accurately ripped
05 [26edebdd|78503035] (06+17/31) Accurately ripped
06 [3a345870|cd5a33a4] (06+17/31) Accurately ripped
Offsetted by 6:
01 [db5952bf] (00/30) No match (V2 was not tested)
02 [0425ec8c] (00/31) No match (V2 was not tested)
03 [f1bd8f7c] (02/33) Accurately ripped
04 [f3ee1fd7] (00/31) No match (V2 was not tested)
05 [499689f7] (00/31) No match (V2 was not tested)
06 [7fa8255a] (00/31) No match (V2 was not tested)
Offsetted by 12:
01 [c2f315dd] (00/30) No match (V2 was not tested)
02 [4b118764] (00/31) No match (V2 was not tested)
03 [331ad2c0] (00/33) No match (V2 was not tested)
04 [99db50cb] (00/31) No match (V2 was not tested)
05 [6c3f2811] (00/31) No match (V2 was not tested)
06 [c51bf244] (00/31) No match (V2 was not tested)

Track Peak [ CRC32 ] [W/O NULL] [ LOG ]
– 97,9 [89851AAB] [AF0ED2A1] CRC32
01 97,9 [CD570B45] [2F67729A]
02 97,9 [6622062D] [6C546771]
03 97,9 [B11C0D86] [0F6BCED0]
04 97,9 [BDA35789] [69EE8B89]
05 97,9 [B307F62E] [0843FE25]
06 97,9 [38598D6D] [7A23AB05]


Carl Palmer
01. The Enemy God Dances With The Black Spirits (Excerpt From 'The Scythian Suite' 2nd Movement)
02. L.A. Nights
03. New Orleans
04. Two Part Invention In D Minor
05. Food For Your Soul
06. Tank
Emerson Lake & Palmer
07. Fanfare For The Common Ma
08. Pirates
Bonus Tracks:
09. Tank (Live Indiana 24.1.78)
10. The Enemy God Dances With The Black Spirits (Live Indiana 24.1.78)
11. Nutrocker (Live Indiana 24.1.78)

Exact Audio Copy V1.0 beta 2 from 29. April 2011

EAC extraction logfile from 11. July 2011, 23:48

Emerson Lake & Palmer / Works Volume 1 CD2

Used drive : HL-DT-STDVDRAM GSA-H60N Adapter: 2 ID: 0

Read mode : Secure
Utilize accurate stream : Yes
Defeat audio cache : Yes
Make use of C2 pointers : No

Read offset correction : 667
Overread into Lead-In and Lead-Out : No
Fill up missing offset samples with silence : Yes
Delete leading and trailing silent blocks : No
Null samples used in CRC calculations : Yes
Used interface : Native Win32 interface for Win NT & 2000

Used output format : Internal WAV Routines
Sample format : 44.100 Hz; 16 Bit; Stereo


TOC of the extracted CD

Track | Start | Length | Start sector | End sector
––––––––––––––––––––––––––––-
1 | 0:00.00 | 3:21.22 | 0 | 15096
2 | 3:21.22 | 5:44.62 | 15097 | 40958
3 | 9:06.09 | 2:48.40 | 40959 | 53598
4 | 11:54.49 | 1:55.38 | 53599 | 62261
5 | 13:50.12 | 4:02.00 | 62262 | 80411
6 | 17:52.12 | 5:09.37 | 80412 | 103623
7 | 23:01.49 | 9:44.38 | 103624 | 147461
8 | 32:46.12 | 13:29.03 | 147462 | 208139
9 | 46:15.15 | 9:49.15 | 208140 | 252329
10 | 56:04.30 | 3:13.45 | 252330 | 266849
11 | 59:18.00 | 4:20.13 | 266850 | 286362


Range status and errors

Selected range

Filename C:\Documents and Settings\Администратор\Рабочий стол\Rip by ALLexxess\2010 Emerson Lake & Palmer 12 SHM-CD Japan\1977 Works Volume 1\CD2\Emerson Lake & Palmer - Works Volume 1 CD2.wav

Peak level 98.0 %
Extraction speed 6.3 X
Range quality 100.0 %
Test CRC 13830704
Copy CRC 13830704
Copy OK

No errors occurred


AccurateRip summary

Track 1 accurately ripped (confidence 2) [C2672F9F] (AR v1)
Track 2 accurately ripped (confidence 2) [7C542C3E] (AR v1)
Track 3 accurately ripped (confidence 2) [ED782E98] (AR v1)
Track 4 accurately ripped (confidence 2) [258D9270] (AR v1)
Track 5 accurately ripped (confidence 2) [4151D631] (AR v1)
Track 6 accurately ripped (confidence 2) [7122E765] (AR v1)
Track 7 accurately ripped (confidence 2) [447BABC0] (AR v1)
Track 8 accurately ripped (confidence 2) [1B46E577] (AR v1)
Track 9 accurately ripped (confidence 1) [35C64151] (AR v1)
Track 10 accurately ripped (confidence 1) [D3341641] (AR v1)
Track 11 accurately ripped (confidence 1) [C74F9A08] (AR v1)

All tracks accurately ripped

End of status report

==== Log checksum BC727DC1B89D2F8A9D26504300A28F1D172ABC28443F310D3A362891B98F0594 ====


[CUETools log; Date: 20.12.2018 20:06:54; Version: 2.1.4]
[AccurateRip ID: 0017262a-00d31954-9d0eea0b] found.
Track [ CRC | V2 ] Status
01 [c2672f9f|d9f360b5] (2+5/9) Accurately ripped
02 [7c542c3e|526e4be8] (2+5/9) Accurately ripped
03 [ed782e98|2c3aa157] (2+5/9) Accurately ripped
04 [258d9270|3ac3c69e] (2+5/9) Accurately ripped
05 [4151d631|d981b116] (2+5/9) Accurately ripped
06 [7122e765|948621a3] (2+5/9) Accurately ripped
07 [447babc0|7756c4a2] (2+5/9) Accurately ripped
08 [1b46e577|24254934] (2+5/9) Accurately ripped
09 [35c64151|df9bae8f] (0+6/8) Accurately ripped
10 [d3341641|2563bfa0] (0+6/8) Accurately ripped
11 [c74f9a08|766789f3] (0+6/8) Accurately ripped
Offsetted by 6:
01 [67b02480] (0/9) No match (V2 was not tested)
02 [b074943e] (0/9) No match (V2 was not tested)
03 [975b7536] (0/9) No match (V2 was not tested)
04 [4bdb3000] (0/9) No match (V2 was not tested)
05 [fc18d06b] (0/9) No match (V2 was not tested)
06 [be2dcf51] (0/9) No match (V2 was not tested)
07 [0b6434c8] (0/9) No match (V2 was not tested)
08 [65046ad1] (0/9) No match (V2 was not tested)
09 [46ae0b79] (0/8) No match (V2 was not tested)
10 [0dbb1c78] (0/8) No match (V2 was not tested)
11 [d7a9910c] (0/8) No match (V2 was not tested)

Track Peak [ CRC32 ] [W/O NULL] [ LOG ]
– 97,9 [13830704] [E0C18C2D] CRC32
01 97,9 [755D83FD] [C84FCC04]
02 97,9 [7953684E] [74D1CE15]
03 97,9 [DA9E769F] [6F605B34]
04 94,0 [F0C38E46] [55AAB1D5]
05 97,9 [8A6BB5E1] [3489E975]
06 97,9 [1A1B3BF9] [EA35524A]
07 97,9 [E0520960] [E37888A4]
08 97,9 [50B47CFC] [D139AC61]
09 97,9 [52FF06D3] [B03E1E35]
10 97,9 [1EFD479C] [E3D9ECEA]
11 97,9 [DBFA0FE6] [B4274A41]


Emerson Lake & Palmer: Collection (1970-1994) [15 SHM-CD, 2010, Japan]

Tracklist CD10 - 1977 - Works Volume 2:

01. Tiger In A Spotlight
02. When The Apple Blossoms Bloom In The Windmills Of Your Mind I'll Be Your Valentine
03. Bullfrog
04. Brain Salad Surgery
05. Barrelhouse Shake-Down
06. Watching Over You
07. So Far To Fall
08. Maple Leaf Rag
Keith Emerson with the London Philharmonic Orchestra
09. I Believe In Father Christmas
10. Close But Not Touching
11. Honky Tonk Train Blues
12. Show Me The Way To Go Home
Bonus Tracks:
13. Bo Diddley
14. Humbug
15. The Pancha Suite

Exact Audio Copy V1.0 beta 2 from 29. April 2011

EAC extraction logfile from 12. July 2011, 17:30

Emerson Lake & Palmer / Works Volume 2

Used drive : HL-DT-STDVDRAM GSA-H60N Adapter: 2 ID: 0

Read mode : Secure
Utilize accurate stream : Yes
Defeat audio cache : Yes
Make use of C2 pointers : No

Read offset correction : 667
Overread into Lead-In and Lead-Out : No
Fill up missing offset samples with silence : Yes
Delete leading and trailing silent blocks : No
Null samples used in CRC calculations : Yes
Used interface : Native Win32 interface for Win NT & 2000

Used output format : Internal WAV Routines
Sample format : 44.100 Hz; 16 Bit; Stereo


TOC of the extracted CD

Track | Start | Length | Start sector | End sector
––––––––––––––––––––––––––––-
1 | 0:00.00 | 4:35.49 | 0 | 20673
2 | 4:35.49 | 3:58.00 | 20674 | 38523
3 | 8:33.49 | 3:51.38 | 38524 | 55886
4 | 12:25.12 | 3:09.37 | 55887 | 70098
5 | 15:34.49 | 3:53.00 | 70099 | 87573
6 | 19:27.49 | 3:57.73 | 87574 | 105421
7 | 23:25.47 | 4:57.40 | 105422 | 127736
8 | 28:23.12 | 2:02.00 | 127737 | 136886
9 | 30:25.12 | 3:20.00 | 136887 | 151886
10 | 33:45.12 | 3:23.37 | 151887 | 167148
11 | 37:08.49 | 3:12.00 | 167149 | 181548
12 | 40:20.49 | 3:40.65 | 181549 | 198113
13 | 44:01.39 | 5:06.27 | 198114 | 221090
14 | 49:07.66 | 2:30.74 | 221091 | 232414
15 | 51:38.65 | 2:54.53 | 232415 | 245517


Range status and errors

Selected range

Filename C:\Documents and Settings\Администратор\Рабочий стол\Rip by ALLexxess\2010 Emerson Lake & Palmer 12 SHM-CD Japan\1977 Works Volume 2\Emerson Lake & Palmer - Works Volume 2.wav

Peak level 99.9 %
Extraction speed 6.1 X
Range quality 100.0 %
Test CRC BEE346AE
Copy CRC BEE346AE
Copy OK

No errors occurred


AccurateRip summary

Track 1 accurately ripped (confidence 3) [0E7A5E70] (AR v1)
Track 2 accurately ripped (confidence 3) [3920FAA4] (AR v1)
Track 3 accurately ripped (confidence 3) [EC6B390D] (AR v1)
Track 4 accurately ripped (confidence 3) [CE796C63] (AR v1)
Track 5 accurately ripped (confidence 3) [3A5ACED2] (AR v1)
Track 6 accurately ripped (confidence 3) [16A15A9D] (AR v1)
Track 7 accurately ripped (confidence 3) [6AC62494] (AR v1)
Track 8 accurately ripped (confidence 3) [126F0A40] (AR v1)
Track 9 accurately ripped (confidence 3) [BDAE6BCC] (AR v1)
Track 10 accurately ripped (confidence 3) [48566DD3] (AR v1)
Track 11 accurately ripped (confidence 3) [92DB116A] (AR v1)
Track 12 accurately ripped (confidence 3) [64232B1C] (AR v1)
Track 13 accurately ripped (confidence 3) [4C5D3107] (AR v1)
Track 14 accurately ripped (confidence 3) [28B3349F] (AR v1)
Track 15 accurately ripped (confidence 3) [81C84089] (AR v1)

All tracks accurately ripped

End of status report

==== Log checksum AD734B3505E95EB084D6C382B9F7A24663B77A6653D0DFC7C0987D4E5EA6CB34 ====


[CUETools log; Date: 20.12.2018 20:19:39; Version: 2.1.4]
[AccurateRip ID: 001f22cf-015cf667-c40cc90f] found.
Track [ CRC | V2 ] Status
01 [0e7a5e70|9728805f] (05+05/12) Accurately ripped
02 [3920faa4|11a7bbc9] (05+05/12) Accurately ripped
03 [ec6b390d|9c855771] (05+05/12) Accurately ripped
04 [ce796c63|f05917a4] (05+05/12) Accurately ripped
05 [3a5aced2|697ba001] (05+05/12) Accurately ripped
06 [16a15a9d|1ca59c64] (05+05/12) Accurately ripped
07 [6ac62494|eab6d9de] (05+05/12) Accurately ripped
08 [126f0a40|1750d2e3] (05+05/12) Accurately ripped
09 [bdae6bcc|22ca2cc1] (05+05/12) Accurately ripped
10 [48566dd3|a4feca02] (05+05/12) Accurately ripped
11 [92db116a|6608653a] (05+05/12) Accurately ripped
12 [64232b1c|5a0b8d22] (05+05/12) Accurately ripped
13 [4c5d3107|d0d276d5] (05+05/12) Accurately ripped
14 [28b3349f|5e40439b] (05+05/12) Accurately ripped
15 [81c84089|f63de4bd] (05+05/12) Accurately ripped
Offsetted by 6:
01 [87463427] (00/12) No match (V2 was not tested)
02 [67baef3c] (00/12) No match (V2 was not tested)
03 [299cb252] (00/12) No match (V2 was not tested)
04 [031cc099] (00/12) No match (V2 was not tested)
05 [5957685f] (00/12) No match (V2 was not tested)
06 [53ff94da] (00/12) No match (V2 was not tested)
07 [8f59919b] (00/12) No match (V2 was not tested)
08 [b47d4713] (00/12) No match (V2 was not tested)
09 [00119577] (00/12) No match (V2 was not tested)
10 [fec8860d] (00/12) No match (V2 was not tested)
11 [864d41ab] (00/12) No match (V2 was not tested)
12 [880ab7f7] (00/12) No match (V2 was not tested)
13 [62c05eaf] (00/12) No match (V2 was not tested)
14 [1b9af10b] (00/12) No match (V2 was not tested)
15 [edffe1d0] (00/12) No match (V2 was not tested)

Track Peak [ CRC32 ] [W/O NULL] [ LOG ]
– 99,9 [BEE346AE] [09B58F00] CRC32
01 96,6 [E3AD35C4] [59D40258]
02 96,6 [7508632F] [09BE67D8]
03 96,6 [A4FB0767] [963B9882]
04 96,6 [018229A1] [395D4D8B]
05 96,6 [F2190AB2] [C565B580]
06 96,6 [D5194F78] [34FE076F]
07 96,6 [1CFCED7B] [4FFD147D]
08 96,6 [9DD2F80A] [26756AA6]
09 96,6 [7E4D79AB] [34047FA3]
10 96,6 [15D27A15] [3AC59279]
11 96,6 [F6A7F3D6] [C9360D50]
12 96,6 [B39403AF] [3606431B]
13 99,8 [24D8B3E8] [A2C676F6]
14 99,9 [DB830BD7] [1D6AAE52]
15 99,8 [A5758E1D] [4C1C0958]


Emerson Lake & Palmer: Collection (1970-1994) [15 SHM-CD, 2010, Japan]

Tracklist CD11 - 1978 - Love Beach:

01. All I Want Is You
02. Love Beach
03. Taste Of My Love
04. The Gambler
05. For You
06. Canario (From Fantasia Para Un Gentilhombre)
07. Memoirs Of An Officer And A Gentleman
a) Prologue / The Education Of A Gentleman
b) Love At First Sight
c) Letters From The Front
d) Honourable Company (A March)
Bonus Tracks:
08. Canario (Rehearsal 1978)
09. Taste Of My Love (Rehearsal 1978)
10. Letters From The Front (Rehearsal 1978)

Exact Audio Copy V1.0 beta 2 from 29. April 2011

EAC extraction logfile from 11. July 2011, 22:03

Emerson Lake & Palmer / Love Beach

Used drive : HL-DT-STDVDRAM GSA-H60N Adapter: 2 ID: 0

Read mode : Secure
Utilize accurate stream : Yes
Defeat audio cache : Yes
Make use of C2 pointers : No

Read offset correction : 667
Overread into Lead-In and Lead-Out : No
Fill up missing offset samples with silence : Yes
Delete leading and trailing silent blocks : No
Null samples used in CRC calculations : Yes
Used interface : Native Win32 interface for Win NT & 2000

Used output format : Internal WAV Routines
Sample format : 44.100 Hz; 16 Bit; Stereo


TOC of the extracted CD

Track | Start | Length | Start sector | End sector
––––––––––––––––––––––––––––-
1 | 0:00.00 | 2:35.49 | 0 | 11673
2 | 2:35.49 | 2:46.00 | 11674 | 24123
3 | 5:21.49 | 3:33.00 | 24124 | 40098
4 | 8:54.49 | 3:23.00 | 40099 | 55323
5 | 12:17.49 | 4:28.00 | 55324 | 75423
6 | 16:45.49 | 4:00.00 | 75424 | 93423
7 | 20:45.49 | 20:24.11 | 93424 | 185234
8 | 41:09.60 | 4:38.55 | 185235 | 206139
9 | 45:48.40 | 3:01.38 | 206140 | 219752
10 | 48:50.03 | 8:54.46 | 219753 | 259848


Range status and errors

Selected range

Filename C:\Documents and Settings\Администратор\Рабочий стол\Rip by ALLexxess\2010 Emerson Lake & Palmer 12 SHM-CD Japan\1978 Love Beach\Emerson Lake & Palmer - Love Beach.wav

Peak level 97.9 %
Extraction speed 6.1 X
Range quality 100.0 %
Test CRC 2E93CC41
Copy CRC 2E93CC41
Copy OK

No errors occurred


AccurateRip summary

Track 1 accurately ripped (confidence 2) [B33013FC] (AR v1)
Track 2 accurately ripped (confidence 2) [C6B8DD47] (AR v1)
Track 3 accurately ripped (confidence 2) [E1BE67D7] (AR v1)
Track 4 accurately ripped (confidence 2) [532CDD97] (AR v1)
Track 5 accurately ripped (confidence 2) [798DD8AA] (AR v1)
Track 6 accurately ripped (confidence 2) [483E15E3] (AR v1)
Track 7 accurately ripped (confidence 2) [CC62BE96] (AR v1)
Track 8 accurately ripped (confidence 2) [4B7A6180] (AR v1)
Track 9 accurately ripped (confidence 2) [39BEEF23] (AR v1)
Track 10 accurately ripped (confidence 2) [AE2A5B02] (AR v1)

All tracks accurately ripped

End of status report

==== Log checksum 4A654F6E2D0DCDB71A57330C2A911E5310A523C20AFFC13061541C35B9A1B447 ====


[CUETools log; Date: 20.12.2018 20:22:38; Version: 2.1.4]
[AccurateRip ID: 0011de66-00991482-7a0d880a] found.
Track [ CRC | V2 ] Status
01 [b33013fc|a35a882f] (2+4/8) Accurately ripped
02 [c6b8dd47|36f55551] (2+4/8) Accurately ripped
03 [e1be67d7|295baca5] (2+4/8) Accurately ripped
04 [532cdd97|af350206] (2+4/8) Accurately ripped
05 [798dd8aa|2316a987] (2+4/8) Accurately ripped
06 [483e15e3|4ccfc749] (2+4/8) Accurately ripped
07 [cc62be96|5ff010e5] (2+4/8) Accurately ripped
08 [4b7a6180|32039d21] (2+4/8) Accurately ripped
09 [39beef23|20768f37] (2+4/8) Accurately ripped
10 [ae2a5b02|9655397a] (2+4/8) Accurately ripped
Offsetted by 6:
01 [ba71d3be] (0/8) No match (V2 was not tested)
02 [2686c7eb] (0/8) No match (V2 was not tested)
03 [c05bbd83] (0/8) No match (V2 was not tested)
04 [d00acf19] (0/8) No match (V2 was not tested)
05 [0d8e81f6] (0/8) No match (V2 was not tested)
06 [ab387f05] (0/8) No match (V2 was not tested)
07 [2487272a] (0/8) No match (V2 was not tested)
08 [c73bb9e0] (0/8) No match (V2 was not tested)
09 [9dffe5d2] (0/8) No match (V2 was not tested)
10 [d0016d59] (0/8) No match (V2 was not tested)

Track Peak [ CRC32 ] [W/O NULL] [ LOG ]
– 97,9 [2E93CC41] [5528F3FB] CRC32
01 96,6 [1ABB955F] [171D14BA]
02 96,6 [E4E8B91A] [0DD9EE7E]
03 96,6 [C8D4172E] [01A7D7A7]
04 96,6 [697F6387] [DBD62CF8]
05 96,6 [A4B2D7BE] [69DA5C32]
06 96,6 [B18919E8] [5A0C4F4D]
07 96,6 [6824DD21] [6550D7DF]
08 97,9 [523E1346] [F3DA0692]
09 97,9 [74B384DD] [8C8EECE7]
10 97,9 [5B5716CA] [5B942CA6]


Emerson Lake & Palmer: Collection (1970-1994) [15 SHM-CD, 2010, Japan]

Tracklist CD12 - 1992 - Black Moon:

01. Black Moon
02. Paper Blood
03. Affairs Of The Heart
04. Romeo And Juliet
05. Farewell To Arms
06. Changing States
07. Burning Bridges
08. Close To Home
09. Better Days
10. Footprints In The Snow
Bonus Track:
11. A Blade Of Grass

Exact Audio Copy V1.0 beta 2 from 29. April 2011

EAC extraction logfile from 11. July 2011, 18:15

Emerson, Lake & Palmer / Black Moon

Used drive : HL-DT-STDVDRAM GSA-H60N Adapter: 2 ID: 0

Read mode : Secure
Utilize accurate stream : Yes
Defeat audio cache : Yes
Make use of C2 pointers : No

Read offset correction : 667
Overread into Lead-In and Lead-Out : No
Fill up missing offset samples with silence : Yes
Delete leading and trailing silent blocks : No
Null samples used in CRC calculations : Yes
Used interface : Native Win32 interface for Win NT & 2000

Used output format : Internal WAV Routines
Sample format : 44.100 Hz; 16 Bit; Stereo


TOC of the extracted CD

Track | Start | Length | Start sector | End sector
––––––––––––––––––––––––––––-
1 | 0:00.00 | 6:59.47 | 0 | 31471
2 | 6:59.47 | 4:28.58 | 31472 | 51629
3 | 11:28.30 | 3:47.02 | 51630 | 68656
4 | 15:15.32 | 3:42.63 | 68657 | 85369
5 | 18:58.20 | 5:10.20 | 85370 | 108639
6 | 24:08.40 | 6:02.55 | 108640 | 135844
7 | 30:11.20 | 4:45.37 | 135845 | 157256
8 | 34:56.57 | 4:28.73 | 157257 | 177429
9 | 39:25.55 | 5:36.30 | 177430 | 202659
10 | 45:02.10 | 3:55.47 | 202660 | 220331
11 | 48:57.57 | 2:14.38 | 220332 | 230419


Range status and errors

Selected range

Filename C:\Documents and Settings\Администратор\Рабочий стол\Rip by ALLexxess\2010 Emerson Lake & Palmer 12 SHM-CD Japan\1992 Black Moon\Emerson, Lake & Palmer - Black Moon.wav

Peak level 100.0 %
Extraction speed 5.7 X
Range quality 100.0 %
Test CRC 4C908671
Copy CRC 4C908671
Copy OK

No errors occurred


AccurateRip summary

Track 1 accurately ripped (confidence 2) [4D6D9A66] (AR v1)
Track 2 cannot be verified as accurate (confidence 2) [EB96F624], AccurateRip returned [8AFD914B] (AR v2)
Track 3 accurately ripped (confidence 2) [54A5CD91] (AR v1)
Track 4 accurately ripped (confidence 2) [94DD1AC9] (AR v1)
Track 5 accurately ripped (confidence 2) [3E3E8F5C] (AR v1)
Track 6 accurately ripped (confidence 2) [FF0A738B] (AR v1)
Track 7 accurately ripped (confidence 2) [D718F9F8] (AR v1)
Track 8 accurately ripped (confidence 2) [C48D3896] (AR v1)
Track 9 accurately ripped (confidence 2) [0541995C] (AR v1)
Track 10 accurately ripped (confidence 2) [800AF52A] (AR v1)
Track 11 accurately ripped (confidence 2) [4BBB77AF] (AR v1)

10 track(s) accurately ripped
1 track(s) could not be verified as accurate

Some tracks could not be verified as accurate

End of status report

==== Log checksum C5EBF592BC5BC5E9D4D8568B707F57FF3832E39F04B116BB80F8F937888DA358 ====


[CUETools log; Date: 20.12.2018 20:25:10; Version: 2.1.4]
[AccurateRip ID: 00166d11-00c0249e-8f0c000b] found.
Track [ CRC | V2 ] Status
01 [4d6d9a66|ee8505b8] (4+3/9) Accurately ripped
02 [8b5a9158|eb96f624] (0+2/5) Accurately ripped
03 [54a5cd91|2eb5c735] (4+3/9) Accurately ripped
04 [94dd1ac9|fbeae769] (4+3/9) Accurately ripped
05 [3e3e8f5c|108363e8] (4+3/9) Accurately ripped
06 [ff0a738b|7bef8228] (4+3/9) Accurately ripped
07 [d718f9f8|cf5d714f] (4+3/9) Accurately ripped
08 [c48d3896|f7cda85e] (4+3/9) Accurately ripped
09 [0541995c|5dcaf9ba] (4+3/9) Accurately ripped
10 [800af52a|d95ce179] (4+3/9) Accurately ripped
11 [4bbb77af|70e79ea8] (4+3/9) Accurately ripped
Offsetted by 6:
01 [2d579a66] (0/9) No match (V2 was not tested)
02 [4f109158] (0/5) No match (V2 was not tested)
03 [a921d73b] (0/9) No match (V2 was not tested)
04 [bc5e4bcf] (0/9) No match (V2 was not tested)
05 [dad88f5c] (0/9) No match (V2 was not tested)
06 [a279f100] (0/9) No match (V2 was not tested)
07 [b9fca1c9] (0/9) No match (V2 was not tested)
08 [3df3a4a2] (0/9) No match (V2 was not tested)
09 [f1072d50] (0/9) No match (V2 was not tested)
10 [5ca8353c] (0/9) No match (V2 was not tested)
11 [c36d2205] (0/9) No match (V2 was not tested)

Track Peak [ CRC32 ] [W/O NULL] [ LOG ]
– 100,0 [4C908671] [624975F8] CRC32
01 100,0 [45FFA965] [6D10C697]
02 100,0 [5E171428] [E7E5EB4A]
03 59,9 [3035E74F] [88B0FC5C]
04 92,2 [FE739F8F] [AEA614B5]
05 100,0 [4544BA18] [FF36FCEF]
06 100,0 [B6B3D37B] [BCE54C30]
07 100,0 [6B263DFC] [5A7B6B41]
08 75,2 [301E8E99] [925B1AEF]
09 100,0 [3EB3F6F4] [C3CC8316]
10 59,7 [4310ABC4] [5BE85F36]
11 99,9 [A040D266] [DB1BD057]


Emerson Lake & Palmer: Collection (1970-1994) [15 SHM-CD, 2010, Japan]

Tracklist CD13-14 - 1993 - Works Live:

01. Introductory Fanfare
02. Peter Gunn
03. Tiger In A Spotlight
04. C'est La Vie
05. Watching Over You
06. Maple Leaf Rag
07. The Enemy God Dances With The Black Spirits (Excerpt From ’The Scythian Suite’ 2nd Movement)
08. Fanfare For The Common Man
09. Knife Edge
10. Show Me The Way To Go Home

Exact Audio Copy V1.0 beta 2 from 29. April 2011

EAC extraction logfile from 11. July 2011, 20:15

Emerson Lake & Palmer / Works Live CD1

Used drive : HL-DT-STDVDRAM GSA-H60N Adapter: 2 ID: 0

Read mode : Secure
Utilize accurate stream : Yes
Defeat audio cache : Yes
Make use of C2 pointers : No

Read offset correction : 667
Overread into Lead-In and Lead-Out : No
Fill up missing offset samples with silence : Yes
Delete leading and trailing silent blocks : No
Null samples used in CRC calculations : Yes
Used interface : Native Win32 interface for Win NT & 2000

Used output format : Internal WAV Routines
Sample format : 44.100 Hz; 16 Bit; Stereo


TOC of the extracted CD

Track | Start | Length | Start sector | End sector
––––––––––––––––––––––––––––-
1 | 0:00.00 | 0:52.08 | 0 | 3907
2 | 0:52.08 | 3:34.37 | 3908 | 19994
3 | 4:26.45 | 4:08.74 | 19995 | 38668
4 | 8:35.44 | 4:14.30 | 38669 | 57748
5 | 12:49.74 | 3:59.21 | 57749 | 75694
6 | 16:49.20 | 1:14.27 | 75695 | 81271
7 | 18:03.47 | 2:46.51 | 81272 | 93772
8 | 20:50.23 | 10:55.55 | 93773 | 142952
9 | 31:46.03 | 5:03.39 | 142953 | 165716
10 | 36:49.42 | 4:22.55 | 165717 | 185421


Range status and errors

Selected range

Filename C:\Documents and Settings\Администратор\Рабочий стол\Rip by ALLexxess\2010 Emerson Lake & Palmer 12 SHM-CD Japan\1993 Works Live\CD1\Emerson Lake & Palmer - Works Live CD1.wav

Peak level 100.0 %
Extraction speed 5.7 X
Range quality 100.0 %
Test CRC 97D0F8B2
Copy CRC 97D0F8B2
Copy OK

No errors occurred


AccurateRip summary

Track 1 accurately ripped (confidence 1) [E5A9161F] (AR v1)
Track 2 accurately ripped (confidence 1) [DF8972C8] (AR v1)
Track 3 accurately ripped (confidence 1) [6361E8C3] (AR v1)
Track 4 accurately ripped (confidence 1) [8D69BF93] (AR v1)
Track 5 accurately ripped (confidence 1) [1BCD762F] (AR v1)
Track 6 accurately ripped (confidence 1) [6F32DF6F] (AR v1)
Track 7 accurately ripped (confidence 1) [A7271C73] (AR v1)
Track 8 accurately ripped (confidence 1) [D2D6DBDB] (AR v1)
Track 9 accurately ripped (confidence 1) [2A5D6599] (AR v1)
Track 10 accurately ripped (confidence 1) [CEF36972] (AR v1)

All tracks accurately ripped

End of status report

==== Log checksum C34C6D30AA46C1C3757BCACB149DF1E0BC85E737D1AE1A8A199FB5ED9EC78167 ====


[CUETools log; Date: 20.12.2018 20:27:07; Version: 2.1.4]
[AccurateRip ID: 000d3381-006ee61e-6a09a80a] found.
Track [ CRC | V2 ] Status
01 [e5a9161f|3c89c1e3] (2+4/9) Accurately ripped
02 [df8972c8|98e99abe] (2+4/9) Accurately ripped
03 [6361e8c3|c427ae61] (2+4/9) Accurately ripped
04 [8d69bf93|8e277689] (2+4/9) Accurately ripped
05 [1bcd762f|30711f8e] (2+4/9) Accurately ripped
06 [6f32df6f|19a3cc72] (2+4/9) Accurately ripped
07 [a7271c73|98ebc922] (2+4/9) Accurately ripped
08 [d2d6dbdb|9d992f4e] (2+4/9) Accurately ripped
09 [2a5d6599|5a612340] (2+4/9) Accurately ripped
10 [cef36972|b7238f01] (2+4/9) Accurately ripped
Offsetted by 6:
01 [0a2548bd] (0/9) No match (V2 was not tested)
02 [a5e3b25e] (0/9) No match (V2 was not tested)
03 [34c0e039] (0/9) No match (V2 was not tested)
04 [9af9ffe4] (0/9) No match (V2 was not tested)
05 [b1f9cd8c] (0/9) No match (V2 was not tested)
06 [1cef1d11] (0/9) No match (V2 was not tested)
07 [7cd44382] (0/9) No match (V2 was not tested)
08 [1b52c931] (0/9) No match (V2 was not tested)
09 [428e8bab] (0/9) No match (V2 was not tested)
10 [882d9e0f] (0/9) No match (V2 was not tested)

Track Peak [ CRC32 ] [W/O NULL] [ LOG ]
– 100,0 [97D0F8B2] [7717EC2C] CRC32
01 99,7 [7650DDA8] [D2D795E9]
02 100,0 [8F525324] [D788FE69]
03 100,0 [A6A68859] [8D9CD33B]
04 100,0 [7C58092F] [19B69277]
05 99,9 [37377344] [73B8DAAD]
06 98,9 [456E9CB9] [9519BFDB]
07 100,0 [672A45C8] [C834D642]
08 100,0 [347EBC7B] [2DEC69AD]
09 100,0 [98BDC37C] [9D45A76E]
10 100,0 [F9CB99C2] [0CFC82D9]


01. Abaddon's Bolero
02. Pictures At An Exhibition
03. Closer To Believing
04. Piano Concerto No. 1 (Third Movement: Toccata Con Fuoco)
05. Tank

Exact Audio Copy V1.0 beta 2 from 29. April 2011

EAC extraction logfile from 11. July 2011, 21:04

Emerson Lake & Palmer / Works Live CD2

Used drive : HL-DT-STDVDRAM GSA-H60N Adapter: 2 ID: 0

Read mode : Secure
Utilize accurate stream : Yes
Defeat audio cache : Yes
Make use of C2 pointers : No

Read offset correction : 667
Overread into Lead-In and Lead-Out : No
Fill up missing offset samples with silence : Yes
Delete leading and trailing silent blocks : No
Null samples used in CRC calculations : Yes
Used interface : Native Win32 interface for Win NT & 2000

Used output format : Internal WAV Routines
Sample format : 44.100 Hz; 16 Bit; Stereo


TOC of the extracted CD

Track | Start | Length | Start sector | End sector
––––––––––––––––––––––––––––-
1 | 0:00.00 | 6:03.61 | 0 | 27285
2 | 6:03.61 | 15:43.03 | 27286 | 98013
3 | 21:46.64 | 5:29.35 | 98014 | 122723
4 | 27:16.24 | 6:41.64 | 122724 | 152862
5 | 33:58.13 | 12:40.19 | 152863 | 209881


Range status and errors

Selected range

Filename C:\Documents and Settings\Администратор\Рабочий стол\Rip by ALLexxess\2010 Emerson Lake & Palmer 12 SHM-CD Japan\1993 Works Live\CD2\Emerson Lake & Palmer - Works Live CD2.wav

Peak level 100.0 %
Extraction speed 5.7 X
Range quality 99.9 %
Test CRC 0E88BF8C
Copy CRC 0E88BF8C
Copy OK

No errors occurred


AccurateRip summary

Track 1 accurately ripped (confidence 1) [DF418453] (AR v1)
Track 2 accurately ripped (confidence 1) [1041B3B5] (AR v1)
Track 3 accurately ripped (confidence 1) [0509FE9F] (AR v1)
Track 4 accurately ripped (confidence 1) [A58A4AE8] (AR v1)
Track 5 accurately ripped (confidence 1) [DE252230] (AR v1)

All tracks accurately ripped

End of status report

==== Log checksum 234F7DE54B10A86369DD9DB4D877B938839C38A55B2A59E5D4882B9971FFBDF4 ====


[CUETools log; Date: 20.12.2018 20:29:28; Version: 2.1.4]
[AccurateRip ID: 000951d1-002bb00e-340aee05] found.
Track [ CRC | V2 ] Status
01 [df418453|6956e09e] (2+4/9) Accurately ripped
02 [1041b3b5|348b9066] (2+4/9) Accurately ripped
03 [0509fe9f|ec67d792] (2+4/9) Accurately ripped
04 [a58a4ae8|a37f9494] (2+4/9) Accurately ripped
05 [de252230|7a349b92] (2+4/9) Accurately ripped
Offsetted by 6:
01 [97acb4fd] (0/9) No match (V2 was not tested)
02 [24e68a5b] (0/9) No match (V2 was not tested)
03 [2ee6449a] (0/9) No match (V2 was not tested)
04 [d0d5223e] (0/9) No match (V2 was not tested)
05 [8e997d55] (0/9) No match (V2 was not tested)

Track Peak [ CRC32 ] [W/O NULL] [ LOG ]
– 100,0 [0E88BF8C] [EF971A43] CRC32
01 100,0 [6D3ADEBA] [B0B713DC]
02 100,0 [BA1686CD] [391975E7]
03 100,0 [816A9F6E] [DFD3F918]
04 100,0 [5AF76520] [52E1B180]
05 100,0 [E725611D] [3B9E4242]



Tracklist CD15 - 1994 - In The Hot Seat:

01. Hand Of Truth
02. Daddy
03. One By One
04. Heart On Ice
05. Thin Line
06. Man With The Long Black Coat
07. Change
08. Give Me A Reason To Stay
09. Gone Too Soon
10. Street War
11. Pictures At An Exhibition
a) Promenade
b) The Gnome
c) Promenade
d) The Sage
e) The Hut Of Baba Yaga
f) The Great Gates Of Kiev
Bonus Track:
12. Hammer It Out

Exact Audio Copy V1.0 beta 2 from 29. April 2011

EAC extraction logfile from 10. July 2011, 22:46

Emerson, Lake & Palmer / In The Hot Seat

Used drive : HL-DT-STDVDRAM GSA-H60N Adapter: 2 ID: 0

Read mode : Secure
Utilize accurate stream : Yes
Defeat audio cache : Yes
Make use of C2 pointers : No

Read offset correction : 667
Overread into Lead-In and Lead-Out : No
Fill up missing offset samples with silence : Yes
Delete leading and trailing silent blocks : No
Null samples used in CRC calculations : Yes
Used interface : Native Win32 interface for Win NT & 2000

Used output format : Internal WAV Routines
Sample format : 44.100 Hz; 16 Bit; Stereo


TOC of the extracted CD

Track | Start | Length | Start sector | End sector
––––––––––––––––––––––––––––-
1 | 0:00.00 | 5:23.00 | 0 | 24224
2 | 5:23.00 | 4:42.03 | 24225 | 45377
3 | 10:05.03 | 5:07.45 | 45378 | 68447
4 | 15:12.48 | 4:19.40 | 68448 | 87912
5 | 19:32.13 | 4:45.72 | 87913 | 109359
6 | 24:18.10 | 4:12.00 | 109360 | 128259
7 | 28:30.10 | 4:44.05 | 128260 | 149564
8 | 33:14.15 | 4:14.35 | 149565 | 168649
9 | 37:28.50 | 4:11.50 | 168650 | 187524
10 | 41:40.25 | 4:24.30 | 187525 | 207354
11 | 46:04.55 | 15:29.23 | 207355 | 277052
12 | 61:34.03 | 2:35.62 | 277053 | 288739


Range status and errors

Selected range

Filename C:\Documents and Settings\Администратор\Рабочий стол\Rip by ALLexxess\2010 Emerson Lake & Palmer 12 SHM-CD Japan\1994 In The Hot Seat\Emerson, Lake & Palmer - In The Hot Seat.wav

Peak level 94.6 %
Extraction speed 6.1 X
Range quality 99.9 %
Test CRC AD92E48C
Copy CRC AD92E48C
Copy OK

No errors occurred


AccurateRip summary

Track 1 accurately ripped (confidence 2) [903258F7] (AR v1)
Track 2 accurately ripped (confidence 2) [EA0DCC39] (AR v1)
Track 3 accurately ripped (confidence 2) [1F4A024E] (AR v1)
Track 4 accurately ripped (confidence 2) [C83CD93A] (AR v1)
Track 5 accurately ripped (confidence 2) [FC2E8958] (AR v1)
Track 6 accurately ripped (confidence 2) [0C444BBF] (AR v1)
Track 7 accurately ripped (confidence 2) [F984125B] (AR v1)
Track 8 accurately ripped (confidence 2) [D2FCE1F9] (AR v1)
Track 9 accurately ripped (confidence 2) [7379B024] (AR v1)
Track 10 accurately ripped (confidence 2) [F47280C7] (AR v1)
Track 11 accurately ripped (confidence 2) [09EA90A4] (AR v1)
Track 12 accurately ripped (confidence 2) [7EC3488D] (AR v1)

All tracks accurately ripped

End of status report

==== Log checksum 31B290AF2F9A6BA0202820FC7C4B4AE2E5B64D1DE96214F236B641DCD88090DF ====


[CUETools log; Date: 20.12.2018 20:32:32; Version: 2.1.4]
[AccurateRip ID: 001a9688-00fa413f-a20f090c] found.
Track [ CRC | V2 ] Status
01 [903258f7|278e08cc] (03+03/11) Accurately ripped
02 [ea0dcc39|475d1d77] (03+03/11) Accurately ripped
03 [1f4a024e|b32aaee3] (03+03/11) Accurately ripped
04 [c83cd93a|5fadff70] (03+03/11) Accurately ripped
05 [fc2e8958|89118c05] (03+03/11) Accurately ripped
06 [0c444bbf|84b53af4] (03+03/11) Accurately ripped
07 [f984125b|ad575edb] (03+03/11) Accurately ripped
08 [d2fce1f9|c64aa24c] (03+03/11) Accurately ripped
09 [7379b024|02ede626] (03+03/11) Accurately ripped
10 [f47280c7|ada0789c] (03+03/11) Accurately ripped
11 [09ea90a4|452b331b] (03+03/11) Accurately ripped
12 [7ec3488d|95faec2b] (03+03/11) Accurately ripped
Offsetted by 6:
01 [c969242c] (00/11) No match (V2 was not tested)
02 [faae325a] (00/11) No match (V2 was not tested)
03 [751c920c] (00/11) No match (V2 was not tested)
04 [fd6fe24a] (00/11) No match (V2 was not tested)
05 [777a5e9a] (00/11) No match (V2 was not tested)
06 [f77d1e1b] (00/11) No match (V2 was not tested)
07 [78b62a57] (00/11) No match (V2 was not tested)
08 [f703f58f] (00/11) No match (V2 was not tested)
09 [114d7a6c] (00/11) No match (V2 was not tested)
10 [a3fc4859] (00/11) No match (V2 was not tested)
11 [870f899a] (00/11) No match (V2 was not tested)
12 [4f7c82b7] (00/11) No match (V2 was not tested)

Track Peak [ CRC32 ] [W/O NULL] [ LOG ]
– 94,6 [AD92E48C] [562FF049] CRC32
01 94,4 [7F1EA61C] [B0FBAEDB]
02 94,4 [8F47D338] [B1A7F558]
03 94,4 [D2BBF0EC] [6530A8F5]
04 94,4 [50F1A710] [C468E955]
05 94,4 [9F917434] [8A145AAA]
06 94,4 [CDDA8123] [ED0F52C9]
07 94,4 [4E515835] [D4B91FC9]
08 94,4 [2E63119B] [51AF2975]
09 94,4 [55D49DBB] [C046E7F7]
10 94,4 [4C619E68] [4871A1A4]
11 93,6 [0FEA614F] [83D36A03]
12 94,6 [A5C4E508] [2542F47E]


All thanks go to ALLexxess

Emerson Lake & Palmer in my Blog

Download Emerson Lake & Palmer: Collection (1970-1994):