Subcategories

Emerson, Lake & Palmer - Emerson, Lake & Palmer (1970) {198?, Reissue}

Posted By: popsakov
Emerson, Lake & Palmer - Emerson, Lake & Palmer (1970) {198?, Reissue}

Emerson, Lake & Palmer - Emerson, Lake & Palmer (1970) {198?, Reissue}
EAC Rip | FLAC (Img) + Cue + Log ~ 225 Mb | MP3 CBR320 ~ 100 Mb
Full Scans (PNG, 96 dpi) ~ 128 Mb | RAR 5% Recovery
Art Rock, Progressive Rock | Manticore #CDOR 8333

Lively, ambitious, almost entirely successful debut album, made up of keyboard-dominated instrumentals ("The Barbarian," "Three Fates") and romantic ballads ("Lucky Man") showcasing all three members' very daunting talents. This album, which reached the Top 20 in America and got to number four in England, showcased the group at its least pretentious and most musicianly – with the exception of a few moments on "Three Fates" and perhaps "Take a Pebble," there isn't much excess, and there is a lot of impressive musicianship here. "Take a Pebble" might have passed for a Moody Blues track of the era but for the fact that none of the Moody Blues' keyboard men could solo like Keith Emerson. Even here, in a relatively balanced collection of material, the album shows the beginnings of a dark, savage, imposingly gothic edge that had scarcely been seen before in so-called "art rock," mostly courtesy of Emerson's larger-than-life organ and synthesizer attacks. Greg Lake's beautifully sung, deliberately archaic "Lucky Man" had a brush with success on FM radio, and Carl Palmer became the idol of many thousands of would-be drummers based on this one album (especially for "Three Fates" and "Tank"), but Emerson emerged as the overpowering talent here for much of the public.
~ Bruce Eder, All Music

***************

Emerson, Lake & Palmer - Emerson, Lake & Palmer (1970) {198?, Reissue}

Emerson, Lake & Palmer - Emerson, Lake & Palmer (1970) {198?, Reissue}

Track List:

01. The Barbarian [0:04:33.00]
02. Take A Pebble [0:12:34.58]
03. Knife-Edge [0:05:04.60]
04. The Three Fates (Clotho - Lachesis - Atropos) [0:07:45.07]
05. Tank [0:06:52.58]
06. Lucky Man [0:04:36.20]

Personnel:
Keith Emerson – Hammond organ, piano, clavinet, pipe organ, Moog modular synthesizer
Greg Lake – vocals, bass, acoustic and electric guitar
Carl Palmer – drums, percussion

Exact Audio Copy V1.3 from 2. September 2016

EAC extraction logfile from 20. April 2018, 21:10

Emerson, Lake & Palmer / Emerson, Lake & Palmer

Used drive : SONY BD RW BDX-S600U Adapter: 1 ID: 2

Read mode : Secure
Utilize accurate stream : Yes
Defeat audio cache : Yes
Make use of C2 pointers : No

Read offset correction : 48
Overread into Lead-In and Lead-Out : No
Fill up missing offset samples with silence : Yes
Delete leading and trailing silent blocks : No
Null samples used in CRC calculations : Yes
Used interface : Native Win32 interface for Win NT & 2000

Used output format : User Defined Encoder
Selected bitrate : 768 kBit/s
Quality : High
Add ID3 tag : No
Command line compressor : C:\Program Files (x86)\Exact Audio Copy\FLAC\FLAC.EXE
Additional command line options : -V -8 -T "Date=%year%" -T "Genre=%genre%" %source%


TOC of the extracted CD

Track | Start | Length | Start sector | End sector
––––––––––––––––––––––––––––-
1 | 0:00.00 | 4:33.00 | 0 | 20474
2 | 4:33.00 | 12:34.58 | 20475 | 77082
3 | 17:07.58 | 5:04.60 | 77083 | 99942
4 | 22:12.43 | 7:45.07 | 99943 | 134824
5 | 29:57.50 | 6:52.58 | 134825 | 165782
6 | 36:50.33 | 4:36.20 | 165783 | 186502


Range status and errors

Selected range

Filename K:\Emerson Lake & Palmer Discography\Studio\1971. Emerson Lake & Palmer - Emerson Lake & Palmer\1971. Emerson Lake & Palmer - Emerson Lake & Palmer (Manticore,CDOR 8333, Italy)\Emerson, Lake & Palmer - Emerson, Lake & Palmer.wav

Peak level 53.4 %
Extraction speed 6.3 X
Range quality 99.9 %
Test CRC 8E5508BD
Copy CRC 8E5508BD
Copy OK

No errors occurred


AccurateRip summary

Track 1 accurately ripped (confidence 5) [412F888B] (AR v2)
Track 2 accurately ripped (confidence 5) [B4D36348] (AR v2)
Track 3 accurately ripped (confidence 5) [2E6A8C12] (AR v2)
Track 4 accurately ripped (confidence 5) [639E29D6] (AR v2)
Track 5 accurately ripped (confidence 5) [51497BE2] (AR v2)
Track 6 accurately ripped (confidence 5) [3DB405C1] (AR v2)

All tracks accurately ripped

End of status report

–– CUETools DB Plugin V2.1.6

[CTDB TOCID: R5KWuioEk0hQqj67HWMn6EbixGc-] found
Submit result: R5KWuioEk0hQqj67HWMn6EbixGc- has been confirmed
Track | CTDB Status
1 | (7/7) Accurately ripped
2 | (7/7) Accurately ripped
3 | (7/7) Accurately ripped
4 | (7/7) Accurately ripped
5 | (7/7) Accurately ripped
6 | (7/7) Accurately ripped


==== Log checksum 875436D6BECBFEAD9692A945A03E5233E287517B5B47D2E52CDA6C8897F83CC7 ====

foobar2000 1.3.16 / Dynamic Range Meter 1.1.1
log date: 2018-04-20 23:51:34

––––––––––––––––––––––––––––––––––––––––
Analyzed: Emerson, Lake & Palmer / Emerson, Lake & Palmer
––––––––––––––––––––––––––––––––––––––––

DR Peak RMS Duration Track
––––––––––––––––––––––––––––––––––––––––
DR10 -5.62 dB -19.73 dB 4:33 01-The Barbarian
DR14 -6.85 dB -25.54 dB 12:35 02-Take A Pebble
DR11 -5.45 dB -19.82 dB 5:05 03-Knife-Edge
DR12 -5.44 dB -23.26 dB 7:45 04-The Three Fates (Clotho - Lachesis - Atropos)
DR12 -6.86 dB -22.30 dB 6:53 05-Tank
DR12 -6.46 dB -22.71 dB 4:36 06-Lucky Man
––––––––––––––––––––––––––––––––––––––––

Number of tracks: 6
Official DR value: DR12

Samplerate: 44100 Hz
Channels: 2
Bits per sample: 16
Bitrate: 723 kbps
Codec: FLAC
================================================================================

[CUETools log; Date: 20.04.2018 23:51:50; Version: 2.1.6]
[CTDB TOCID: R5KWuioEk0hQqj67HWMn6EbixGc-] found.
Track | CTDB Status
1 | (8/8) Accurately ripped
2 | (8/8) Accurately ripped
3 | (8/8) Accurately ripped
4 | (8/8) Accurately ripped
5 | (8/8) Accurately ripped
6 | (8/8) Accurately ripped
[AccurateRip ID: 000a7244-0037a36c-4809b606] found.
Track [ CRC | V2 ] Status
01 [9e328dfd|412f888b] (08+05/13) Accurately ripped
02 [22eb4fdc|b4d36348] (08+05/13) Accurately ripped
03 [ab7a7a4c|2e6a8c12] (08+05/13) Accurately ripped
04 [d66f40ae|639e29d6] (07+05/12) Accurately ripped
05 [be31fb01|51497be2] (07+05/12) Accurately ripped
06 [a85934a1|3db405c1] (08+05/13) Accurately ripped

Track Peak [ CRC32 ] [W/O NULL] [ LOG ]
– 53,4 [8E5508BD] [2FD8EF6B] CRC32
01 52,3 [4C0A8750] [3F29C40C]
02 45,4 [4F90E6E2] [C701DE1D]
03 53,4 [D3F95C8D] [1187BFD9]
04 53,4 [0C475AC7] [E8A1AEB2]
05 45,4 [A8857438] [B447DF74]
06 47,5 [2D8921E0] [2A54FF20]

Emerson, Lake & Palmer - Emerson, Lake & Palmer (1970) {198?, Reissue}

All thanks go to alonzo

>>> Emerson, Lake & Palmer in my Blog <<<

Download from icerbox.com: