Subcategories

Emerson String Quartet - The Haydn Project (2001) (Repost)

Posted By: tirexiss
Emerson String Quartet - The Haydn Project (2001) (Repost)

Emerson String Quartet - The Haydn Project (2001)
EAC | FLAC (image+.cue, log) | Covers Included | 03:00:52 | 861 MB
Genre: Classical | Label: Deutsche Grammophon | Catalog: 0289 471 3272

“You have the sense when listening to Haydn that you’re in very good company; though he’s a great genius, he somehow seems like one of us”. The words of Philip Setzer. Beautifully recorded, exceptionally well played, the Emerson’s traversal of seven quartets of Haydn offers a wonderful musical journey – 1772 to 1799 in terms of chronology; in terms of musical values and growth, well, Haydn’s inventiveness and imagination are simply remarkable.
To the uninitiated or anyone resisting collecting let alone disseminating Haydn’s 80-odd quartets, this 2-CD release could be ideal. It offers a cross-section of Haydn’s engagement with the form; the Op.20 set usually regarded as his breakthrough in this medium (despite twenty-plus earlier attempts). I hadn’t expected the Emerson to play Haydn with quite the poise and lightness that it does – there is nothing brash, high-powered or fast-for-the-sake-of-it, not even the finale of Op.74/3, which is certainly ridden, but not for competitive purposes. The finish and polish of the Emerson is one thing; another, more important, is the musicians’ seriousness of purpose and engagement.
If I have one reservation – which seems less and less to matter on repeated listening – it is a lack of wit informing these readings, literally so at the close of Op.33/2, brought off with such a straight face as to make the nickname meaningless. On a first listen, it wasn’t until the finale of Op.54/1 that I was fully engaged with the Emerson’s approach; here there’s a sparkle, a twinkle in the eye, not evident hitherto that I found wholly winning. The players are smiling. Back then to the selection from Op.20 to now fully appreciate the formality of Haydn’s design, his individual expression within it, and the Emerson’s confidential disclosure of it. The heartfelt simplicity of the F minor’s slow movement is a thing of wonder, the fugal finale testimony to Haydn’s mastery of procedure.
Although I remain unconvinced by the Emerson’s rather too tidy Op.33/2 – Haydn within parenthesis; other ensembles find more scope – the other six works are brought off with real style and affection. It should be noted that Setzer and Drucker take it in turns as first violinist; Drucker is the more demonstrative player, Setzer more integrated. Certainly this ’casting’ can make a difference; Setzer’s decorum works especially well in the opening ’Allegro’ of Op.74/3. First-time repeats are observed but only the ’Fifths’ Quartet has the second half of its first movement played twice – to good effect in a convincingly understated reading that is pointed with uncommon interest, Haydn’s emotions smouldering until the development and then within an ’ideal’; twice through was no hardship.
Op.77/1 is visionary music, which the Emerson appreciates fully through its new-beginning performance: the door is open for Beethoven to enter the scene. Haydn, proud in the martial opening, searching in the ’Adagio’, provides a scherzo in all but name for the ’Menuetto’ (given with Beethovenian bluffness here, and surely an influence on him), then closes with a finale teeming with life and innovation; and a tour de force for the Emerson.
These are crisp, immaculate renditions fully appreciative of Haydn’s endless discovery, his compositional sleight-of-hand, the song and dance elements, the pathos, drama, passion, lyrical grace and courtly decoration. Having previously felt the Emerson Quartet to be superb combatants, I’m not sure I would have expected such a rapport with Haydn. It’s a marvellous surprise. Let Eugene Drucker have the last word on Haydn: “It’s music that has a mission. It’s not there simply to entertain, it’s there to unfold a narrative or to engage in discourse and improve the listener, in true Enlightenment fashion.” – Colin Anderson

Emerson String Quartet - The Haydn Project (2001) (Repost)

Track List:

CD 1:
String Quartet in F minor, HIII No.35, Op.20 No.5
1. Moderato 7:20
2. Menuet 5:03
3. Adagio 5:17
4. Fuga a 2 soggetti 2:55
String Quartet in E flat, HIII No.38, Op.33 No.2
5. 1. Allegro moderato, cantabile 4:58
6. 2. Scherzo allegro 3:22
7. 3. Largo sostenuto 4:29
8. 4. Finale: Presto 3:33
String Quartet in G major, Hob.III No.57, Op.54 No.1
9. 1. Allegro con brio 5:36
10. 2. Allegretto 5:43
11. 3. Menuetto 3:42
12. 4. Finale. Presto 3:58
String Quartet in D major, HIII No.63, Op.64 No.5 "The Lark"
13. 1. Allegro moderato 6:14
14. 2. Adagio 6:01
15. 3. Menuet (Allegretto) 3:17
16. 4. Finale (Vivace) 2:15

Exact Audio Copy V1.0 beta 3 from 29. August 2011

EAC extraction logfile from 11. July 2013, 21:58

Emerson String Quartet / The Haydn Project [Disc 1]

Used drive : TSSTcorp CDDVDW Adapter: 0 ID: 0

Read mode : Secure
Utilize accurate stream : Yes
Defeat audio cache : Yes
Make use of C2 pointers : No

Read offset correction : 6
Overread into Lead-In and Lead-Out : No
Fill up missing offset samples with silence : Yes
Delete leading and trailing silent blocks : No
Null samples used in CRC calculations : Yes
Used interface : Installed external ASPI interface

Used output format : User Defined Encoder
Selected bitrate : 768 kBit/s
Quality : High
Add ID3 tag : No
Command line compressor : C:\Program Files (x86)\Exact Audio Copy\FLAC\FLAC.EXE
Additional command line options : -6 -V -T "ARTIST=%artist%" -T "TITLE=%title%" -T "ALBUM=%albumtitle%" -T "DATE=%year%" -T "TRACKNUMBER=%tracknr%" -T "GENRE=%genre%" -T "COMMENT=%comment%" -T "BAND=%albuminterpret%" -T "ALBUMARTIST=%albuminterpret%" -T "COMPOSER=%composer%" %haslyrics%–tag-from-file=LYRICS="%lyricsfile%"%haslyrics% -T "DISCNUMBER=%cdnumber%" -T "TOTALDISCS=%totalcds%" -T "TOTALTRACKS=%numtracks%" %hascover%–picture="%coverfile%"%hascover% %source% -o %dest%


TOC of the extracted CD

Track | Start | Length | Start sector | End sector
––––––––––––––––––––––––––––-
1 | 0:00.00 | 7:18.00 | 0 | 32849
2 | 7:18.00 | 5:03.00 | 32850 | 55574
3 | 12:21.00 | 5:17.00 | 55575 | 79349
4 | 17:38.00 | 2:55.00 | 79350 | 92474
5 | 20:33.00 | 4:58.00 | 92475 | 114824
6 | 25:31.00 | 3:22.00 | 114825 | 129974
7 | 28:53.00 | 4:30.00 | 129975 | 150224
8 | 33:23.00 | 3:33.00 | 150225 | 166199
9 | 36:56.00 | 5:36.00 | 166200 | 191399
10 | 42:32.00 | 5:43.00 | 191400 | 217124
11 | 48:15.00 | 3:42.00 | 217125 | 233774
12 | 51:57.00 | 3:58.00 | 233775 | 251624
13 | 55:55.00 | 6:14.00 | 251625 | 279674
14 | 62:09.00 | 6:01.00 | 279675 | 306749
15 | 68:10.00 | 3:17.00 | 306750 | 321524
16 | 71:27.00 | 2:15.00 | 321525 | 331649


Range status and errors

Selected range

Filename C:\RIP\Haydn - String Quartets (ESQ) CD1.wav

Peak level 75.5 %
Extraction speed 3.4 X
Range quality 100.0 %
Test CRC 32D34077
Copy CRC 32D34077
Copy OK

No errors occurred


AccurateRip summary

Track 1 accurately ripped (confidence 4) [C7046EB7] (AR v2)
Track 2 accurately ripped (confidence 4) [7ED6BBE6] (AR v2)
Track 3 accurately ripped (confidence 4) [5B1408ED] (AR v2)
Track 4 accurately ripped (confidence 4) [AE3F8557] (AR v2)
Track 5 accurately ripped (confidence 4) [C6650022] (AR v2)
Track 6 accurately ripped (confidence 4) [B7893192] (AR v2)
Track 7 accurately ripped (confidence 4) [63154E21] (AR v2)
Track 8 accurately ripped (confidence 4) [75973104] (AR v2)
Track 9 accurately ripped (confidence 4) [BC39ADA3] (AR v2)
Track 10 accurately ripped (confidence 4) [6EA356E6] (AR v2)
Track 11 accurately ripped (confidence 4) [CE7E255F] (AR v2)
Track 12 accurately ripped (confidence 4) [3E87E7EF] (AR v2)
Track 13 accurately ripped (confidence 4) [36C7C030] (AR v2)
Track 14 accurately ripped (confidence 4) [7EB26072] (AR v2)
Track 15 accurately ripped (confidence 4) [1557DA43] (AR v2)
Track 16 accurately ripped (confidence 4) [942C2127] (AR v2)

All tracks accurately ripped

End of status report

==== Log checksum 100A7CDBF8E09F0CD1D7E038B6AA45C5E071521B55F159078FD09BD56DB6308F ====

[CUETools log; Date: 16.08.2017 13:37:50; Version: 2.1.5]
[CTDB TOCID: cH2FnHPdflQTA90NANL8xnuGrv0-] found.
Track | CTDB Status
1 | (57/57) Accurately ripped
2 | (54/57) Accurately ripped
3 | (55/57) Accurately ripped
4 | (55/57) Accurately ripped
5 | (56/57) Accurately ripped
6 | (55/57) Accurately ripped
7 | (54/57) Accurately ripped
8 | (54/57) Accurately ripped
9 | (56/57) Accurately ripped
10 | (55/57) Accurately ripped
11 | (55/57) Accurately ripped
12 | (55/57) Accurately ripped
13 | (54/57) Accurately ripped
14 | (55/57) Accurately ripped
15 | (55/57) Accurately ripped
16 | (55/57) Accurately ripped
[AccurateRip ID: 002d16f8-0215da1e-d8114610] found.
Track [ CRC | V2 ] Status
01 [adc6204b|c7046eb7] (29+37/79) Accurately ripped
02 [1a34ff08|7ed6bbe6] (29+37/80) Accurately ripped
03 [01c0fdb7|5b1408ed] (29+37/78) Accurately ripped
04 [cb4c74be|ae3f8557] (29+36/79) Accurately ripped
05 [2b202a7d|c6650022] (29+36/79) Accurately ripped
06 [1797ea7f|b7893192] (29+36/79) Accurately ripped
07 [ae5999d0|63154e21] (29+36/79) Accurately ripped
08 [56b2eae5|75973104] (29+36/79) Accurately ripped
09 [7268d516|bc39ada3] (29+36/79) Accurately ripped
10 [0cacfd5f|6ea356e6] (29+36/79) Accurately ripped
11 [09f3e641|ce7e255f] (29+36/79) Accurately ripped
12 [6ec6aa64|3e87e7ef] (29+36/79) Accurately ripped
13 [c7ba0976|36c7c030] (29+36/79) Accurately ripped
14 [a4dc0efe|7eb26072] (28+36/78) Accurately ripped
15 [887a5dfa|1557da43] (28+36/78) Accurately ripped
16 [a02d97e7|942c2127] (27+36/77) Accurately ripped
Offsetted by -6:
01 [a4d912a5] (02/79) Accurately ripped
02 [e5bbb861] (02/80) Accurately ripped
03 [78fb371c] (02/78) Accurately ripped
04 [5391cc92] (02/79) Accurately ripped
05 [fbb3b926] (02/79) Accurately ripped
06 [aca2397e] (02/79) Accurately ripped
07 [0ca617d6] (02/79) Accurately ripped
08 [ce2acff5] (02/79) Accurately ripped
09 [f4736a65] (02/79) Accurately ripped
10 [28615413] (02/79) Accurately ripped
11 [359284d9] (02/79) Accurately ripped
12 [615491e5] (02/79) Accurately ripped
13 [68cffe38] (02/79) Accurately ripped
14 [046046d3] (02/78) Accurately ripped
15 [2e9af520] (02/78) Accurately ripped
16 [1b75e096] (02/77) Accurately ripped
Offsetted by -664:
01 [0dff1c62] (02/79) Accurately ripped
02 [9600e1ab] (02/80) Accurately ripped
03 [149f6286] (00/78) No match (V2 was not tested)
04 [2041a209] (02/79) Accurately ripped
05 [2c6d0eed] (02/79) Accurately ripped
06 [4133f0be] (02/79) Accurately ripped
07 [251972d1] (02/79) Accurately ripped
08 [af45bac5] (02/79) Accurately ripped
09 [f2570558] (02/79) Accurately ripped
10 [4c0d79d5] (02/79) Accurately ripped
11 [75819533] (02/79) Accurately ripped
12 [64d208ce] (02/79) Accurately ripped
13 [c6116a5a] (02/79) Accurately ripped
14 [274b6dea] (02/78) Accurately ripped
15 [888a68e9] (02/78) Accurately ripped
16 [47f00f08] (02/77) Accurately ripped
Offsetted by 373:
01 [268fa574] (00/79) No match (V2 was not tested)
02 [79679f06] (00/80) No match (V2 was not tested)
03 [4ce87ae2] (00/78) No match (V2 was not tested)
04 [1074c430] (00/79) No match (V2 was not tested)
05 [711301bb] (00/79) No match (V2 was not tested)
06 [c571d137] (00/79) No match (V2 was not tested)
07 [0385bb36] (00/79) No match (V2 was not tested)
08 [653cbce4] (00/79) No match (V2 was not tested)
09 [d9d00544] (00/79) No match (V2 was not tested)
10 [dcbae65d] (00/79) No match (V2 was not tested)
11 [346ef19b] (00/79) No match (V2 was not tested)
12 [6a70cabe] (00/79) No match (V2 was not tested)
13 [55a11c9b] (00/79) No match (V2 was not tested)
14 [2bced96a] (00/78) No match (V2 was not tested)
15 [91dd5759] (00/78) No match (V2 was not tested)
16 [cf21faff] (00/77) No match (V2 was not tested)

Track Peak [ CRC32 ] [W/O NULL] [ LOG ]
– 75,5 [32D34077] [72C4F639] CRC32
01 70,6 [E1434BB1] [2540924B]
02 58,1 [6C8ECA0F] [4669619A]
03 36,5 [EE0DC273] [E998AB91]
04 74,0 [32EADD68] [7F075B6A]
05 53,2 [42F46F6A] [A63F0C61]
06 44,6 [12762668] [928A54C4]
07 48,2 [D56CA8AD] [00F8EC94]
08 54,7 [54A67C81] [87BD05E9]
09 56,7 [E08BF43A] [093EA971]
10 48,3 [1E326C4E] [9A948846]
11 46,2 [B2BD8CDA] [C008B86C]
12 71,6 [41A67DFD] [7A54080D]
13 75,5 [D25A9277] [D3F152FE]
14 37,4 [39B2A0E1] [2F0FE195]
15 59,6 [FB4D2FC8] [4853402D]
16 66,1 [252E0E4D] [3F917E61]

CD 2:
String Quartet in G minor, HIII No.74, Op.74 No.3 "The Horseman"
1. 1. Allegro 6:01
2. 2. Largo assai 6:38
3. 3. Menuetto. Allegretto. Trio 3:44
4. 4. Finale. Allegro con brio 5:52
String Quartet in D minor, H.III, Op.76 No.2 - "Fifths"
5. 1. Allegro 10:10
6. 2. Andante o più tosto allegretto 5:28
7. 3. Minuetto 3:31
8. 4. Finale (Vivace assai) 3:48
String Quartet in G, HIII No.81, Op.77 No.1
9. 1. Allegro moderato 7:27
10. 2. Adagio 6:41
11. 3. Menuetto - Trio 4:04
12. 4. Finale: Presto 4:51

Exact Audio Copy V1.0 beta 3 from 29. August 2011

EAC extraction logfile from 11. July 2013, 22:53

Emerson String Quartet / The Haydn Project [Disc 2]

Used drive : TSSTcorp CDDVDW Adapter: 0 ID: 0

Read mode : Secure
Utilize accurate stream : Yes
Defeat audio cache : Yes
Make use of C2 pointers : No

Read offset correction : 6
Overread into Lead-In and Lead-Out : No
Fill up missing offset samples with silence : Yes
Delete leading and trailing silent blocks : No
Null samples used in CRC calculations : Yes
Used interface : Installed external ASPI interface

Used output format : User Defined Encoder
Selected bitrate : 768 kBit/s
Quality : High
Add ID3 tag : No
Command line compressor : C:\Program Files (x86)\Exact Audio Copy\FLAC\FLAC.EXE
Additional command line options : -6 -V -T "ARTIST=%artist%" -T "TITLE=%title%" -T "ALBUM=%albumtitle%" -T "DATE=%year%" -T "TRACKNUMBER=%tracknr%" -T "GENRE=%genre%" -T "COMMENT=%comment%" -T "BAND=%albuminterpret%" -T "ALBUMARTIST=%albuminterpret%" -T "COMPOSER=%composer%" %haslyrics%–tag-from-file=LYRICS="%lyricsfile%"%haslyrics% -T "DISCNUMBER=%cdnumber%" -T "TOTALDISCS=%totalcds%" -T "TOTALTRACKS=%numtracks%" %hascover%–picture="%coverfile%"%hascover% %source% -o %dest%


TOC of the extracted CD

Track | Start | Length | Start sector | End sector
––––––––––––––––––––––––––––-
1 | 0:00.00 | 5:59.00 | 0 | 26924
2 | 5:59.00 | 6:38.00 | 26925 | 56774
3 | 12:37.00 | 3:44.00 | 56775 | 73574
4 | 16:21.00 | 5:58.00 | 73575 | 100424
5 | 22:19.00 | 10:04.00 | 100425 | 145724
6 | 32:23.00 | 5:28.00 | 145725 | 170324
7 | 37:51.00 | 3:31.00 | 170325 | 186149
8 | 41:22.00 | 3:53.00 | 186150 | 203624
9 | 45:15.00 | 7:22.00 | 203625 | 236774
10 | 52:37.00 | 6:41.00 | 236775 | 266849
11 | 59:18.00 | 4:04.00 | 266850 | 285149
12 | 63:22.00 | 4:51.00 | 285150 | 306974


Range status and errors

Selected range

Filename C:\RIP\Haydn - String Quartets (ESQ) CD2.wav

Peak level 77.8 %
Extraction speed 3.2 X
Range quality 100.0 %
Test CRC 84434C08
Copy CRC 84434C08
Copy OK

No errors occurred


AccurateRip summary

Track 1 accurately ripped (confidence 4) [BEFACB54] (AR v2)
Track 2 accurately ripped (confidence 5) [7BD47083] (AR v2)
Track 3 accurately ripped (confidence 5) [A85D4BBD] (AR v2)
Track 4 accurately ripped (confidence 5) [AF16C8F2] (AR v2)
Track 5 accurately ripped (confidence 5) [200C7CA2] (AR v2)
Track 6 accurately ripped (confidence 5) [F96ABC73] (AR v2)
Track 7 accurately ripped (confidence 5) [6BC64815] (AR v2)
Track 8 accurately ripped (confidence 4) [239A2B5E] (AR v2)
Track 9 accurately ripped (confidence 5) [894EF1E1] (AR v2)
Track 10 accurately ripped (confidence 5) [42D25B84] (AR v2)
Track 11 accurately ripped (confidence 5) [73F0412E] (AR v2)
Track 12 accurately ripped (confidence 5) [EC324BAB] (AR v2)

All tracks accurately ripped

End of status report

==== Log checksum 2C2B1A33EF9E56F0970CC502CBC23C973240D1A3981FF36803226F45E043A23F ====

[CUETools log; Date: 16.08.2017 13:39:13; Version: 2.1.5]
[CTDB TOCID: 05oHwCmz0Lc9A04hH336yHq5gVQ-] found.
Track | CTDB Status
1 | (49/50) Accurately ripped
2 | (49/50) Accurately ripped
3 | (49/50) Accurately ripped
4 | (49/50) Accurately ripped
5 | (49/50) Accurately ripped
6 | (49/50) Accurately ripped
7 | (49/50) Accurately ripped
8 | (49/50) Accurately ripped
9 | (49/50) Accurately ripped
10 | (49/50) Accurately ripped
11 | (49/50) Accurately ripped
12 | (48/50) Accurately ripped
[AccurateRip ID: 001f6c0b-0123d192-b10ffd0c] found.
Track [ CRC | V2 ] Status
01 [53111bc8|befacb54] (31+37/76) Accurately ripped
02 [e411364d|7bd47083] (31+38/77) Accurately ripped
03 [a55f8d2e|a85d4bbd] (31+38/77) Accurately ripped
04 [ac6a80a3|af16c8f2] (31+38/77) Accurately ripped
05 [ceba6bef|200c7ca2] (30+38/76) Accurately ripped
06 [ff17201e|f96abc73] (30+38/76) Accurately ripped
07 [7f2e8b12|6bc64815] (30+38/75) Accurately ripped
08 [468243d2|239a2b5e] (29+37/74) Accurately ripped
09 [391268d9|894ef1e1] (31+37/76) Accurately ripped
10 [c7d0ed8f|42d25b84] (31+37/76) Accurately ripped
11 [917f7fd8|73f0412e] (31+38/77) Accurately ripped
12 [2e081bc9|ec324bab] (30+38/76) Accurately ripped
Offsetted by -664:
01 [7f611d81] (00/76) No match (V2 was not tested)
02 [2fc0bf1f] (00/77) No match (V2 was not tested)
03 [4a3d5273] (00/77) No match (V2 was not tested)
04 [0f4a8f53] (00/77) No match (V2 was not tested)
05 [2a4e010a] (00/76) No match (V2 was not tested)
06 [c9ecb4c4] (00/76) No match (V2 was not tested)
07 [b8d7f4c5] (00/75) No match (V2 was not tested)
08 [05d40e18] (00/74) No match (V2 was not tested)
09 [65540fd2] (00/76) No match (V2 was not tested)
10 [5a6aced9] (00/76) No match (V2 was not tested)
11 [b6fe6247] (00/77) No match (V2 was not tested)
12 [43972da9] (00/76) No match (V2 was not tested)
Offsetted by -6:
01 [b583e376] (02/76) Accurately ripped
02 [717d30c1] (02/77) Accurately ripped
03 [7c8ee58d] (02/77) Accurately ripped
04 [7cd0ca20] (02/77) Accurately ripped
05 [9cf3df7b] (00/76) No match (V2 was not tested)
06 [4f7cea1c] (00/76) No match (V2 was not tested)
07 [cbc26d7f] (02/75) Accurately ripped
08 [c3aa776f] (02/74) Accurately ripped
09 [e4306375] (02/76) Accurately ripped
10 [2046ce2b] (02/76) Accurately ripped
11 [90a34243] (02/77) Accurately ripped
12 [417becba] (02/76) Accurately ripped

Track Peak [ CRC32 ] [W/O NULL] [ LOG ]
– 77,8 [84434C08] [CEDDBB18] CRC32
01 76,8 [7E567F2D] [38697381]
02 40,3 [1BB59621] [2D27489D]
03 38,6 [FCE317F3] [166C1AF3]
04 77,8 [5AF34A4A] [99173026]
05 59,6 [BE7A53BF] [E57C9DFD]
06 40,9 [4687A37C] [B7E71EC2]
07 69,4 [C46F7831] [6CEF3D80]
08 56,2 [29690652] [1349C464]
09 68,1 [2D10F7B3] [164B4FB0]
10 44,6 [2092D44C] [453A49C0]
11 73,6 [12A68ED7] [82D947CD]
12 63,9 [5D0EA079] [8A25A3D2]

CD 3:
Wolfgang Amadeus Mozart - String Quartet No.14 in G, K.387
1. 4. Molto allegro 5:36
Dmitri Shostakovich
2. Allegretto (Polka) for String Quartet 2:26
Antonín Dvorák - String Quartet No.12 in F major, Op.96 - "American" B.179
3. 2. Lento 7:49
Charles Ives - String Quartet No.2
4. 2. Arguments 4:36
Anton Webern - 5 Movements for String Quartet, Op.5
5. 4. Sehr langsam 1:50
Franz Schubert - String Quartet No.13 in A minor, D.804 - "Rosamunde"
6. 2. Andante 7:50
Béla Bartók - String Quartet No.4, Sz. 91
7. 4. Allegretto pizzicato 2:45
Ludwig van Beethoven - String Quartet in C, Op.59 No.3 - "Rasumovsky No. 3"
8. 4. Allegro molto 6:08

Exact Audio Copy V1.0 beta 3 from 29. August 2011

EAC extraction logfile from 12. July 2013, 5:51

Emerson String Quartet / The Haydn Project [Bonus]

Used drive : TSSTcorp CDDVDW Adapter: 0 ID: 0

Read mode : Secure
Utilize accurate stream : Yes
Defeat audio cache : Yes
Make use of C2 pointers : No

Read offset correction : 6
Overread into Lead-In and Lead-Out : No
Fill up missing offset samples with silence : Yes
Delete leading and trailing silent blocks : No
Null samples used in CRC calculations : Yes
Used interface : Installed external ASPI interface

Used output format : User Defined Encoder
Selected bitrate : 768 kBit/s
Quality : High
Add ID3 tag : No
Command line compressor : C:\Program Files (x86)\Exact Audio Copy\FLAC\FLAC.EXE
Additional command line options : -6 -V -T "ARTIST=%artist%" -T "TITLE=%title%" -T "ALBUM=%albumtitle%" -T "DATE=%year%" -T "TRACKNUMBER=%tracknr%" -T "GENRE=%genre%" -T "COMMENT=%comment%" -T "BAND=%albuminterpret%" -T "ALBUMARTIST=%albuminterpret%" -T "COMPOSER=%composer%" %haslyrics%–tag-from-file=LYRICS="%lyricsfile%"%haslyrics% -T "DISCNUMBER=%cdnumber%" -T "TOTALDISCS=%totalcds%" -T "TOTALTRACKS=%numtracks%" %hascover%–picture="%coverfile%"%hascover% %source% -o %dest%


TOC of the extracted CD

Track | Start | Length | Start sector | End sector
––––––––––––––––––––––––––––-
1 | 0:00.00 | 5:37.44 | 0 | 25318
2 | 5:37.44 | 2:26.05 | 25319 | 36273
3 | 8:03.49 | 7:49.16 | 36274 | 71464
4 | 15:52.65 | 4:36.33 | 71465 | 92197
5 | 20:29.23 | 1:50.57 | 92198 | 100504
6 | 22:20.05 | 7:50.62 | 100505 | 135816
7 | 30:10.67 | 2:45.35 | 135817 | 148226
8 | 32:56.27 | 6:06.17 | 148227 | 175693


Range status and errors

Selected range

Filename C:\RIP\Haydn - String Quartets (ESQ) CD3 (Bonus).wav

Peak level 99.9 %
Extraction speed 2.6 X
Range quality 99.9 %
Test CRC 6BE46160
Copy CRC 6BE46160
Copy OK

No errors occurred


AccurateRip summary

Track 1 accurately ripped (confidence 3) [8C66C924] (AR v2)
Track 2 accurately ripped (confidence 3) [4FAA2CC7] (AR v2)
Track 3 accurately ripped (confidence 3) [7957C7CA] (AR v2)
Track 4 accurately ripped (confidence 3) [2FC6D47A] (AR v2)
Track 5 accurately ripped (confidence 3) [5D6EE29F] (AR v2)
Track 6 accurately ripped (confidence 3) [9D4BB560] (AR v2)
Track 7 accurately ripped (confidence 3) [F1C2CEF6] (AR v2)
Track 8 accurately ripped (confidence 3) [BFCEC6D2] (AR v2)

All tracks accurately ripped

End of status report

==== Log checksum B03F7595763845A2B3598A347F681CD0AB0E74A9F51B2FD681492516048E973D ====

[CUETools log; Date: 16.08.2017 13:39:29; Version: 2.1.5]
[CTDB TOCID: Nh4IZHyWTk6xdbdtEQcRXFVSnB0-] found.
Track | CTDB Status
1 | (22/23) Accurately ripped
2 | (23/23) Accurately ripped
3 | (23/23) Accurately ripped
4 | (23/23) Accurately ripped
5 | (23/23) Accurately ripped
6 | (23/23) Accurately ripped
7 | (23/23) Accurately ripped
8 | (23/23) Accurately ripped
[AccurateRip ID: 000bfc5b-004fc272-6a092608] found.
Track [ CRC | V2 ] Status
01 [a8d18950|8c66c924] (19+29/53) Accurately ripped
02 [50dbb354|4faa2cc7] (19+29/52) Accurately ripped
03 [1a976025|7957c7ca] (18+29/51) Accurately ripped
04 [ac44849b|2fc6d47a] (19+29/53) Accurately ripped
05 [7fa21e4e|5d6ee29f] (20+29/54) Accurately ripped
06 [f56b2428|9d4bb560] (20+29/54) Accurately ripped
07 [549ae98f|f1c2cef6] (20+29/54) Accurately ripped
08 [c524edb4|bfcec6d2] (20+29/54) Accurately ripped
Offsetted by -664:
01 [aab256d0] (00/53) No match (V2 was not tested)
02 [07ebdac4] (00/52) No match (V2 was not tested)
03 [3ddbee45] (00/51) No match (V2 was not tested)
04 [4e6b0eb3] (00/53) No match (V2 was not tested)
05 [f8316b86] (00/54) No match (V2 was not tested)
06 [3b576550] (00/54) No match (V2 was not tested)
07 [7b28e6ef] (00/54) No match (V2 was not tested)
08 [23c50a7c] (00/54) No match (V2 was not tested)

Track Peak [ CRC32 ] [W/O NULL] [ LOG ]
– 99,9 [6BE46160] [00C11244] CRC32
01 99,9 [7C45AB8F] [6FEDCB8E]
02 57,1 [4D2864E5] [110AB19D]
03 59,5 [CB6CC6EB] [BB5F8E3D]
04 78,3 [FC8FC4EB] [72E49FA8]
05 5,6 [6FB03BD0] [86C01CE1]
06 70,0 [4BFD84AD] [4B2F599D]
07 60,2 [BB137A5C] [C08B7BB7]
08 99,9 [DB9C6942] [460D2C09]

Emerson String Quartet - The Haydn Project (2001) (Repost)

Performers:
Emerson String Quartet
Eugene Drucker - violin
Philip Setzer - violin
Lawrence Dutton - viola
David Finckel - cello

Thanks to the Original ripper Dementio81!

Download: