Subcategories

Eminem - Revival (2017)

Posted By: pyatak
Eminem - Revival (2017)

Eminem - Revival (2017)
EAC Rip | FLAC (Tracks+ .cue + log + booklet) 507 MB | Cover | 01:17:45
Pop, Rap, Hip-Hop | Label: Aftermath/Shady/Interscope

As Slim Shady fans prepare for Revival to finally drop this Friday (Dec. 15), Eminem amplified the excitement to his highly anticipated ninth studio album with the brash track "Untouchable," which you can read all the cryptic lyrics decoded here. Em opened his official online store to fans who want to pick up merchandise and support the Detroit native ahead of the 19-track project's release date with a plethora of options. Items for purchase range from Shady-engraved dog tags, steel-printed "Walk On Water" lyrics hand-written by Em, a black t-shirt or hoodie with a graphic featuring the 45-year-old taking aim at his detractors. All purchases come with a digital or CD version of Revival, which is also available as a lithograph. The most expensive option for Stans to pre-order contains a bundle encompassing the previously mentioned dog tag and "Walk On Water" steel print, in addition to an exclusive autographed version of Revival, which will run you $500 in total for the package deal.

TRACKLIST

01. Walk On Water (feat. Beyoncé)
02. Believe
03. Chloraseptic (feat. PHRESHER)
04. Untouchable
05. River (feat. Ed Sheeran)
06. Remind Me (Intro)
07. Remind Me
08. Revival (Interlude)
09. Like Home (feat. Alicia Keys)
10. Bad Husband (feat. X Ambassadors)
11. Tragic Endings (feat. Skylar Grey)
12. Framed
13. Nowhere Fast (feat. Kehlani)
14. Heat
15. Offended
16. Need Me (feat. P!nk)
17. In Your Head
18. Castle
19. Arose

Exact Audio Copy V1.3 from 2. September 2016

EAC extraction logfile from 16. December 2017, 20:06

Eminem / Revival

Used drive : ATAPI iHBS112 2 Adapter: 1 ID: 0

Read mode : Secure
Utilize accurate stream : Yes
Defeat audio cache : Yes
Make use of C2 pointers : No

Read offset correction : 6
Overread into Lead-In and Lead-Out : No
Fill up missing offset samples with silence : Yes
Delete leading and trailing silent blocks : No
Null samples used in CRC calculations : Yes
Used interface : Native Win32 interface for Win NT & 2000
Gap handling : Appended to previous track

Used output format : User Defined Encoder
Selected bitrate : 128 kBit/s
Quality : High
Add ID3 tag : No
Command line compressor : C:\Program Files (x86)\Exact Audio Copy\Flac\flac.exe
Additional command line options : -8 -V -T "ARTIST=%artist%" -T "TITLE=%title%" -T "ALBUM=%albumtitle%" -T "DATE=%year%" -T "TRACKNUMBER=%tracknr%" -T "TOTALTRACKS=%numtracks%" -T "GENRE=%genre%" -T "ALBUMARTIST=%albumartist%" -T "ALBUM ARTIST=%albumartist%" -T "COMMENT=EAC Secure Mode, Test & Copy, AccurateRip, FLAC -8" %source%


TOC of the extracted CD

Track | Start | Length | Start sector | End sector
––––––––––––––––––––––––––––-
1 | 0:00.00 | 5:03.48 | 0 | 22772
2 | 5:03.48 | 5:15.26 | 22773 | 46423
3 | 10:18.74 | 5:01.11 | 46424 | 69009
4 | 15:20.10 | 6:10.10 | 69010 | 96769
5 | 21:30.20 | 3:41.01 | 96770 | 113345
6 | 25:11.21 | 0:26.25 | 113346 | 115320
7 | 25:37.46 | 3:45.13 | 115321 | 132208
8 | 29:22.59 | 0:51.62 | 132209 | 136095
9 | 30:14.46 | 4:05.35 | 136096 | 154505
10 | 34:20.06 | 4:47.67 | 154506 | 176097
11 | 39:07.73 | 4:12.02 | 176098 | 194999
12 | 43:20.00 | 4:13.12 | 195000 | 213986
13 | 47:33.12 | 4:24.13 | 213987 | 233799
14 | 51:57.25 | 4:10.00 | 233800 | 252549
15 | 56:07.25 | 5:20.69 | 252550 | 276618
16 | 61:28.19 | 4:25.35 | 276619 | 296528
17 | 65:53.54 | 3:02.48 | 296529 | 310226
18 | 68:56.27 | 4:14.57 | 310227 | 329333
19 | 73:11.09 | 4:34.47 | 329334 | 349930


Track 1

Filename E:\Rips\NWCD Uploads\Eminem - Revival (2017) {B0027762-02} [FLAC]\01 - Eminem feat. Beyonce - Walk On Water.wav

Pre-gap length 0:00:02.00

Peak level 80.5 %
Extraction speed 5.9 X
Track quality 100.0 %
Test CRC F9BCE67C
Copy CRC F9BCE67C
Track not present in AccurateRip database
Copy OK

Track 2

Filename E:\Rips\NWCD Uploads\Eminem - Revival (2017) {B0027762-02} [FLAC]\02 - Eminem - Believe.wav

Peak level 97.5 %
Extraction speed 6.6 X
Track quality 100.0 %
Test CRC DBEE3A42
Copy CRC DBEE3A42
Track not present in AccurateRip database
Copy OK

Track 3

Filename E:\Rips\NWCD Uploads\Eminem - Revival (2017) {B0027762-02} [FLAC]\03 - Eminem feat. Phresher - Chloraseptic.wav

Peak level 98.0 %
Extraction speed 7.1 X
Track quality 100.0 %
Test CRC C48FCC26
Copy CRC C48FCC26
Track not present in AccurateRip database
Copy OK

Track 4

Filename E:\Rips\NWCD Uploads\Eminem - Revival (2017) {B0027762-02} [FLAC]\04 - Eminem - Untouchable.wav

Peak level 98.3 %
Extraction speed 7.8 X
Track quality 100.0 %
Test CRC 0918D20A
Copy CRC 0918D20A
Track not present in AccurateRip database
Copy OK

Track 5

Filename E:\Rips\NWCD Uploads\Eminem - Revival (2017) {B0027762-02} [FLAC]\05 - Eminem feat. Ed Sheeran - River.wav

Peak level 98.2 %
Extraction speed 7.9 X
Track quality 100.0 %
Test CRC E0EB320B
Copy CRC E0EB320B
Track not present in AccurateRip database
Copy OK

Track 6

Filename E:\Rips\NWCD Uploads\Eminem - Revival (2017) {B0027762-02} [FLAC]\06 - Eminem - Remind Me (Intro).wav

Peak level 97.3 %
Extraction speed 4.0 X
Track quality 100.0 %
Test CRC CA6E1BA1
Copy CRC CA6E1BA1
Track not present in AccurateRip database
Copy OK

Track 7

Filename E:\Rips\NWCD Uploads\Eminem - Revival (2017) {B0027762-02} [FLAC]\07 - Eminem - Remind Me.wav

Peak level 97.5 %
Extraction speed 8.3 X
Track quality 100.0 %
Test CRC BB69D2ED
Copy CRC BB69D2ED
Track not present in AccurateRip database
Copy OK

Track 8

Filename E:\Rips\NWCD Uploads\Eminem - Revival (2017) {B0027762-02} [FLAC]\08 - Eminem - Revival (Interlude).wav

Peak level 71.3 %
Extraction speed 5.6 X
Track quality 100.0 %
Test CRC 5F084838
Copy CRC 5F084838
Track not present in AccurateRip database
Copy OK

Track 9

Filename E:\Rips\NWCD Uploads\Eminem - Revival (2017) {B0027762-02} [FLAC]\09 - Eminem feat. Alicia Keys - Like Home.wav

Peak level 98.2 %
Extraction speed 8.8 X
Track quality 100.0 %
Test CRC F7320E71
Copy CRC F7320E71
Track not present in AccurateRip database
Copy OK

Track 10

Filename E:\Rips\NWCD Uploads\Eminem - Revival (2017) {B0027762-02} [FLAC]\10 - Eminem feat. X Ambassadors - Bad Husband.wav

Peak level 97.6 %
Extraction speed 9.3 X
Track quality 100.0 %
Test CRC BE3EE8FE
Copy CRC BE3EE8FE
Track not present in AccurateRip database
Copy OK

Track 11

Filename E:\Rips\NWCD Uploads\Eminem - Revival (2017) {B0027762-02} [FLAC]\11 - Eminem feat. Skylar Grey - Tragic Endings.wav

Peak level 100.0 %
Extraction speed 9.4 X
Track quality 100.0 %
Test CRC FDFFC781
Copy CRC FDFFC781
Track not present in AccurateRip database
Copy OK

Track 12

Filename E:\Rips\NWCD Uploads\Eminem - Revival (2017) {B0027762-02} [FLAC]\12 - Eminem - Framed.wav

Peak level 100.0 %
Extraction speed 9.6 X
Track quality 100.0 %
Test CRC 90BE595C
Copy CRC 90BE595C
Track not present in AccurateRip database
Copy OK

Track 13

Filename E:\Rips\NWCD Uploads\Eminem - Revival (2017) {B0027762-02} [FLAC]\13 - Eminem feat Kehlani - Nowhere Fast.wav

Pre-gap length 0:00:00.15

Peak level 97.4 %
Extraction speed 9.9 X
Track quality 100.0 %
Test CRC C7A814A8
Copy CRC C7A814A8
Track not present in AccurateRip database
Copy OK

Track 14

Filename E:\Rips\NWCD Uploads\Eminem - Revival (2017) {B0027762-02} [FLAC]\14 - Eminem - Heat.wav

Peak level 98.0 %
Extraction speed 8.6 X
Track quality 99.9 %
Test CRC 8D0D82ED
Copy CRC 8D0D82ED
Track not present in AccurateRip database
Copy OK

Track 15

Filename E:\Rips\NWCD Uploads\Eminem - Revival (2017) {B0027762-02} [FLAC]\15 - Eminem - Offended.wav

Peak level 98.9 %
Extraction speed 10.9 X
Track quality 100.0 %
Test CRC 78E60F0C
Copy CRC 78E60F0C
Track not present in AccurateRip database
Copy OK

Track 16

Filename E:\Rips\NWCD Uploads\Eminem - Revival (2017) {B0027762-02} [FLAC]\16 - Eminem feat. Pink - Need Me.wav

Peak level 97.8 %
Extraction speed 11.1 X
Track quality 100.0 %
Test CRC FE260BF5
Copy CRC FE260BF5
Track not present in AccurateRip database
Copy OK

Track 17

Filename E:\Rips\NWCD Uploads\Eminem - Revival (2017) {B0027762-02} [FLAC]\17 - Eminem - In Your Head.wav

Peak level 97.5 %
Extraction speed 10.5 X
Track quality 100.0 %
Test CRC 98606AB7
Copy CRC 98606AB7
Track not present in AccurateRip database
Copy OK

Track 18

Filename E:\Rips\NWCD Uploads\Eminem - Revival (2017) {B0027762-02} [FLAC]\18 - Eminem - Castle.wav

Peak level 97.5 %
Extraction speed 11.3 X
Track quality 100.0 %
Test CRC 9B649AB2
Copy CRC 9B649AB2
Track not present in AccurateRip database
Copy OK

Track 19

Filename E:\Rips\NWCD Uploads\Eminem - Revival (2017) {B0027762-02} [FLAC]\19 - Eminem - Arose.wav

Peak level 97.4 %
Extraction speed 11.5 X
Track quality 100.0 %
Test CRC 29B3550E
Copy CRC 29B3550E
Track not present in AccurateRip database
Copy OK


None of the tracks are present in the AccurateRip database

No errors occurred

End of status report

–– CUETools DB Plugin V2.1.6

[CTDB TOCID: Pk68KH6PNvCuoYTSYN5IOehqDXE-] found
Submit result: already submitted
Track | CTDB Status
1 | (52/52) Accurately ripped
2 | (52/52) Accurately ripped
3 | (52/52) Accurately ripped
4 | (52/52) Accurately ripped
5 | (52/52) Accurately ripped
6 | (52/52) Accurately ripped
7 | (52/52) Accurately ripped
8 | (52/52) Accurately ripped
9 | (52/52) Accurately ripped
10 | (52/52) Accurately ripped
11 | (52/52) Accurately ripped
12 | (52/52) Accurately ripped
13 | (52/52) Accurately ripped
14 | (52/52) Accurately ripped
15 | (52/52) Accurately ripped
16 | (52/52) Accurately ripped
17 | (51/52) Accurately ripped
18 | (51/52) Accurately ripped
19 | (52/52) Accurately ripped


==== Log checksum 0D434D54F38C8C877B68541D29CC312446F18C2BD5945CA10D664F231C326FA2 ====


Thanks to the Original customer.