Subcategories

Emma Kirkby, London Baroque - Handel in Italy: Solo Cantatas (2008) (Repost)

Posted By: tirexiss
Emma Kirkby, London Baroque - Handel in Italy: Solo Cantatas (2008) (Repost)

Emma Kirkby, London Baroque - Handel in Italy: Solo Cantatas (2008)
EAC | FLAC (image+.cue, log) | Covers Included | 67:23 | 361 MB
Genre: Classical | Label: BIS | Catalog: BIS-SACD-1695

This exciting programme is presented by Emma Kirkby and London Baroque, household names in the sphere of 'early music', and certainly no new-comers to th works of Handel. Indeed, when they last joined forces in a Handel programme the website MusicWeb International called the performances ones that 'make one wish that all Handel music making could be of this order', while the reviewer in BBC Music Magazine wrote 'Ive seldom been as moved by a recording, both music and performance'.

Emma Kirkby, London Baroque - Handel in Italy: Solo Cantatas (2008) (Repost)

Track List:

Georg Friedrich Handel (1685–1759)

[1]-[4] Notte placida e cheta, HWV 142 (1707)
[5]-[7] Un’ alma innamorata, HWV 173 (1707)
[8]-[11] Concerto a Quattro in D major
[12]-[14] Figlio d’alte speranze, HWV 113 (1706)
[15]-[24] Agrippina condotta a morire or Dunque sarà pur vero, HWV 110 (1709)

Performers:
Emma Kirkby, soprano
London Baroque
Ingrid Seifert (solo, HWV173) & Richard Gwilt (solo, HWV113), violins
Charles Medlam, violoncello
Terence Charlston, harpsichord

Exact Audio Copy V1.0 beta 3 from 29. August 2011

EAC extraction logfile from 14. December 2013, 16:37

Emma Kirkby, London Baroque / Handel in Italy

Used drive : HL-DT-STDVDRAM GSA-4083N Adapter: 1 ID: 0

Read mode : Secure
Utilize accurate stream : Yes
Defeat audio cache : Yes
Make use of C2 pointers : No

Read offset correction : 667
Overread into Lead-In and Lead-Out : No
Fill up missing offset samples with silence : Yes
Delete leading and trailing silent blocks : No
Null samples used in CRC calculations : Yes
Used interface : Native Win32 interface for Win NT & 2000

Used output format : User Defined Encoder
Selected bitrate : 896 kBit/s
Quality : High
Add ID3 tag : No
Command line compressor : C:\Program Files\Exact Audio Copy\Flac\flac.exe
Additional command line options : -V -8 %source%


TOC of the extracted CD

Track | Start | Length | Start sector | End sector
––––––––––––––––––––––––––––-
1 | 0:00.00 | 6:24.62 | 0 | 28861
2 | 6:24.62 | 2:30.53 | 28862 | 40164
3 | 8:55.40 | 3:38.08 | 40165 | 56522
4 | 12:33.48 | 2:41.18 | 56523 | 68615
5 | 15:14.66 | 6:37.20 | 68616 | 98410
6 | 21:52.11 | 5:13.28 | 98411 | 121913
7 | 27:05.39 | 1:47.29 | 121914 | 129967
8 | 28:52.68 | 1:40.15 | 129968 | 137482
9 | 30:33.08 | 1:27.56 | 137483 | 144063
10 | 32:00.64 | 1:34.42 | 144064 | 151155
11 | 33:35.31 | 1:05.69 | 151156 | 156099
12 | 34:41.25 | 4:40.55 | 156100 | 177154
13 | 39:22.05 | 2:39.00 | 177155 | 189079
14 | 42:01.05 | 2:47.31 | 189080 | 201635
15 | 44:48.36 | 0:54.17 | 201636 | 205702
16 | 45:42.53 | 3:02.56 | 205703 | 219408
17 | 48:45.34 | 0:48.74 | 219409 | 223082
18 | 49:34.33 | 2:26.53 | 223083 | 234085
19 | 52:01.11 | 1:00.61 | 234086 | 238646
20 | 53:01.72 | 5:28.29 | 238647 | 263275
21 | 58:30.26 | 5:03.69 | 263276 | 286069
22 | 63:34.20 | 0:56.54 | 286070 | 290323
23 | 64:30.74 | 1:57.22 | 290324 | 299120
24 | 66:28.21 | 0:54.67 | 299121 | 303237


Range status and errors

Selected range

Filename J:\New Music\Handel in Italy - Emma Kirkby, London Baroque\Handel in Italy.wav

Peak level 99.8 %
Extraction speed 2.8 X
Range quality 100.0 %
Test CRC 8AA7F065
Copy CRC 8AA7F065
Copy OK

No errors occurred


AccurateRip summary

Track 1 accurately ripped (confidence 9) [D0E4B79B] (AR v2)
Track 2 accurately ripped (confidence 9) [7CC80C37] (AR v2)
Track 3 accurately ripped (confidence 9) [38DE3F9F] (AR v2)
Track 4 accurately ripped (confidence 9) [6D88E770] (AR v2)
Track 5 accurately ripped (confidence 9) [D642CA7D] (AR v2)
Track 6 accurately ripped (confidence 9) [F7A41A6B] (AR v2)
Track 7 accurately ripped (confidence 9) [CB9CF429] (AR v2)
Track 8 accurately ripped (confidence 9) [9DD85A74] (AR v2)
Track 9 accurately ripped (confidence 9) [5E4B1926] (AR v2)
Track 10 accurately ripped (confidence 9) [70D3F2F6] (AR v2)
Track 11 accurately ripped (confidence 9) [D5C2B526] (AR v2)
Track 12 accurately ripped (confidence 9) [D6416FE1] (AR v2)
Track 13 accurately ripped (confidence 9) [0712FE2C] (AR v2)
Track 14 accurately ripped (confidence 9) [9FFEDF5B] (AR v2)
Track 15 accurately ripped (confidence 9) [3B38EB73] (AR v2)
Track 16 accurately ripped (confidence 9) [A343A0DC] (AR v2)
Track 17 accurately ripped (confidence 9) [CDFB2049] (AR v2)
Track 18 accurately ripped (confidence 9) [BCC6AAD5] (AR v2)
Track 19 accurately ripped (confidence 9) [0ED25682] (AR v2)
Track 20 accurately ripped (confidence 9) [60F0F431] (AR v2)
Track 21 accurately ripped (confidence 9) [EF547941] (AR v2)
Track 22 accurately ripped (confidence 9) [CB00A8CE] (AR v2)
Track 23 accurately ripped (confidence 9) [8B4E0ACD] (AR v2)
Track 24 accurately ripped (confidence 9) [263C19E3] (AR v2)

All tracks accurately ripped

End of status report

==== Log checksum FC6854A0D8E6C6CE8C4030A1DDED6DEF09892D73F28A8093BEDAE62CDB3507D3 ====

Thanks to the Original ripper A-Z!

Download: