Subcategories

Emma Kirkby, Roy Goodman, The Brandenburg Consort - Handel: Opera Arias and Overtures Vol.1 (1996)

Posted By: ArlegZ
Emma Kirkby, Roy Goodman, The Brandenburg Consort - Handel: Opera Arias and Overtures Vol.1 (1996)

Emma Kirkby, Roy Goodman, The Brandenburg Consort - Handel: Opera Arias and Overtures Vol.1 (1996)
EAC | FLAC | Image (Cue & Log) ~ 360 Mb | Total time: 75:39 | Scans included
Classical | Label: Hyperion | # CDA66860 | Recorded: 1995

The greater part of Handel's working life as a composer was devoted to writing and performing operas. In many ways this was the genre to which he owed his international renown: performances during his period of study in Venice won him an audience far greater than could be expected in London. Italian opera reached England around 1710, and the staging of Rinaldo in 1711 confirmed Italian as the language of the future for such ventures. This exciting recording from Emma Kirkby presents nine arias, from nine of the most enduring of Handel's Italian operas, alongside four overtures.

Performer:
Emma Kirkby, soprano
The Brandenburg Consort
Roy Goodman, conductor

Track List:
Almira HWV1
01. Overture 2: Second Overture in G minor
02. Act 3, Aria: Vedrai s' a tuo dispetto (Almira)
Rodrigo HWV5
03. Act 3, Aria: Perché viva il caro sposa (Esilena) Ah, sommi dei, cui la giustizia arruota
Rinaldo HWV7a
04. Act 2, Aria: Vo' far guerra, e vincer voglio (Armida)
Alastair Ross (harpsichord)
Silla HWV10
05. Overture Movement 1: Largo – Allegro
06. Overture Movement 2: Andante
Katharina Arfken (oboe)
Amadigi di Gaula HWV11
07. Act 1, Aria: Ah! spietato! e non ti muove (Melissa) Il crudel m' abbandona, e mi detesta
Katharina Arfken (oboe)
08. Act 2, Aria: Desterò dall' empia Dite (Melissa) Mi deride l'amante
Robert Farley (trumpet)
Giulio Cesare in Egitto HWV17
09. Act 2, Sinfonia and Aria: V' adoro, pupille (Cleopatra)
Tamerlano HWV18
10. Overture Movement 1: [Largo] – Allegro
11. Overture Movement 2: Adagio – Menuet
12. Act 3, Aria: Cor di padre, e cor d' amante (Asteria)
Rodelinda, regina de' Longobardi HWV19
13. Act 1, Aria: Ombre, piante, urne funeste! (Rodelinda)
Rachel Brown (flute)
Scipione HWV20
14. Overture Movement 1: [Largo] – Allegro
15. Overture Movement 2: Allegro
16. Act 1, Interlude: March
17. Act 2, Aria: Scoglio d' immota fronte (Berenice)


Exact Audio Copy V1.3 from 2. September 2016

EAC extraction logfile from 6. June 2019, 13:24

Emma Kirkby; Roy Goodman / Handel - Opera Arias and Overtures

Used drive : ATAPI iHAS124 F Adapter: 1 ID: 0

Read mode : Secure
Utilize accurate stream : Yes
Defeat audio cache : Yes
Make use of C2 pointers : No

Read offset correction : 6
Overread into Lead-In and Lead-Out : No
Fill up missing offset samples with silence : Yes
Delete leading and trailing silent blocks : No
Null samples used in CRC calculations : Yes
Used interface : Native Win32 interface for Win NT & 2000

Used output format : User Defined Encoder
Selected bitrate : 1024 kBit/s
Quality : High
Add ID3 tag : No
Command line compressor : C:\Program Files (x86)\Exact Audio Copy\FLAC\FLAC.EXE
Additional command line options : -6 -V -T "ARTIST=%artist%" -T "TITLE=%title%" -T "ALBUM=%albumtitle%" -T "DATE=%year%" -T "TRACKNUMBER=%tracknr%" -T "GENRE=%genre%" -T "COMMENT=%comment%" -T "BAND=%albuminterpret%" -T "ALBUMARTIST=%albuminterpret%" -T "COMPOSER=%composer%" %haslyrics%–tag-from-file=LYRICS="%lyricsfile%"%haslyrics% -T "DISCNUMBER=%cdnumber%" -T "TOTALDISCS=%totalcds%" -T "TOTALTRACKS=%numtracks%" %hascover%–picture="%coverfile%"%hascover% %source% -o %dest%


TOC of the extracted CD

Track | Start | Length | Start sector | End sector
––––––––––––––––––––––––––––-
1 | 0:00.00 | 4:30.25 | 0 | 20274
2 | 4:30.25 | 4:42.37 | 20275 | 41461
3 | 9:12.62 | 6:10.10 | 41462 | 69221
4 | 15:22.72 | 5:15.45 | 69222 | 92891
5 | 20:38.42 | 4:38.73 | 92892 | 113814
6 | 25:17.40 | 2:05.72 | 113815 | 123261
7 | 27:23.37 | 6:08.23 | 123262 | 150884
8 | 33:31.60 | 5:34.27 | 150885 | 175961
9 | 39:06.12 | 5:25.25 | 175962 | 200361
10 | 44:31.37 | 2:50.45 | 200362 | 213156
11 | 47:22.07 | 1:49.35 | 213157 | 221366
12 | 49:11.42 | 8:27.70 | 221367 | 259461
13 | 57:39.37 | 5:42.33 | 259462 | 285144
14 | 63:21.70 | 3:52.57 | 285145 | 302601
15 | 67:14.52 | 2:00.23 | 302602 | 311624
16 | 69:15.00 | 1:13.45 | 311625 | 317144
17 | 70:28.45 | 5:08.67 | 317145 | 340311


Range status and errors

Selected range

Filename C:\EACRip\ARIAS\Handel - Opera Arias and Overtures (Emma Kirkby, Roy Goodman) (1996)\Handel - Opera Arias and Overtures - Emma Kirkby, Roy Goodman.wav

Peak level 95.3 %
Extraction speed 9.9 X
Range quality 100.0 %
Test CRC 875EC726
Copy CRC 875EC726
Copy OK

No errors occurred


AccurateRip summary

Track 1 accurately ripped (confidence 15) [008FC702] (AR v2)
Track 2 accurately ripped (confidence 15) [CB988C4E] (AR v2)
Track 3 accurately ripped (confidence 15) [070E5881] (AR v2)
Track 4 accurately ripped (confidence 15) [582008DE] (AR v2)
Track 5 accurately ripped (confidence 15) [4FD07BBA] (AR v2)
Track 6 accurately ripped (confidence 15) [BAEDB69B] (AR v2)
Track 7 accurately ripped (confidence 15) [65B7AAE0] (AR v2)
Track 8 accurately ripped (confidence 15) [F8DC8DA0] (AR v2)
Track 9 accurately ripped (confidence 15) [40CA9C5D] (AR v2)
Track 10 accurately ripped (confidence 15) [7099C0B3] (AR v2)
Track 11 accurately ripped (confidence 15) [A88583E0] (AR v2)
Track 12 accurately ripped (confidence 14) [8FB1B533] (AR v2)
Track 13 accurately ripped (confidence 15) [BE518C1D] (AR v2)
Track 14 accurately ripped (confidence 14) [947C1B5D] (AR v2)
Track 15 accurately ripped (confidence 15) [2D590604] (AR v2)
Track 16 accurately ripped (confidence 15) [3CCE7BC9] (AR v2)
Track 17 accurately ripped (confidence 15) [27FA7EC5] (AR v2)

All tracks accurately ripped

End of status report

–– CUETools DB Plugin V2.1.6

[CTDB TOCID: 0VMnnCBTf4KBzmIcAIgvkxsArMY-] found
Submit result: 0VMnnCBTf4KBzmIcAIgvkxsArMY- has been confirmed
Track | CTDB Status
1 | (17/19) Accurately ripped
2 | (19/19) Accurately ripped
3 | (19/19) Accurately ripped
4 | (19/19) Accurately ripped
5 | (19/19) Accurately ripped
6 | (19/19) Accurately ripped
7 | (19/19) Accurately ripped
8 | (19/19) Accurately ripped
9 | (19/19) Accurately ripped
10 | (19/19) Accurately ripped
11 | (19/19) Accurately ripped
12 | (19/19) Accurately ripped
13 | (19/19) Accurately ripped
14 | (19/19) Accurately ripped
15 | (19/19) Accurately ripped
16 | (19/19) Accurately ripped
17 | (18/19) Accurately ripped


==== Log checksum 6D48B9E628CB864E20D6404398EA15BC54C699500B047064B666CB76EAFDD494 ====

Emma Kirkby, Roy Goodman, The Brandenburg Consort - Handel: Opera Arias and Overtures Vol.1 (1996)

Thanks to the original releaser