Subcategories

Emmanuelle Haim, Le Concert d'Astree - Bach: Magnificat; Handel: Dixit Dominus (2007)

Posted By: ArlegZ
Emmanuelle Haim, Le Concert d'Astree - Bach: Magnificat; Handel: Dixit Dominus (2007)

Emmanuelle Haïm, Le Concert d`Astrée - Bach: Magnificat; Handel: Dixit Dominus (2007)
EAC | FLAC | Image (Cue & Log) ~ 263 Mb | Total time: 56:05 | Scans included
Classical | Label: Virgin Classics | # 395241 2 | Recorded: 2006

What a wonderful contrast! Handel’s Dixit Dominus and Bach’s Magnificat represent the two oft-compared composers at Dixit . He had already written two Italian operas, and his career path clearly pointed in that direction. The Dixit is as extravagant as Bach’s Magnificat is controlled. The two pieces are such a good fit that one wonders why they haven’t turned up together more frequently, if, in fact, they have at all.
Good ideas do not always yield good results, but, happily, this one does. Haîm leads splendid performances that abound in energy and excitement. Haîm’s solo quintet (two sopranos in the Magnificat) is splendid, and the midsized (6-5-6-6-6), mixed chorus fully capable of meeting the challenges posed not only by the composers but also by the director. Handel’s Gloria Patri, the finale of the Dixit , brings the whole disc to a triumphant close with a breath-taking burst of corporate virtuosity. Virgin’s engineers round off a most satisfying effort.
(George Chien)

Performers:
Natalie Dessay (Soprano I)
Karine Deshayes (Soprano II)
Philippe Jaroussky (Alto)
Toby Spence (Tenor)
Laurent Naouri (Bass)
Le Concert d'Astrée
Conductor - Emmanuelle Haïm

Track List:
Bach - Magnificat In D Major, BWV 243:
01. Coro: Magnificat anima mea Dominum
02. Aria Soprano II: Et exsultavit spiritus meus
03. Aria Soprano I: Quia respexit
04. Coro: Omnes generationes
05. Aria Basso: Quia fecit mihi magna
06. Aria (Duetto) Alto, Tenore: Et misericordia
07. Coro: Fecit potentiam
08. Aria Tenore: Deposuit potentes
09. Aria Alto: Esurientes implevit bonis
10. Aria (Terzetto) Soprano I & II, Alto: Suscepit Israel
11. Coro: Sicut locutus est
12. Coro: Gloria Patri
Handel - Dixit Dominus, HWV 232:
13. Dixit Dominus. Coro: Dixit Dominus Domino meo
14. Aria Alto: Virgam virtutis tuae
15. Aria Soprano I: Tecum principium
16. Coro: Juravit Dominus
17. Coro: Tu es sacerdos
18. Soli, Coro: Dominus a dextris tuis
19. Sopranos I & II, Coro: De torrente in via bibet
20. Coro: Gloria Patri


Exact Audio Copy V1.3 from 2. September 2016

EAC extraction logfile from 3. October 2017, 19:53

Emmanuelle Haïm, Le Concert d'Astrée / Bach - Magnificat, Handel - Dixit Dominus

Used drive : PIONEER DVD-RW DVR-218L Adapter: 1 ID: 0

Read mode : Secure
Utilize accurate stream : Yes
Defeat audio cache : Yes
Make use of C2 pointers : No

Read offset correction : 6
Overread into Lead-In and Lead-Out : No
Fill up missing offset samples with silence : Yes
Delete leading and trailing silent blocks : No
Null samples used in CRC calculations : Yes
Used interface : Native Win32 interface for Win NT & 2000

Used output format : User Defined Encoder
Selected bitrate : 128 kBit/s
Quality : High
Add ID3 tag : No
Command line compressor : C:\Program Files\Exact Audio Copy\Flac\flac.exe
Additional command line options : -V -8 -T "Date=%year%" -T "Genre=%genre%" %source%


TOC of the extracted CD

Track | Start | Length | Start sector | End sector
––––––––––––––––––––––––––––-
1 | 0:00.00 | 2:51.36 | 0 | 12860
2 | 2:51.36 | 2:14.15 | 12861 | 22925
3 | 5:05.51 | 2:31.26 | 22926 | 34276
4 | 7:37.02 | 1:08.55 | 34277 | 39431
5 | 8:45.57 | 1:54.27 | 39432 | 48008
6 | 10:40.09 | 3:21.51 | 48009 | 63134
7 | 14:01.60 | 1:37.29 | 63135 | 70438
8 | 15:39.14 | 1:50.58 | 70439 | 78746
9 | 17:29.72 | 3:01.56 | 78747 | 92377
10 | 20:31.53 | 1:42.27 | 92378 | 100054
11 | 22:14.05 | 1:37.25 | 100055 | 107354
12 | 23:51.30 | 1:59.23 | 107355 | 116302
13 | 25:50.53 | 5:17.17 | 116303 | 140094
14 | 31:07.70 | 2:38.72 | 140095 | 152016
15 | 33:46.67 | 3:10.72 | 152017 | 166338
16 | 36:57.64 | 1:59.73 | 166339 | 175336
17 | 38:57.62 | 1:30.47 | 175337 | 182133
18 | 40:28.34 | 6:33.73 | 182134 | 211681
19 | 47:02.32 | 3:23.45 | 211682 | 226951
20 | 50:26.02 | 5:39.66 | 226952 | 252442
21 | 58:37.68 | 6:36.63 | 263843 | 293605


Range status and errors

Selected range

Filename C:\Program Files\Exact Audio Copy\Flac\Bach - Magnificat, Handel - Dixit Dominus.wav

Peak level 100.0 %
Extraction speed 1.9 X
Range quality 100.0 %
Test CRC ECA3E9C8
Copy CRC ECA3E9C8
Copy OK

No errors occurred


AccurateRip summary

Track 1 accurately ripped (confidence 15) [E2AB54BE] (AR v2)
Track 2 accurately ripped (confidence 16) [8FC22E33] (AR v2)
Track 3 accurately ripped (confidence 16) [8712740B] (AR v2)
Track 4 accurately ripped (confidence 16) [CD7C1D86] (AR v2)
Track 5 accurately ripped (confidence 16) [88F5CAC2] (AR v2)
Track 6 accurately ripped (confidence 16) [810F1D7E] (AR v2)
Track 7 accurately ripped (confidence 16) [BCABA885] (AR v2)
Track 8 accurately ripped (confidence 16) [3B9B0FA3] (AR v2)
Track 9 accurately ripped (confidence 16) [FF38DA14] (AR v2)
Track 10 accurately ripped (confidence 16) [B4F209DA] (AR v2)
Track 11 accurately ripped (confidence 16) [8526ED1C] (AR v2)
Track 12 accurately ripped (confidence 16) [18BDCBB9] (AR v2)
Track 13 accurately ripped (confidence 16) [FED91414] (AR v2)
Track 14 accurately ripped (confidence 16) [9CF51A8E] (AR v2)
Track 15 accurately ripped (confidence 16) [285D3B96] (AR v2)
Track 16 accurately ripped (confidence 16) [7B95A12D] (AR v2)
Track 17 accurately ripped (confidence 15) [8CB40122] (AR v2)
Track 18 accurately ripped (confidence 14) [4CDA0B16] (AR v2)
Track 19 accurately ripped (confidence 16) [92339EF6] (AR v2)
Track 20 accurately ripped (confidence 16) [049E4319] (AR v2)

All tracks accurately ripped

End of status report

==== Log checksum CC8450599F547B4055DFA0F7BAED5FB3299A4F0BD30398CF03A3FD110CD3FE8C ====

Emmanuelle Haim, Le Concert d'Astree - Bach: Magnificat; Handel: Dixit Dominus (2007)