Subcategories
Tags
Language
Tags

Ensemble Correspondances, Sébastien Daucé - Charpentier: Pastorale de Noël (2016)

Posted By: tirexiss
Ensemble Correspondances, Sébastien Daucé - Charpentier: Pastorale de Noël (2016)

Ensemble Correspondances, Sébastien Daucé - Charpentier: Pastorale de Noël (2016)
EAC | FLAC (image+.cue, log) | Covers Included | 81:19 | 472 MB
Genre: Classical, Sacred | Label: Harmonia Mundi | Catalog: HMC 902247

French Baroque music has never achieved the general familiarity of its German and Italian cousins, but that's not for any lack of trying on the part of conductor Sébastien Daucé and his Ensemble Correspondances. What you get here is a Pastorale de Noël – a fairly short but grand Christmas narrative – plus one set of "Antiennes de O," or O Anthems, so called because each one begins with the word "O." The second half of the Pastorale was revised twice, and the two later versions are included here. The anthems are in a slightly different style: they lack the paired violins and the singsong melodies of the Pastorale, a genre that evolved from secular roots (the stories are about shepherds and shepherdesses, which didn't take a lot of massaging to be applied to the Christmas story). So, there's some scholarly subtlety on display here, but the main attraction – the complete Pastorale as performed on the album's first 22 tracks – is absolutely gorgeous. It consists of alternating solos and tutti, many of them very short and contrasting brilliantly in rhythm, texture, and melodic shape. Sample several of them in a row for the effect: it's kaleidoscopic and joyous. You might try a track including countertenor Stephen Collardelle (such as "Cette nuit d'une vierge"): his voice is distinctive indeed, but may not be to all tastes. Daucé and his group of 19 performers (ten players and nine singers) achieve a sound that's at once sumptuous and sensuous. If you know Charpentier only through the popular Messe de minuit – or don't know him at all – you are in for a major treat.

Ensemble Correspondances, Sébastien Daucé - Charpentier: Pastorale de Noël (2016)

Track List:

Pastorale sur la Naissance de Notre Seigneur Jésus-Christ. Première version H. 483
1ère partie
01. Ouverture 1’05
02. Scène 1 : Que nos soupirs, Seigneur, réveille tes bontés [CB] 1’33
03. Il est temps Seigneur que tu paraisses [CB, NB] 2’58
04. Ecoutez-moi, peuple fidèle [EB] 2’19
05. Cieux, répandez notre rosée 2’09
06. Simphonie de la Nuit 4’20
07. Scène 2 : Régnez, calme profond [CW] 2’14
08. Dans ces lieux écartés [DC, SC, CB, VL, CW, EB] 3’02
09. De l’univers entier, apprenez le bonheur [CW] 1’35
10. Scène 3 : Célestes compagnons [CW] 0’13
11. Scène 4 : Gloire dans les hauts lieux 1’15
12. Paix en terre [CB] 2’22

2e partie
13. Scène 5 : Pasteurs, éveillez-vous [CB, VL] 0’27
14. Hélas, cette brebis si chère [VL] 2’08
15. Heureuse, mille et mille fois [VL] 0’34
16. Scène 6 : Joignons nos flûtes 1’01
17. Ne sont-ce pas nos bergers ? [CB, VL] 1’19
18. Cette nuit d’une vierge [SC, CB, VL] 1’18
19. Oui le loup infernal [RB] 0’28
20. Joignons nos flûtes 1’01
21. Ritournelle 0’48
22. C’est de l’homme aujourd’hui [VL] 1’44

Grandes Antiennes O de l’Avent
23. O Salutaris, H. 36 [NB, DC, SC] 2’03
24. O Sapienta, H. 37 [RB, DC, SC] 2’32
25. O Adonai, H. 38 [NB, DC, LR] 1’58
26. O Radix Jesse, H.39 1’41
27. Or nous dites Ma rie (noël instrumental) 2’39
28. O clavis David, H. 40 2’03
29. O Oriens, H. 41 1’50
30. O Rex Gentium, H. 42 [SC] 1’32
31. O Emmanuel, H. 43 1’27
32. Or nous dites Marie (Ballard) [VL] 4’14

Pastorale, 2e partie, seconde version H.483a
33. Scène 5 : Heureux bergers, Scène 6 [RB] 2’30
34. Mais qui ne serait pas touché [CW] 1’52
35. Non, l’haleine secourable 2’22
36. Scène 7 : Votre tendresse est équitable [CW] 1’43
37. Chantez donc à l’envie [CW] 0’49
38. Faisons de nos joyeux cantiques 1’18
39. Menuet de la bergère [VL, CW] 2’38
40. Ne laissons point sans louanges 1’42

Pastorale, 2e partie, troisème version H.483b
41. Le Soleil recommence à dorer nos montagnes [SC] 2’13
42. Belle mais imparfaite figure [VL, CW] 0’49
43. Oui Seigneur [RB] 0’46
44. Source de lumières et de grâce 4’24

Performers:
Ensemble Correspondances
Sébastien Daucé, conductor

Violaine Le Chenadec, dessus VL
Caroline Weynants, dessus CW
Caroline Dangin Bardot, dessus CB
Lucile Richardot, bas-dessus LR
Stephen Collardelle, haute-contre SC
Davy Cornillot, taille DC
Etienne Bazola, basse-taille EB
Renaud Bres, basse RB
Nicolas Brooymans, basse NB

Béatrice Linon, violon
Alice Julien-Laferriere, violon
Julien Martin, flûte
Matthieu Bertaud, flûte
Mathilde Vialle, viole
Julien Hainsworth, basse de violon
Diego Salamanca, luth
Thibaut Roussel, théorbe
Arnaud De Pasquale, clavecin
Sébastien Daucé, orgue & direction

Exact Audio Copy V1.2 from 12. August 2016

EAC extraction logfile from 22. January 2018, 18:01

Sébastien Daucé, Ensemble Correspondances / Pastorale de Noël

Used drive : MATSHITADVD-RAM UJ8G6 Adapter: 1 ID: 0

Read mode : Secure
Utilize accurate stream : Yes
Defeat audio cache : Yes
Make use of C2 pointers : No

Read offset correction : 103
Overread into Lead-In and Lead-Out : No
Fill up missing offset samples with silence : Yes
Delete leading and trailing silent blocks : No
Null samples used in CRC calculations : Yes
Used interface : Native Win32 interface for Win NT & 2000

Used output format : User Defined Encoder
Selected bitrate : 768 kBit/s
Quality : High
Add ID3 tag : No
Command line compressor : C:\Program Files (x86)\Exact Audio Copy\Flac\flac.exe
Additional command line options : -6 -V -T "ARTIST=%artist%" -T "TITLE=%title%" -T "ALBUM=%albumtitle%" -T "DATE=%year%" -T "TRACKNUMBER=%tracknr%" -T "GENRE=%genre%" -T "COMMENT=%comment%" -T "BAND=%albuminterpret%" -T "ALBUMARTIST=%albuminterpret%" -T "COMPOSER=%composer%" %haslyrics%–tag-from-file=LYRICS="%lyricsfile%"%haslyrics% -T "DISCNUMBER=%cdnumber%" -T "TOTALDISCS=%totalcds%" -T "TOTALTRACKS=%numtracks%" %hascover%–picture="%coverfile%"%hascover% %source% -o %dest%


TOC of the extracted CD

Track | Start | Length | Start sector | End sector
––––––––––––––––––––––––––––-
1 | 0:00.00 | 1:05.40 | 0 | 4914
2 | 1:05.40 | 1:33.47 | 4915 | 11936
3 | 2:39.12 | 2:57.56 | 11937 | 25267
4 | 5:36.68 | 2:18.51 | 25268 | 35668
5 | 7:55.44 | 2:09.43 | 35669 | 45386
6 | 10:05.12 | 4:21.10 | 45387 | 64971
7 | 14:26.22 | 2:13.13 | 64972 | 74959
8 | 16:39.35 | 3:02.04 | 74960 | 88613
9 | 19:41.39 | 1:35.18 | 88614 | 95756
10 | 21:16.57 | 0:13.39 | 95757 | 96770
11 | 21:30.21 | 1:15.41 | 96771 | 102436
12 | 22:45.62 | 2:22.34 | 102437 | 113120
13 | 25:08.21 | 0:27.25 | 113121 | 115170
14 | 25:35.46 | 2:08.48 | 115171 | 124818
15 | 27:44.19 | 0:34.47 | 124819 | 127415
16 | 28:18.66 | 1:01.26 | 127416 | 132016
17 | 29:20.17 | 1:19.37 | 132017 | 137978
18 | 30:39.54 | 1:18.51 | 137979 | 143879
19 | 31:58.30 | 0:28.41 | 143880 | 146020
20 | 32:26.71 | 1:01.19 | 146021 | 150614
21 | 33:28.15 | 0:48.22 | 150615 | 154236
22 | 34:16.37 | 1:44.57 | 154237 | 162093
23 | 36:01.19 | 2:03.12 | 162094 | 171330
24 | 38:04.31 | 2:32.74 | 171331 | 182804
25 | 40:37.30 | 1:58.64 | 182805 | 191718
26 | 42:36.19 | 1:43.67 | 191719 | 199510
27 | 44:20.11 | 2:37.11 | 199511 | 211296
28 | 46:57.22 | 2:03.17 | 211297 | 220538
29 | 49:00.39 | 1:50.74 | 220539 | 228862
30 | 50:51.38 | 1:32.61 | 228863 | 235823
31 | 52:24.24 | 1:27.40 | 235824 | 242388
32 | 53:51.64 | 4:14.02 | 242389 | 261440
33 | 58:05.66 | 2:30.61 | 261441 | 272751
34 | 60:36.52 | 1:52.01 | 272752 | 281152
35 | 62:28.53 | 2:22.35 | 281153 | 291837
36 | 64:51.13 | 1:43.73 | 291838 | 299635
37 | 66:35.11 | 0:50.03 | 299636 | 303388
38 | 67:25.14 | 1:18.64 | 303389 | 309302
39 | 68:44.03 | 2:38.50 | 309303 | 321202
40 | 71:22.53 | 1:42.26 | 321203 | 328878
41 | 73:05.04 | 2:13.58 | 328879 | 338911
42 | 75:18.62 | 0:49.32 | 338912 | 342618
43 | 76:08.19 | 0:46.32 | 342619 | 346100
44 | 76:54.51 | 4:24.15 | 346101 | 365915


Range status and errors

Selected range

Filename C:\Users\Roy\Music\CHARPENTIER - Pastorale de Noël\CD (FLAC + CUE)\Marc-Antoine Charpentier - Pastorale de Noël.wav

Peak level 98.4 %
Extraction speed 4.5 X
Range quality 100.0 %
Test CRC 035C8340
Copy CRC 035C8340
Copy OK

No errors occurred


AccurateRip summary

Track 1 accurately ripped (confidence 6) [724AACDA] (AR v2)
Track 2 accurately ripped (confidence 6) [1B0E86A6] (AR v2)
Track 3 accurately ripped (confidence 6) [FE2CAD03] (AR v2)
Track 4 accurately ripped (confidence 6) [8E6D3BC8] (AR v2)
Track 5 accurately ripped (confidence 6) [069CD002] (AR v2)
Track 6 accurately ripped (confidence 6) [51DD6CCE] (AR v2)
Track 7 accurately ripped (confidence 6) [CCB5592D] (AR v2)
Track 8 accurately ripped (confidence 6) [F1623937] (AR v2)
Track 9 accurately ripped (confidence 6) [E1591076] (AR v2)
Track 10 accurately ripped (confidence 6) [DF0847C4] (AR v2)
Track 11 accurately ripped (confidence 6) [64877273] (AR v2)
Track 12 accurately ripped (confidence 6) [60FAC940] (AR v2)
Track 13 accurately ripped (confidence 6) [18FD03EB] (AR v2)
Track 14 accurately ripped (confidence 6) [BC5C19D1] (AR v2)
Track 15 accurately ripped (confidence 6) [22121BDD] (AR v2)
Track 16 accurately ripped (confidence 6) [C364EBFC] (AR v2)
Track 17 accurately ripped (confidence 6) [E67D66D8] (AR v2)
Track 18 accurately ripped (confidence 6) [3B5C94CD] (AR v2)
Track 19 accurately ripped (confidence 6) [FEDA2172] (AR v2)
Track 20 accurately ripped (confidence 6) [61D5FCA4] (AR v2)
Track 21 accurately ripped (confidence 6) [89EF909F] (AR v2)
Track 22 accurately ripped (confidence 6) [1D888A6C] (AR v2)
Track 23 accurately ripped (confidence 6) [25BC7D13] (AR v2)
Track 24 accurately ripped (confidence 6) [7099D8AD] (AR v2)
Track 25 accurately ripped (confidence 6) [5B709703] (AR v2)
Track 26 accurately ripped (confidence 6) [43242F3C] (AR v2)
Track 27 accurately ripped (confidence 6) [BC603760] (AR v2)
Track 28 accurately ripped (confidence 6) [7F33F4EC] (AR v2)
Track 29 accurately ripped (confidence 6) [A30DBCD7] (AR v2)
Track 30 accurately ripped (confidence 6) [88ABD38A] (AR v2)
Track 31 accurately ripped (confidence 6) [EAB92AA9] (AR v2)
Track 32 accurately ripped (confidence 6) [BEAD42C5] (AR v2)
Track 33 accurately ripped (confidence 6) [A3E27385] (AR v2)
Track 34 accurately ripped (confidence 6) [F65FDF61] (AR v2)
Track 35 accurately ripped (confidence 6) [8A8A287A] (AR v2)
Track 36 accurately ripped (confidence 6) [BD2920DF] (AR v2)
Track 37 accurately ripped (confidence 6) [C622BF22] (AR v2)
Track 38 accurately ripped (confidence 6) [586EF900] (AR v2)
Track 39 accurately ripped (confidence 6) [64298475] (AR v2)
Track 40 accurately ripped (confidence 6) [300B86CB] (AR v2)
Track 41 accurately ripped (confidence 6) [EB2ABEE2] (AR v2)
Track 42 accurately ripped (confidence 6) [C5A28BBF] (AR v2)
Track 43 accurately ripped (confidence 6) [A498E65A] (AR v2)
Track 44 accurately ripped (confidence 6) [CF74A9A9] (AR v2)

All tracks accurately ripped

End of status report

–– CUETools DB Plugin V2.1.6

[CTDB TOCID: SHnuhSzKdtvm23bFcAJUm0naWSs-] found
Submit result: SHnuhSzKdtvm23bFcAJUm0naWSs- has been confirmed
Track | CTDB Status
1 | (20/20) Accurately ripped
2 | (20/20) Accurately ripped
3 | (20/20) Accurately ripped
4 | (20/20) Accurately ripped
5 | (20/20) Accurately ripped
6 | (20/20) Accurately ripped
7 | (20/20) Accurately ripped
8 | (20/20) Accurately ripped
9 | (20/20) Accurately ripped
10 | (20/20) Accurately ripped
11 | (20/20) Accurately ripped
12 | (20/20) Accurately ripped
13 | (20/20) Accurately ripped
14 | (20/20) Accurately ripped
15 | (20/20) Accurately ripped
16 | (20/20) Accurately ripped
17 | (20/20) Accurately ripped
18 | (20/20) Accurately ripped
19 | (20/20) Accurately ripped
20 | (20/20) Accurately ripped
21 | (20/20) Accurately ripped
22 | (20/20) Accurately ripped
23 | (20/20) Accurately ripped
24 | (20/20) Accurately ripped
25 | (20/20) Accurately ripped
26 | (20/20) Accurately ripped
27 | (20/20) Accurately ripped
28 | (20/20) Accurately ripped
29 | (20/20) Accurately ripped
30 | (20/20) Accurately ripped
31 | (20/20) Accurately ripped
32 | (20/20) Accurately ripped
33 | (20/20) Accurately ripped
34 | (20/20) Accurately ripped
35 | (20/20) Accurately ripped
36 | (20/20) Accurately ripped
37 | (20/20) Accurately ripped
38 | (20/20) Accurately ripped
39 | (20/20) Accurately ripped
40 | (20/20) Accurately ripped
41 | (20/20) Accurately ripped
42 | (20/20) Accurately ripped
43 | (20/20) Accurately ripped
44 | (20/20) Accurately ripped


==== Log checksum 5439A51528E2D5566CB11150C34024FA2EAD439908EF76F9ABDADEAB5CE3FA0C ====

[CUETools log; Date: 02.03.2018 21:41:49; Version: 2.1.5]
[CTDB TOCID: SHnuhSzKdtvm23bFcAJUm0naWSs-] found.
Track | CTDB Status
1 | (22/22) Accurately ripped
2 | (22/22) Accurately ripped
3 | (22/22) Accurately ripped
4 | (22/22) Accurately ripped
5 | (22/22) Accurately ripped
6 | (22/22) Accurately ripped
7 | (22/22) Accurately ripped
8 | (22/22) Accurately ripped
9 | (22/22) Accurately ripped
10 | (22/22) Accurately ripped
11 | (22/22) Accurately ripped
12 | (22/22) Accurately ripped
13 | (22/22) Accurately ripped
14 | (22/22) Accurately ripped
15 | (22/22) Accurately ripped
16 | (22/22) Accurately ripped
17 | (22/22) Accurately ripped
18 | (22/22) Accurately ripped
19 | (22/22) Accurately ripped
20 | (22/22) Accurately ripped
21 | (22/22) Accurately ripped
22 | (22/22) Accurately ripped
23 | (22/22) Accurately ripped
24 | (22/22) Accurately ripped
25 | (22/22) Accurately ripped
26 | (22/22) Accurately ripped
27 | (22/22) Accurately ripped
28 | (22/22) Accurately ripped
29 | (22/22) Accurately ripped
30 | (22/22) Accurately ripped
31 | (22/22) Accurately ripped
32 | (22/22) Accurately ripped
33 | (22/22) Accurately ripped
34 | (22/22) Accurately ripped
35 | (22/22) Accurately ripped
36 | (22/22) Accurately ripped
37 | (22/22) Accurately ripped
38 | (22/22) Accurately ripped
39 | (22/22) Accurately ripped
40 | (22/22) Accurately ripped
41 | (22/22) Accurately ripped
42 | (22/22) Accurately ripped
43 | (22/22) Accurately ripped
44 | (22/22) Accurately ripped
[AccurateRip ID: 007b9e65-0eb27e9c-99130e2c] found.
Track [ CRC | V2 ] Status
01 [fa2bce59|724aacda] (0+7/7) Accurately ripped
02 [d7788b1f|1b0e86a6] (0+7/7) Accurately ripped
03 [d164457a|fe2cad03] (0+7/7) Accurately ripped
04 [717ed596|8e6d3bc8] (0+7/7) Accurately ripped
05 [87246d68|069cd002] (0+7/7) Accurately ripped
06 [dc50724d|51dd6cce] (0+7/7) Accurately ripped
07 [95fce103|ccb5592d] (0+7/7) Accurately ripped
08 [9a9aea66|f1623937] (0+7/7) Accurately ripped
09 [b434e434|e1591076] (0+7/7) Accurately ripped
10 [47a583ac|df0847c4] (0+7/7) Accurately ripped
11 [dba1f2b6|64877273] (0+7/7) Accurately ripped
12 [508cde74|60fac940] (0+7/7) Accurately ripped
13 [2faeb257|18fd03eb] (0+7/7) Accurately ripped
14 [84a16cc0|bc5c19d1] (0+7/7) Accurately ripped
15 [dd2f4ac0|22121bdd] (0+7/7) Accurately ripped
16 [ebac43d1|c364ebfc] (0+7/7) Accurately ripped
17 [21c7ab81|e67d66d8] (0+7/7) Accurately ripped
18 [f1ad91c8|3b5c94cd] (0+7/7) Accurately ripped
19 [631be214|feda2172] (0+7/7) Accurately ripped
20 [89bde5ce|61d5fca4] (0+7/7) Accurately ripped
21 [b1e62dc1|89ef909f] (0+7/7) Accurately ripped
22 [7b059636|1d888a6c] (0+7/7) Accurately ripped
23 [85783c7f|25bc7d13] (0+7/7) Accurately ripped
24 [6541f87b|7099d8ad] (0+7/7) Accurately ripped
25 [ffd1b385|5b709703] (0+7/7) Accurately ripped
26 [5b0c78fd|43242f3c] (0+7/7) Accurately ripped
27 [47354cdb|bc603760] (0+7/7) Accurately ripped
28 [2c901344|7f33f4ec] (0+7/7) Accurately ripped
29 [603f2bfd|a30dbcd7] (0+7/7) Accurately ripped
30 [26a10525|88abd38a] (0+7/7) Accurately ripped
31 [41b4376a|eab92aa9] (0+7/7) Accurately ripped
32 [ba6e2d79|bead42c5] (0+7/7) Accurately ripped
33 [ec87656f|a3e27385] (0+7/7) Accurately ripped
34 [48870cf1|f65fdf61] (0+7/7) Accurately ripped
35 [943bce8e|8a8a287a] (0+7/7) Accurately ripped
36 [1da555a2|bd2920df] (0+7/7) Accurately ripped
37 [3c2a6644|c622bf22] (0+7/7) Accurately ripped
38 [eb6c24db|586ef900] (0+7/7) Accurately ripped
39 [8bbe5e32|64298475] (0+7/7) Accurately ripped
40 [5d0e08d8|300b86cb] (0+7/7) Accurately ripped
41 [cbc00460|eb2abee2] (0+7/7) Accurately ripped
42 [5589c507|c5a28bbf] (0+7/7) Accurately ripped
43 [5fe0ca6c|a498e65a] (0+7/7) Accurately ripped
44 [b13c03ae|cf74a9a9] (0+7/7) Accurately ripped

Track Peak [ CRC32 ] [W/O NULL] [ LOG ]
– 98,4 [035C8340] [F74B1E11] CRC32
01 53,0 [80A0EEA5] [6E47B883]
02 54,6 [BCD08665] [BBA78803]
03 97,9 [3ECD3AAC] [C2BC11DD]
04 88,9 [CE9FF052] [78739FC1]
05 98,4 [B6C6C9EA] [BFB691E4]
06 26,7 [EF2E267C] [AAA4E045]
07 98,3 [4DB3765F] [22D95B52]
08 89,0 [D3F0104C] [1D9ECB73]
09 88,9 [41C87857] [3CD07E7A]
10 63,4 [4B0D82ED] [5DA8755D]
11 89,0 [1ECAC067] [CC080898]
12 80,3 [3967E35C] [A4ECCD9E]
13 73,0 [CB524BC4] [B29F9035]
14 97,9 [8B035DAF] [7DE57102]
15 90,3 [95DAFD43] [799FDC6E]
16 93,7 [C16F3648] [553808D4]
17 92,7 [CF422171] [4C6AE134]
18 60,4 [2302A4B1] [3932D954]
19 85,9 [BCF65216] [A3BF3847]
20 98,4 [AB87A979] [6CA1724C]
21 39,8 [4357BFBD] [59AA14B3]
22 88,9 [1E592C56] [1612E435]
23 71,0 [7FFB20DD] [818DDE0A]
24 71,1 [C4847706] [EB06D654]
25 69,4 [6A9571C5] [41C0E580]
26 83,1 [FBB81557] [C941C917]
27 43,6 [AE244164] [8C6E5044]
28 98,2 [81B370A7] [BE31BAA0]
29 89,8 [9FD49001] [76C3CCD0]
30 55,4 [63DB89F5] [BCC75564]
31 66,5 [7D406FFC] [72AF3480]
32 92,0 [FAD6ACD2] [7C0BCD02]
33 98,4 [B0CD5210] [FBC04268]
34 94,3 [F4B27E9B] [7AC133D2]
35 98,2 [870E619D] [E3C3EA1B]
36 76,0 [FDE0DB64] [EF0FE32C]
37 76,4 [96BD09D2] [12D58538]
38 90,4 [9A8B2F33] [42DD39B6]
39 50,1 [10660062] [BE8C2938]
40 91,5 [A7E1244C] [C11E61CB]
41 71,4 [82BBB520] [F7047165]
42 50,1 [2782F8E1] [C0849B8D]
43 95,7 [213555BF] [5D8612AE]
44 98,3 [98C1D1D2] [55DAA5B4]

Thanks to the Original ripper (unknown)!

Download: