Subcategories
Tags
Language
Tags

Enya - Dark Sky Island (2015) {Japanese Deluxe Edition}

Posted By: popsakov
Enya - Dark Sky Island (2015) {Japanese Deluxe Edition}

Enya - Dark Sky Island (2015) {Japanese Deluxe Edition}
EAC Rip | FLAC (Img) + Cue + Log ~ 318 Mb
Full Scans ~ 241 Mb | 00:54:37 | RAR 5% Recovery
New Age, Celtic | Warner Music Japan Inc. #WPCR-17045

Since the late '80s, Irish singer/composer Enya has become the most unlikely of international stars, delivering lush, Celtic-driven pseudo-classical odes in her signature Wall of Sound vocal style, rarely granting interviews, never touring, and generally taking as much time as she wishes between albums. Bucking odds and industry trends, her popularity has remained steadfast, allowing her to become the best-selling Irish solo artist of all time. Following 2008's snowbound And Winter Came, her silence stretched to eight years – the longest of her career – before the mists once again parted to reveal her eighth album, the evocatively titled Dark Sky Island. Named for Sark, the smallest of Britain's Channel Islands and first in the world receive the Dark Sky designation for its lack of light pollution, it has all the thematic and sonic hallmarks typical of an Enya release but with significantly more highlights than on her two prior works. Since the release of her 1986 debut, changes in her overall approach have been subtle and critics have often derided her for her unwavering dedication to dated, late-'80s synth patches and her reliance on formulaic methods, but Enya's consistency is actually one of her greatest assets. Her low public profile – especially in the age of social media – demands that her music remains the sole focus, and even if she and collaborators Roma and Nicky Ryan choose to keep working within their unique, self-designed milieu, it's one that they own completely and have nurtured over the years. Opening track "The Humming," with its eerie staccato swing and mystical musings on the cycles of the universe, is one of the strongest tracks she's produced in decades and resembles a dark cousin to 1991's masterwork "Caribbean Blue." Inspired lead single "Echoes of Rain" also harkens back to her Shepherd Moons heyday and features some fine, cascading piano work amid the pulsing strings and exalted vocal layers. Dark Sky Island also marks the return of Loxian, a language lyricist Roma Ryan first created for Enya on 2005's Amarantine and which is used here on the lavish march "The Forge of Angels" and the powerful "The Loxian Gate," which again echoes early Watermark-era standouts like "Storms in Africa" and "The Longships." While it would be unfair to call Dark Sky Island a throwback, it does manage to harness some of the power and creativity of Enya's early days and pairs it with both the confidence and shadows of age.

~ Stephen Thomas Erlewine, All Music

***************

Track List:

01. The Humming [3:46]
02. So I Could Find My Way [4:26]
03. Even In The Shadows [4:15]
04. The Forge Of The Angels [5:15]
05. Echoes In Rain [3:36]
06. I Could Never Say Goodbye [3:30]
07. Dark Sky Island [4:58]
08. Sancta Maria [3:52]
09. Astra Et Luna [3:22]
10. The Loxian Gates [3:35]
11. Diamonds On The Water [3:36]
12. Solace (Bonus Track) [3:59]
13. Pale Grass Blue (Bonus Track) [3:35]
14. Remember Your Smile (Bonus Track) [2:58]

Exact Audio Copy V1.3 from 2. September 2016

EAC extraction logfile from 19. January 2019, 22:11

Enya / Dark Sky Island

Used drive : PLEXTOR DVDR PX-760A Adapter: 1 ID: 0

Read mode : Secure
Utilize accurate stream : Yes
Defeat audio cache : Yes
Make use of C2 pointers : No

Read offset correction : 30
Overread into Lead-In and Lead-Out : No
Fill up missing offset samples with silence : Yes
Delete leading and trailing silent blocks : No
Null samples used in CRC calculations : Yes
Used interface : Native Win32 interface for Win NT & 2000

Used output format : Internal WAV Routines
Sample format : 44.100 Hz; 16 Bit; Stereo


TOC of the extracted CD

Track | Start | Length | Start sector | End sector
––––––––––––––––––––––––––––-
1 | 0:00.00 | 3:45.09 | 0 | 16883
2 | 3:45.09 | 4:25.72 | 16884 | 36830
3 | 8:11.06 | 4:14.18 | 36831 | 55898
4 | 12:25.24 | 5:14.15 | 55899 | 79463
5 | 17:39.39 | 3:35.34 | 79464 | 95622
6 | 21:14.73 | 3:29.71 | 95623 | 111368
7 | 24:44.69 | 4:57.33 | 111369 | 133676
8 | 29:42.27 | 3:51.48 | 133677 | 151049
9 | 33:34.00 | 3:21.07 | 151050 | 166131
10 | 36:55.07 | 3:34.66 | 166132 | 182247
11 | 40:29.73 | 3:35.29 | 182248 | 198401
12 | 44:05.27 | 3:58.50 | 198402 | 216301
13 | 48:04.02 | 3:34.35 | 216302 | 232386
14 | 51:38.37 | 2:57.65 | 232387 | 245726


Range status and errors

Selected range

Filename F:\FLAC (bruk67)\Enya (FLAC)\2015 - Dark Sky Island (Warner Bros. Records WPCR-17045, Deluxe Edition, Japan)\Enya - Dark Sky Island.wav

Peak level 99.9 %
Extraction speed 2.3 X
Range quality 100.0 %
Test CRC 11BB293F
Copy CRC 11BB293F
Copy OK

No errors occurred


AccurateRip summary

Track 1 accurately ripped (confidence 200) [88D6F062] (AR v2)
Track 2 accurately ripped (confidence 200) [0DDB1DBB] (AR v2)
Track 3 accurately ripped (confidence 200) [7DDB2D1D] (AR v2)
Track 4 accurately ripped (confidence 200) [ED65EC97] (AR v2)
Track 5 accurately ripped (confidence 200) [61FE6612] (AR v2)
Track 6 accurately ripped (confidence 200) [D999C1D5] (AR v2)
Track 7 accurately ripped (confidence 200) [53CE3F2A] (AR v2)
Track 8 accurately ripped (confidence 200) [3B59267B] (AR v2)
Track 9 accurately ripped (confidence 200) [007C3ED5] (AR v2)
Track 10 accurately ripped (confidence 200) [EC01B348] (AR v2)
Track 11 accurately ripped (confidence 200) [D6B8EB37] (AR v2)
Track 12 accurately ripped (confidence 200) [81F1A70E] (AR v2)
Track 13 accurately ripped (confidence 200) [DA0C274E] (AR v2)
Track 14 accurately ripped (confidence 200) [51DDA7B0] (AR v2)

All tracks accurately ripped

End of status report

–– CUETools DB Plugin V2.1.6

[CTDB TOCID: CkECJScHINrWfmrg0vaOX1GOpYw-] found
Submit result: CkECJScHINrWfmrg0vaOX1GOpYw- has been confirmed
Track | CTDB Status
1 | (1048/1053) Accurately ripped
2 | (1048/1053) Accurately ripped
3 | (1048/1053) Accurately ripped
4 | (1049/1053) Accurately ripped
5 | (1050/1053) Accurately ripped
6 | (1049/1053) Accurately ripped
7 | (1049/1053) Accurately ripped
8 | (1049/1053) Accurately ripped
9 | (1049/1053) Accurately ripped
10 | (1046/1053) Accurately ripped
11 | (1049/1053) Accurately ripped
12 | (1050/1053) Accurately ripped
13 | (1048/1053) Accurately ripped
14 | (1043/1053) Accurately ripped


==== Log checksum DAE0FC4B6156E44623D34376355226EB54B383C47A2CC1FD973C7B4FFAC82045 ====

[CUETools log; Date: 28.04.2021 0:41:59; Version: 2.1.6]
[CTDB TOCID: CkECJScHINrWfmrg0vaOX1GOpYw-] found.
Track | CTDB Status
1 | (1324/1332) Accurately ripped
2 | (1324/1332) Accurately ripped
3 | (1324/1332) Accurately ripped
4 | (1325/1332) Accurately ripped
5 | (1325/1332) Accurately ripped
6 | (1323/1332) Accurately ripped
7 | (1322/1332) Accurately ripped
8 | (1323/1332) Accurately ripped
9 | (1324/1332) Accurately ripped
10 | (1321/1332) Accurately ripped
11 | (1324/1332) Accurately ripped
12 | (1324/1332) Accurately ripped
13 | (1323/1332) Accurately ripped
14 | (1317/1332) Accurately ripped
[AccurateRip ID: 001d53cb-0136728e-bc0ccc0e] found.
Track [ CRC | V2 ] Status
01 [97620564|88d6f062] (012+200/243) Accurately ripped
02 [35968e57|0ddb1dbb] (012+200/243) Accurately ripped
03 [073d6ffc|7ddb2d1d] (012+200/243) Accurately ripped
04 [aaf55c80|ed65ec97] (012+200/243) Accurately ripped
05 [b5f32af1|61fe6612] (012+200/243) Accurately ripped
06 [e58b5bec|d999c1d5] (012+200/243) Accurately ripped
07 [da3515d0|53ce3f2a] (012+200/243) Accurately ripped
08 [71f519ad|3b59267b] (012+200/244) Accurately ripped
09 [0cf7acca|007c3ed5] (012+200/244) Accurately ripped
10 [385ae619|ec01b348] (012+200/244) Accurately ripped
11 [e63a5077|d6b8eb37] (012+200/244) Accurately ripped
12 [39869130|81f1a70e] (011+200/243) Accurately ripped
13 [9d69533c|da0c274e] (011+200/243) Accurately ripped
14 [8ad9c406|51dda7b0] (011+200/243) Accurately ripped
Offsetted by -6:
01 [165b2fe6] (002/243) Accurately ripped
02 [679baacb] (002/243) Accurately ripped
03 [646d2878] (002/243) Accurately ripped
04 [7911f2c4] (002/243) Accurately ripped
05 [689f63f5] (002/243) Accurately ripped
06 [4a6ae0ec] (002/243) Accurately ripped
07 [19934044] (002/243) Accurately ripped
08 [636df701] (002/244) Accurately ripped
09 [973df268] (002/244) Accurately ripped
10 [cb140767] (002/244) Accurately ripped
11 [288cff29] (002/244) Accurately ripped
12 [cfb471f4] (002/243) Accurately ripped
13 [9d404e1c] (002/243) Accurately ripped
14 [b7aac8d2] (002/243) Accurately ripped
Offsetted by -66:
01 [0c16d8fa] (000/243) No match (V2 was not tested)
02 [5bcec753] (000/243) No match (V2 was not tested)
03 [084a5d50] (000/243) No match (V2 was not tested)
04 [862fd16c] (000/243) No match (V2 was not tested)
05 [63599e1d] (000/243) No match (V2 was not tested)
06 [3b2612ec] (000/243) No match (V2 was not tested)
07 [9340e8cc] (000/243) No match (V2 was not tested)
08 [d2269c49] (000/244) No match (V2 was not tested)
09 [fdfcaa94] (000/244) No match (V2 was not tested)
10 [864f5473] (000/244) No match (V2 was not tested)
11 [bfc7d21d] (000/244) No match (V2 was not tested)
12 [ad7f399c] (000/243) No match (V2 was not tested)
13 [9ba61adc] (000/243) No match (V2 was not tested)
14 [77d4f8ca] (000/243) No match (V2 was not tested)
Offsetted by -12:
01 [95545a68] (000/243) No match (V2 was not tested)
02 [99a0c73f] (000/243) No match (V2 was not tested)
03 [c19ce0f4] (000/243) No match (V2 was not tested)
04 [472e8908] (000/243) No match (V2 was not tested)
05 [1b4b9cf9] (000/243) No match (V2 was not tested)
06 [af4a65ec] (000/243) No match (V2 was not tested)
07 [58f16ab8] (000/243) No match (V2 was not tested)
08 [54e6d455] (000/244) No match (V2 was not tested)
09 [21843806] (000/244) No match (V2 was not tested)
10 [5dcd28b5] (000/244) No match (V2 was not tested)
11 [6adfaddb] (000/244) No match (V2 was not tested)
12 [65e252b8] (000/243) No match (V2 was not tested)
13 [9d1748fc] (000/243) No match (V2 was not tested)
14 [e47bcd9e] (000/243) No match (V2 was not tested)
Offsetted by 6:
01 [1868dae2] (000/243) No match (V2 was not tested)
02 [039171e3] (000/243) No match (V2 was not tested)
03 [aa0db780] (000/243) No match (V2 was not tested)
04 [dcd8c63c] (000/243) No match (V2 was not tested)
05 [0346f1ed] (000/243) No match (V2 was not tested)
06 [80abd6ec] (000/243) No match (V2 was not tested)
07 [9ad6eb5c] (000/243) No match (V2 was not tested)
08 [807c3c59] (000/244) No match (V2 was not tested)
09 [82b1672c] (000/244) No match (V2 was not tested)
10 [a5a1c4cb] (000/244) No match (V2 was not tested)
11 [a3e7a1c5] (000/244) No match (V2 was not tested)
12 [a358b06c] (000/243) No match (V2 was not tested)
13 [9d92585c] (000/243) No match (V2 was not tested)
14 [5e08bf3a] (000/243) No match (V2 was not tested)

Track Peak [ CRC32 ] [W/O NULL] [ LOG ]
– 99,9 [11BB293F] [8E0E24B4] CRC32
01 89,1 [8CDC58DF] [A344A25C]
02 99,7 [8C1B9B22] [AAE127C2]
03 99,8 [C5094338] [495DE3C3]
04 99,6 [B42947E7] [AAFC5DE3]
05 99,9 [2ACBCB92] [CC3D34F6]
06 99,5 [6720C1D1] [BA329C58]
07 99,7 [94226471] [A46DE110]
08 99,9 [59CFF279] [6B2E7565]
09 99,7 [B4580959] [853863FB]
10 99,7 [917BEE76] [F9F1B4B3]
11 99,6 [606F6DBE] [F0B6A767]
12 99,5 [1DD01F0F] [B68C3199]
13 99,7 [8263AD8D] [9956C8FE]
14 99,7 [A0E879BE] [2A8A4E2E]



All thanks go to the original ripper(s) …

>>> Enya in my Blog <<<

DOWNLOAD: