Subcategories

Eric Clapton - Back Home (2005) Repost

Posted By: v3122
Eric Clapton - Back Home (2005) Repost

Eric Clapton - Back Home (2005)
EAC | Flac(Image) + Cue + Log & MP3 CBR 320Kbps
Warner Bros, 9362-49395-2 | ~ 444 or 146 Mb | Scans Included
Blues Rock / Classic Rock

Eric Clapton claimed in the press release for Back Home, his 14th album of original material, that "One of the earliest statements I made about myself was back in the late '80s, with Journeyman. This album completes that cycle in terms of talking about my whole journey as an itinerant musician and where I find myself now, starting a new family. That's why I chose the title. It's about coming home and staying home." With that in mind, it becomes clearer that the studio albums Clapton released during the '90s did indeed follow some sort of thematic logic. 1989's Journeyman did find Clapton regrouping after a muddled '80s, returning to the bluesy arena rock and smooth pop that had been his signature sound as a solo artist. He followed that with 1994's From the Cradle, where he explicitly returned to the roots of his music by recording an album of blues standards. Four years later, he released Pilgrim, a slick album that had Clapton strengthening his collaboration with producer/co-writer Simon Climie (who first worked with EC on his electronica side project T.D.F.). If Pilgrim touched on father issues, 2001's Reptile loosely returned Clapton to his childhood (complete with a smiling boyhood shot of him on the cover) and found the guitarist struggling with a seemingly diverse selection of material, ranking from '50s R&B to James Taylor. After a brief blues detour on 2004's Me and Mr. Johnson, Clapton returns to the sound and feel of Reptile for Back Home, but he doesn't seem to be as tentative or forced as he did there. Instead, he eases comfortably into the domesticity that isn't just the concept for the album, it's reason for being. In fact, the album doesn't need "back" in its title – ultimately, the album is just about being home (which, if the center photo of Clapton at home with his three young daughters and wife is to be believed, looks alarmingly similar to the set of Thomas the Tank Engine, complete with a painted rainbow shining through the window).
While it's hard to begrudge the 60-year-old guitarist for finding a happy home after all these years, what is puzzling about this calm, comfortable album is that Clapton is equating domestic bliss with a glossy, consciously classy sound that's swept clean of dirt and grit, or even the blues. Consequently, Back Home is pitched halfway between the lite contemporary soul of Pilgrim and Clapton's time as a Michelob spokesman in the late '80s. Each track rides a tight, professional groove – sometimes a bluesy vamp, sometimes a reggae jam, usually something soulful but relaxed – and while instruments sometimes bubble up from the mix (sometimes it's Clapton's guitar, but just as often it's Billy Preston's organ, or occasionally a synth straight out of 1987), the emphasis is always on the smooth, shiny surface. Unlike such peers as Bob Dylan, Elton John, and the Rolling Stones who revitalized their recording careers with back-to-basics moves that stripped their music down to its essence, Clapton seems to harbor an aversion to what he built his reputation on, whether it was the lean, sinewy blues of the Yardbirds and Bluesbreakers or the psychedelic freak-outs of Cream, or even the rootsy rock he learned from Delaney & Bonnie in the '70s. Based on Back Home, it really does seem like he considers Journeyman ground zero for his solo career, but instead of replicating the well-balanced mix of rock, pop, and blues that made that record one of his best solo efforts, he settles into a tasteful adult pop sound that makes this record the ideal soundtrack to a pleasant Sunday afternoon at home with the family.

by Stephen Thomas Erlewine, allmusic
Eric Clapton - Back Home (2005) Repost


Eric Clapton - Back Home (2005):

Eric Clapton - Back Home (2005) Repost

Tracklist:

01. So Tired [04:47]
02. Say What You Will [04:35]
03. I'm Going Left [04:02]
04. Love Don't Love Nobody [07:13]
05. Revolution [05:00]
06. Love Comes To Everyone [04:35]
07. Lost And Found [05:21]
08. Piece Of My Heart [04:22]
09. One Day [05:20]
10. One Track Mind [05:04]
11. Run Home To Me [06:18]
12. Back Home [03:32]

Exact Audio Copy V0.99 prebeta 5 from 4. May 2009

EAC extraction logfile from 11. February 2015, 2:53

ERIC CLAPTON / Back Home ( 9362-49395-2 )

Used drive : ASUS DRW-24B3ST Adapter: 1 ID: 0

Read mode : Secure
Utilize accurate stream : Yes
Defeat audio cache : Yes
Make use of C2 pointers : No

Read offset correction : 6
Overread into Lead-In and Lead-Out : No
Fill up missing offset samples with silence : Yes
Delete leading and trailing silent blocks : No
Null samples used in CRC calculations : Yes
Used interface : Native Win32 interface for Win NT & 2000

Used output format : User Defined Encoder
Selected bitrate : 1024 kBit/s
Quality : High
Add ID3 tag : No
Command line compressor : C:\Program Files (x86)\EAC\WV\wavpack.exe
Additional command line options : -h -hh -m %s %d


TOC of the extracted CD

Track | Start | Length | Start sector | End sector
––––––––––––––––––––––––––––-
1 | 0:00.00 | 4:47.65 | 0 | 21589
2 | 4:47.65 | 4:35.25 | 21590 | 42239
3 | 9:23.15 | 4:02.72 | 42240 | 60461
4 | 13:26.12 | 7:13.20 | 60462 | 92956
5 | 20:39.32 | 5:00.58 | 92957 | 115514
6 | 25:40.15 | 4:35.00 | 115515 | 136139
7 | 30:15.15 | 5:21.37 | 136140 | 160251
8 | 35:36.52 | 4:22.63 | 160252 | 179964
9 | 39:59.40 | 5:20.35 | 179965 | 203999
10 | 45:20.00 | 5:04.32 | 204000 | 226831
11 | 50:24.32 | 6:18.35 | 226832 | 255216
12 | 56:42.67 | 3:32.73 | 255217 | 271189


Range status and errors

Selected range

Filename W:\ERIC CLAPTON\ERIC CLAPTON - Back Home (DE 2005 Warner Bros Records • 9362-49395-2)\ERIC CLAPTON - Back Home ( 9362-49395-2 ).wav

Peak level 100.0 %
Range quality 99.7 %
Test CRC B4768F04
Copy CRC B4768F04
Copy OK

No errors occurred


AccurateRip summary

Track 1 accurately ripped (confidence 200) [309819B9]
Track 2 accurately ripped (confidence 200) [45C7CBBB]
Track 3 accurately ripped (confidence 200) [466A20D3]
Track 4 accurately ripped (confidence 200) [F634F0A1]
Track 5 accurately ripped (confidence 200) [428FE110]
Track 6 accurately ripped (confidence 200) [4BCB4A1E]
Track 7 accurately ripped (confidence 200) [B5E187B5]
Track 8 accurately ripped (confidence 200) [1134089C]
Track 9 accurately ripped (confidence 200) [6C6CE190]
Track 10 accurately ripped (confidence 200) [6188F386]
Track 11 accurately ripped (confidence 200) [1CC5752F]
Track 12 accurately ripped (confidence 200) [2B272AF2]

All tracks accurately ripped

End of status report

foobar2000 1.2.9 / Dynamic Range Meter 1.1.1
log date: 2016-12-31 10:26:12

––––––––––––––––––––––––––––––––––––––––
Analyzed: ERIC CLAPTON / Back Home ( 9362-49395-2 )
––––––––––––––––––––––––––––––––––––––––

DR Peak RMS Duration Track
––––––––––––––––––––––––––––––––––––––––
DR6 -0.10 dB -7.39 dB 4:48 01-So Tired
DR7 -0.10 dB -8.93 dB 4:35 02-Say What You Will
DR6 -0.09 dB -7.28 dB 4:03 03-I'm Going Left
DR7 -0.91 dB -9.36 dB 7:13 04-Love Don't Love Nobody
DR7 -0.10 dB -8.54 dB 5:01 05-Revolution
DR7 -0.10 dB -8.17 dB 4:35 06-Love Comes To Everyone
DR6 -0.10 dB -6.96 dB 5:21 07-Lost And Found
DR6 -0.10 dB -7.49 dB 4:23 08-Piece Of My Heart
DR6 -0.10 dB -7.81 dB 5:20 09-One Day
DR7 -0.10 dB -8.72 dB 5:04 10-One Track Mind
DR6 0.00 dB -8.47 dB 6:18 11-Run Home To Me
DR9 -0.10 dB -10.88 dB 3:33 12-Back Home
––––––––––––––––––––––––––––––––––––––––

Number of tracks: 12
Official DR value: DR7

Samplerate: 44100 Hz
Channels: 2
Bits per sample: 16
Bitrate: 993 kbps
Codec: FLAC

[CUETools log; Date: 31.12.2016 10:26:01; Version: 2.1.4]
[CTDB TOCID: dCyq65MDOUNB6G_qRDAuXhhzGC4-] found.
Track | CTDB Status
1 | (531/541) Accurately ripped
2 | (535/541) Accurately ripped
3 | (534/541) Accurately ripped, or (2/541) differs in 126 samples @00:00:15
4 | (537/541) Accurately ripped
5 | (535/541) Accurately ripped
6 | (537/541) Accurately ripped
7 | (536/541) Accurately ripped, or (2/541) differs in 18 samples @02:08:23
8 | (534/541) Accurately ripped
9 | (537/541) Accurately ripped
10 | (534/541) Accurately ripped
11 | (529/541) Accurately ripped, or (2/541) differs in 1332 samples @00:01:63-00:01:65
12 | (521/541) Accurately ripped, or (2/541) differs in 39 samples @03:22:24
[AccurateRip ID: 001af3d8-00fc7ecb-920e1f0c] found.
Track [ CRC | V2 ] Status
01 [309819b9|8af5838c] (200+200/640) Accurately ripped
02 [45c7cbbb|f91080e6] (200+200/644) Accurately ripped
03 [466a20d3|91f9b0b4] (200+200/644) Accurately ripped
04 [f634f0a1|f9ded0eb] (200+200/637) Accurately ripped
05 [428fe110|cbbc5055] (200+200/638) Accurately ripped
06 [4bcb4a1e|57d04166] (200+200/636) Accurately ripped
07 [b5e187b5|ca8cbd75] (200+200/636) Accurately ripped
08 [1134089c|867cbc57] (200+200/636) Accurately ripped
09 [6c6ce190|53d5a052] (200+200/640) Accurately ripped
10 [6188f386|2d6a0d92] (200+200/638) Accurately ripped
11 [1cc5752f|bf0166e4] (200+200/636) Accurately ripped
12 [2b272af2|3b766655] (200+200/631) Accurately ripped
Offsetted by -684:
01 [c08fd327] (002/640) Accurately ripped
02 [baa2766a] (002/644) Accurately ripped
03 [22e04700] (002/644) Accurately ripped
04 [3fe937da] (002/637) Accurately ripped
05 [28a899c3] (002/638) Accurately ripped
06 [ec075748] (002/636) Accurately ripped
07 [4684cc85] (002/636) Accurately ripped
08 [25ef2e0d] (002/636) Accurately ripped
09 [036178cb] (002/640) Accurately ripped
10 [c04637f6] (002/638) Accurately ripped
11 [f31799b3] (002/636) Accurately ripped
12 [01075556] (002/631) Accurately ripped
Offsetted by -646:
01 [6f4cc0ae] (002/640) Accurately ripped
02 [6008d1fe] (002/644) Accurately ripped
03 [016cbcfe] (002/644) Accurately ripped
04 [738fee78] (002/637) Accurately ripped
05 [75c5cfea] (002/638) Accurately ripped
06 [4196a8c2] (002/636) Accurately ripped
07 [a209f35d] (002/636) Accurately ripped
08 [d81c06f1] (002/636) Accurately ripped
09 [32b32a75] (002/640) Accurately ripped
10 [9e91097e] (002/638) Accurately ripped
11 [2e4bed01] (002/636) Accurately ripped
12 [42474104] (002/631) Accurately ripped
Offsetted by -104:
01 [50c5cb66] (005/640) Accurately ripped
02 [50df9071] (005/644) Accurately ripped
03 [a9437fdd] (005/644) Accurately ripped
04 [a06487c2] (005/637) Accurately ripped
05 [4aba32f3] (005/638) Accurately ripped
06 [8d6e618d] (005/636) Accurately ripped
07 [2731bf15] (005/636) Accurately ripped
08 [95b7480e] (005/636) Accurately ripped
09 [ccfda1ea] (005/640) Accurately ripped
10 [51ff8da6] (005/638) Accurately ripped
11 [1c6c2567] (005/636) Accurately ripped
12 [83e4f11a] (005/631) Accurately ripped
Offsetted by -66:
01 [f826ff15] (003/640) Accurately ripped
02 [d9318df3] (003/644) Accurately ripped
03 [a624c3b0] (003/644) Accurately ripped
04 [6a37e5c3] (003/637) Accurately ripped
05 [f44bb5ac] (003/638) Accurately ripped
06 [46c60323] (003/636) Accurately ripped
07 [82b6e5ed] (002/636) Accurately ripped
08 [cc330b32] (003/636) Accurately ripped
09 [11514ecc] (002/640) Accurately ripped
10 [304a5f2e] (003/638) Accurately ripped
11 [57a078b5] (002/636) Accurately ripped
12 [cfc6fc64] (002/631) Accurately ripped
Offsetted by -30:
01 [252dd1a8] (002/640) Accurately ripped
02 [d7424769] (002/644) Accurately ripped
03 [cdecec06] (002/644) Accurately ripped
04 [0abb3eae] (002/637) Accurately ripped
05 [b0cff250] (002/638) Accurately ripped
06 [6fd6571d] (002/636) Accurately ripped
07 [2a4283fd] (002/636) Accurately ripped
08 [d19cf88d] (002/636) Accurately ripped
09 [b87ecfd5] (002/640) Accurately ripped
10 [bf83c75e] (002/638) Accurately ripped
11 [08fa76c9] (002/636) Accurately ripped
12 [75fb72e0] (002/631) Accurately ripped
Offsetted by -6:
01 [592ed800] (110/640) Accurately ripped
02 [c088b5e3] (109/644) Accurately ripped
03 [0f0eb49e] (109/644) Accurately ripped
04 [94a9a169] (108/637) Accurately ripped
05 [b4a2642f] (108/638) Accurately ripped
06 [f0cb23ad] (107/636) Accurately ripped
07 [99f4ed5d] (107/636) Accurately ripped
08 [ad036f7c] (106/636) Accurately ripped
09 [7c4e77f2] (107/640) Accurately ripped
10 [7454b77e] (105/638) Accurately ripped
11 [7f367581] (104/636) Accurately ripped
12 [3a1e6c88] (102/631) Accurately ripped
Offsetted by 6:
01 [2a19c68d] (003/640) Accurately ripped
02 [010f6b9a] (003/644) Accurately ripped
03 [f57c0491] (003/644) Accurately ripped
04 [ad6a98f6] (003/637) Accurately ripped
05 [c4061409] (003/638) Accurately ripped
06 [a2da6a23] (003/636) Accurately ripped
07 [d1ce220d] (003/636) Accurately ripped
08 [3294a1f1] (002/636) Accurately ripped
09 [5bf34af9] (003/640) Accurately ripped
10 [4ebd2f8e] (003/638) Accurately ripped
11 [ba5474dd] (003/636) Accurately ripped
12 [1c2fe95c] (003/631) Accurately ripped
Offsetted by -1868:
01 [f49110c7] (000/640) No match (V2 was not tested)
02 [60489fa5] (000/644) No match (V2 was not tested)
03 [9024ba98] (000/644) No match (V2 was not tested)
04 [263ca555] (000/637) No match (V2 was not tested)
05 [5c6d9ac5] (000/638) No match (V2 was not tested)
06 [cef11350] (000/636) No match (V2 was not tested)
07 [15787e05] (000/636) No match (V2 was not tested)
08 [0a5b4739] (000/636) No match (V2 was not tested)
09 [6da82693] (000/640) No match (V2 was not tested)
10 [e8029c76] (000/638) No match (V2 was not tested)
11 [2a328393] (000/636) No match (V2 was not tested)
12 [3f991833] (000/631) No match (V2 was not tested)
Offsetted by -750:
01 [c7e41d25] (000/640) No match (V2 was not tested)
02 [f985960a] (000/644) No match (V2 was not tested)
03 [e0607ee8] (000/644) No match (V2 was not tested)
04 [f8e359b7] (000/637) No match (V2 was not tested)
05 [910e2cf3] (000/638) No match (V2 was not tested)
06 [b00a5621] (000/636) No match (V2 was not tested)
07 [135a2abd] (000/636) No match (V2 was not tested)
08 [d236cb6f] (000/636) No match (V2 was not tested)
09 [ebcac5db] (000/640) No match (V2 was not tested)
10 [8f07a39e] (000/638) No match (V2 was not tested)
11 [2df29d39] (000/636) No match (V2 was not tested)
12 [75c0264d] (000/631) No match (V2 was not tested)
Offsetted by -682:
01 [5e0254ee] (000/640) No match (V2 was not tested)
02 [a8c3b59e] (000/644) No match (V2 was not tested)
03 [d994489c] (000/644) No match (V2 was not tested)
04 [4d30965e] (000/637) No match (V2 was not tested)
05 [e84f56fc] (000/638) No match (V2 was not tested)
06 [623d72d4] (000/636) No match (V2 was not tested)
07 [fa7e554d] (000/636) No match (V2 was not tested)
08 [b4f4e8c8] (000/636) No match (V2 was not tested)
09 [a7619d46] (000/640) No match (V2 was not tested)
10 [0f57a14e] (000/638) No match (V2 was not tested)
11 [7cf1eeed] (000/636) No match (V2 was not tested)
12 [a625a508] (000/631) No match (V2 was not tested)
Offsetted by -670:
01 [a224f4b7] (000/640) No match (V2 was not tested)
02 [db288d7b] (000/644) No match (V2 was not tested)
03 [2024392f] (000/644) No match (V2 was not tested)
04 [64791acf] (000/637) No match (V2 was not tested)
05 [a697c24f] (000/638) No match (V2 was not tested)
06 [15442307] (000/636) No match (V2 was not tested)
07 [325789fd] (000/636) No match (V2 was not tested)
08 [d601d08b] (000/636) No match (V2 was not tested)
09 [7fec7797] (000/640) No match (V2 was not tested)
10 [e9c0195e] (000/638) No match (V2 was not tested)
11 [b80fee49] (000/636) No match (V2 was not tested)
12 [844c3ee3] (000/631) No match (V2 was not tested)
Offsetted by -667:
01 [44fc47c3] (000/640) No match (V2 was not tested)
02 [c473baa8] (000/644) No match (V2 was not tested)
03 [b4b7f2ae] (000/644) No match (V2 was not tested)
04 [4e124257] (000/637) No match (V2 was not tested)
05 [0ce07336] (000/638) No match (V2 was not tested)
06 [3ca0513c] (000/636) No match (V2 was not tested)
07 [404dd729] (000/636) No match (V2 was not tested)
08 [d21e9e9b] (000/636) No match (V2 was not tested)
09 [7631ae20] (000/640) No match (V2 was not tested)
10 [e05a3762] (000/638) No match (V2 was not tested)
11 [86d76e20] (000/636) No match (V2 was not tested)
12 [7c4158c7] (000/631) No match (V2 was not tested)
Offsetted by -102:
01 [376d99a2] (000/640) No match (V2 was not tested)
02 [9a6524ba] (000/644) No match (V2 was not tested)
03 [3dda5074] (000/644) No match (V2 was not tested)
04 [1fd9594d] (000/637) No match
05 [00bf43bd] (000/638) No match (V2 was not tested)
06 [ff2a76f8] (000/636) No match
07 [db2b47dd] (000/636) No match (V2 was not tested)
08 [0ca989c1] (000/636) No match
09 [7239c63d] (000/640) No match
10 [a110f6fe] (000/638) No match
11 [a6467aa1] (000/636) No match
12 [299285e8] (000/631) No match
Offsetted by -98:
01 [04bf3620] (000/640) No match (V2 was not tested)
02 [c3250d43] (002/644) Accurately ripped
03 [6a95f712] (000/644) No match (V2 was not tested)
04 [55faa33d] (000/637) No match (V2 was not tested)
05 [7a1ec9e3] (000/638) No match (V2 was not tested)
06 [e503a219] (000/636) No match (V2 was not tested)
07 [431e596d] (000/636) No match (V2 was not tested)
08 [54dc867b] (000/636) No match (V2 was not tested)
09 [bca30ebf] (000/640) No match (V2 was not tested)
10 [3f33c9ae] (000/638) No match (V2 was not tested)
11 [b9fb2515] (000/636) No match (V2 was not tested)
12 [74edaf84] (000/631) No match (V2 was not tested)
Offsetted by -12:
01 [16ae9656] (000/640) No match (V2 was not tested)
02 [d0a3b73c] (000/644) No match (V2 was not tested)
03 [5f84be12] (000/644) No match (V2 was not tested)
04 [c0055222] (000/637) No match (V2 was not tested)
05 [86bcbd83] (000/638) No match (V2 was not tested)
06 [92b1f655] (000/636) No match (V2 was not tested)
07 [7e085305] (000/636) No match (V2 was not tested)
08 [767f3ba7] (000/636) No match (V2 was not tested)
09 [8bc50e25] (000/640) No match (V2 was not tested)
10 [87207b76] (000/638) No match (V2 was not tested)
11 [e1a775d3] (000/636) No match (V2 was not tested)
12 [4915ae1e] (000/631) No match (V2 was not tested)
Offsetted by 18:
01 [d5c0741a] (000/640) No match (V2 was not tested)
02 [fe105c55] (000/644) No match (V2 was not tested)
03 [c46e46a4] (000/644) No match (V2 was not tested)
04 [3a8f1d9a] (000/637) No match (V2 was not tested)
05 [2100e88a] (000/638) No match
06 [4c09a093] (000/636) No match
07 [09a756bd] (000/636) No match
08 [7e6a91f9] (000/636) No match
09 [39c11d05] (000/640) No match
10 [2925a79e] (000/638) No match
11 [f5727439] (000/636) No match
12 [fe416630] (000/631) No match

Track Peak [ CRC32 ] [W/O NULL] [ LOG ]
– 100,0 [B4768F04] [90F403C3] CRC32
01 98,8 [28220E49] [F2EDBDB1]
02 98,8 [68AD35BB] [39EEBA78]
03 98,9 [7F838B29] [2EE58DAA]
04 90,0 [87A1FD3B] [4699ABD9]
05 98,8 [7338C815] [BAF518D0]
06 98,8 [264A86EB] [3BDA0918]
07 98,8 [8FCC2D16] [CF6D91D2]
08 98,8 [38413E91] [1CFD9244]
09 98,8 [BD0FAFA5] [C6BED784]
10 98,8 [3387A446] [BA3D53CC]
11 100,0 [0C90F0AB] [74C9EE29]
12 98,8 [8DDFB8B9] [086F3DE8]

Eric Clapton - Back Home (2005) Repost

All thanks go to the original releaser

Eric Clapton in my Blog

Download Eric Clapton - Back Home (2005):