Subcategories

Eric Clapton - Clapton Chronicles: The Best Of Eric Clapton (1999) Repost / New Rip

Posted By: popsakov
Eric Clapton - Clapton Chronicles: The Best Of Eric Clapton (1999) Repost / New Rip

Eric Clapton - Clapton Chronicles: The Best Of Eric Clapton (1999)
EAC Rip | FLAC (Img) + Cue + Log ~ 515 Mb | MP3 CBR320 ~ 175 Mb
Scans (JPG, 600 dpi) ~ 73 Mb | RAR 5% Recovery
Rock, Soft Rock, Blues Rock | Reprise Records / Duck Records #9362-47564-2

Clapton Chronicles ignores Eric Clapton's 1983 Reprise debut, Money and Cigarettes (which sounded more like an RSO album, anyway), starting with the pair of Phil Collins-produced mid-'80s albums, Behind the Sun and August. Though these had a pop sheen, they were album rock holdovers. Clapton didn't get the balance between hard rock and commercial gloss right until 1989's Journeyman, whose featured songs – "Before You Accuse Me," "Bad Love," and "Pretending" – form the heart of this compilation. Journeyman was overshadowed by the phenomenal success of "Tears in Heaven" and 1992's Unplugged. Not only did Unplugged go platinum ten times, it established a new public image – classy, stylish, and substantial. That's the image that prevails on Clapton Chronicles. His triple-platinum blues album From the Cradle is written out of the picture, with songs from movie soundtracks taking its place. Apart from the Babyface-produced "Change the World," these tunes are a little too self-conscious and subdued, as are selections from 1998's Pilgrim. However, this deliberate move to paint Clapton's '80s and '90s recordings as adult contemporary fare is accurate. Clapton's musical journey from 1985 to 1999 was taken mostly in the middle of the road, and Clapton Chronicles certainly captures that journey, missing no major hits from the late '80s and '90s. Whether it's a necessary addition to a Clapton collection is a matter of taste. It's certainly an excellent compliment to Unplugged and Time Pieces, his two most popular and pop-oriented albums, but that might not be what every fan wants.
~ Stephen Thomas Erlewine, All Music
Eric Clapton - Clapton Chronicles: The Best Of Eric Clapton (1999) Repost / New Rip


***************

Eric Clapton - Clapton Chronicles: The Best Of Eric Clapton (1999) Repost / New Rip

Eric Clapton - Clapton Chronicles: The Best Of Eric Clapton (1999) Repost / New Rip

Track List:

01. Blue Eyes Blue [0:04:42.55]
02. Change The World [0:03:55.30]
03. My Father's Eyes [0:05:24.00]
04. Tears In Heaven [0:04:33.10]
05. Layla [0:04:37.27]
06. Pretending [0:04:43.08]
07. Bad Love [0:05:14.15]
08. Before You Accuse Me (Take A Look At Yourself) [0:03:57.12]
09. It's In The Way That You Use It [0:04:11.70]
10. Forever Man [0:03:11.65]
11. Running On Faith [0:06:26.30]
12. She's Waiting [0:04:58.13]
13. River Of Tears [0:07:21.50]
14. (I) Get Lost [0:04:21.05]
15. Wonderful Tonight (Live Edit) [0:05:24.32]

Personnel:
Eric Clapton – dobro, guitar, vocals, producer, soloist
Chaka Khan, Chyna Gordon, Katie Kissoon, Marcy Levy, Tessa Niles – vocals
Phil Collins – drums, producer, vocals
Jimmy Bralower – drum machine
Paul Waller – drum programming
Henry Spinetti, Jamie Oldaker, Jim Keltner, Jeff Porcaro, Steve Ferrone, Steve Gadd – drums
Luis Conte, Mike Fasano, Ray Cooper – percussion
Lenny Castro – percussion, conga
Carol Steele – conga
Michael Omartian, Peter Robinson, Randy Kerber, Richard Cottle, Robbie Kondor – synthesizer
Jeff Bova – organ, synthesizer horn
Greg Phillinganes, Joe Sample, Richard Tee – piano
Chris Stainton – organ
Chuck Leavell, Jamie Muhoberac – keyboards
Simon Climie – keyboards, producer, protools
Greg Curtis – keyboards, programming, vocals
Michael Brecker – saxophone
Randy Brecker – trumpet
Gary Brooker – keyboards, vocals
David Campbell – string arrangements
Alan Clark – bass, organ, sequencing, synthesizer horn
Donald "Duck" Dunn, Laurence Cottle, Pino Palladino – bass
Nathan East – bass, vocals
Gayle Levant – Celtic harp
Jon Faddis – trumpet
Dave Bargeron – trombone
Ted Templeman – timbales, producer
Andy Fairweather Low, Darryl Crookes, Phil Palmer, Robert Cray, Steve Lukather, Tim Pierce – guitar
JayDee Mannes – pedal steel
Jerry Lynn Williams – guitar, backing vocals, harmony vocals

Exact Audio Copy V1.3 from 2. September 2016

EAC extraction logfile from 16. June 2017, 8:21

Eric Clapton / Clapton Chronicles: The Best Of Eric Clapton

Used drive : ATAPI iHAS124 D Adapter: 0 ID: 2

Read mode : Burst

Read offset correction : 6
Overread into Lead-In and Lead-Out : No
Fill up missing offset samples with silence : Yes
Delete leading and trailing silent blocks : No
Null samples used in CRC calculations : Yes
Used interface : Installed external ASPI interface

Used output format : User Defined Encoder
Selected bitrate : 1024 kBit/s
Quality : High
Add ID3 tag : No
Command line compressor : C:\Program Files (x86)\Exact Audio Copy\Flac\flac.exe
Additional command line options : -6 -V -T "ARTIST=%artist%" -T "TITLE=%title%" -T "ALBUM=%albumtitle%" -T "DATE=%year%" -T "TRACKNUMBER=%tracknr%" -T "GENRE=%genre%" -T "COMMENT=%comment%" -T "BAND=%albuminterpret%" -T "ALBUMARTIST=%albuminterpret%" -T "COMPOSER=%composer%" %haslyrics%–tag-from-file=LYRICS="%lyricsfile%"%haslyrics% -T "DISCNUMBER=%cdnumber%" -T "TOTALDISCS=%totalcds%" -T "TOTALTRACKS=%numtracks%" %hascover%–picture="%coverfile%"%hascover% %source% -o %dest%


TOC of the extracted CD

Track | Start | Length | Start sector | End sector
––––––––––––––––––––––––––––-
1 | 0:00.00 | 4:42.55 | 0 | 21204
2 | 4:42.55 | 3:55.30 | 21205 | 38859
3 | 8:38.10 | 5:24.00 | 38860 | 63159
4 | 14:02.10 | 4:33.10 | 63160 | 83644
5 | 18:35.20 | 4:37.27 | 83645 | 104446
6 | 23:12.47 | 4:43.08 | 104447 | 125679
7 | 27:55.55 | 5:14.15 | 125680 | 149244
8 | 33:09.70 | 3:57.12 | 149245 | 167031
9 | 37:07.07 | 4:11.70 | 167032 | 185926
10 | 41:19.02 | 3:11.65 | 185927 | 200316
11 | 44:30.67 | 6:26.30 | 200317 | 229296
12 | 50:57.22 | 4:58.13 | 229297 | 251659
13 | 55:55.35 | 7:21.50 | 251660 | 284784
14 | 63:17.10 | 4:21.05 | 284785 | 304364
15 | 67:38.15 | 5:24.32 | 304365 | 328696


Range status and errors

Selected range

Filename C:\mm\Eric Clapton\1999 - Clapton Chronicles. The Best Of Eric Clapton [9362-47564-2]\Eric Clapton - Clapton Chronicles- The Best Of Eric Clapton.wav

Peak level 99.9 %
Extraction speed 12.1 X
Test CRC 5DBEFEB0
Copy CRC 5DBEFEB0
Copy OK

No errors occurred


AccurateRip summary

Track 1 accurately ripped (confidence 200) [C333C9E2] (AR v2)
Track 2 accurately ripped (confidence 200) [6CC90C23] (AR v2)
Track 3 accurately ripped (confidence 200) [11BCF4C9] (AR v2)
Track 4 accurately ripped (confidence 200) [F322D884] (AR v2)
Track 5 accurately ripped (confidence 200) [A3DAA6C6] (AR v2)
Track 6 accurately ripped (confidence 200) [03561E80] (AR v2)
Track 7 accurately ripped (confidence 200) [97243C08] (AR v2)
Track 8 accurately ripped (confidence 200) [B2ADA840] (AR v2)
Track 9 accurately ripped (confidence 200) [5D74552E] (AR v2)
Track 10 accurately ripped (confidence 200) [A8EEBE58] (AR v2)
Track 11 accurately ripped (confidence 200) [79D8AEB8] (AR v2)
Track 12 accurately ripped (confidence 200) [D9C53049] (AR v2)
Track 13 accurately ripped (confidence 200) [43ABDD1F] (AR v2)
Track 14 accurately ripped (confidence 200) [B1852389] (AR v2)
Track 15 accurately ripped (confidence 200) [3A90DCBE] (AR v2)

All tracks accurately ripped

End of status report

–– CUETools DB Plugin V2.1.6

[CTDB TOCID: mQTFjUCBicaY9bCnR0c.mXkJAVU-] found
Submit result: mQTFjUCBicaY9bCnR0c.mXkJAVU- has been confirmed
Track | CTDB Status
1 | (1227/1527) Accurately ripped
2 | (1254/1527) Accurately ripped
3 | (1250/1527) Accurately ripped
4 | (1254/1527) Accurately ripped
5 | (1256/1527) Accurately ripped
6 | (1252/1527) Accurately ripped
7 | (1252/1527) Accurately ripped
8 | (1256/1527) Accurately ripped
9 | (1251/1527) Accurately ripped
10 | (1253/1527) Accurately ripped
11 | (1247/1527) Accurately ripped
12 | (1255/1527) Accurately ripped
13 | (1245/1527) Accurately ripped
14 | (1244/1527) Accurately ripped
15 | (1223/1527) Accurately ripped, or (6/1527) differs in 191 samples @04:45:70-04:45:71,04:47:46-04:47:47,04:48:34,04:54:25-04:54:26,04:59:50,05:12:00-05:12:01

foobar2000 1.2.6 / Dynamic Range Meter 1.1.1
log date: 2017-06-17 09:59:38

––––––––––––––––––––––––––––––––––––––––
Analyzed: Eric Clapton / Clapton Chronicles: The Best Of Eric Clapton
––––––––––––––––––––––––––––––––––––––––

DR Peak RMS Duration Track
––––––––––––––––––––––––––––––––––––––––
DR6 -0.09 dB -8.17 dB 4:43 01-Blue Eyes Blue
DR8 0.00 dB -9.97 dB 3:55 02-Change The World
DR9 -0.18 dB -10.92 dB 5:24 03-My Father's Eyes
DR9 0.00 dB -11.30 dB 4:33 04-Tears In Heaven
DR10 -0.12 dB -11.59 dB 4:37 05-Layla
DR8 0.00 dB -9.77 dB 4:43 06-Pretending
DR8 -0.04 dB -10.23 dB 5:14 07-Bad Love
DR10 0.00 dB -10.66 dB 3:57 08-Before You Accuse Me (Take A Look At Yourself)
DR7 0.00 dB -8.45 dB 4:12 09-It's In The Way That You Use It
DR8 0.00 dB -9.70 dB 3:12 10-Forever Man
DR8 -0.02 dB -10.06 dB 6:26 11-Running On Faith
DR7 0.00 dB -8.84 dB 4:58 12-She's Waiting
DR7 -0.18 dB -9.34 dB 7:22 13-River Of Tears
DR7 -0.08 dB -8.25 dB 4:21 14-(I) Get Lost
DR9 0.00 dB -12.89 dB 5:24 15-Wonderful Tonight (Live Edit)
––––––––––––––––––––––––––––––––––––––––

Number of tracks: 15
Official DR value: DR8

Samplerate: 44100 Hz
Channels: 2
Bits per sample: 16
Bitrate: 940 kbps
Codec: FLAC
================================================================================

[CUETools log; Date: 17.06.2017 10:00:01; Version: 2.1.5]
HDCD: peak extend: none, transient filter: some, gain: none
[CTDB TOCID: mQTFjUCBicaY9bCnR0c.mXkJAVU-] found.
Track | CTDB Status
1 | (1228/1528) Accurately ripped
2 | (1255/1528) Accurately ripped
3 | (1251/1528) Accurately ripped
4 | (1255/1528) Accurately ripped
5 | (1257/1528) Accurately ripped
6 | (1253/1528) Accurately ripped
7 | (1253/1528) Accurately ripped
8 | (1257/1528) Accurately ripped
9 | (1252/1528) Accurately ripped
10 | (1254/1528) Accurately ripped
11 | (1248/1528) Accurately ripped
12 | (1256/1528) Accurately ripped
13 | (1246/1528) Accurately ripped
14 | (1245/1528) Accurately ripped
15 | (1224/1528) Accurately ripped, or (6/1528) differs in 191 samples @04:45:70-04:45:71,04:47:46-04:47:47,04:48:34,04:54:25-04:54:26,04:59:50,05:12:00-05:12:01
[AccurateRip ID: 0026bb52-01b973f8-e3111e0f] found.
Track [ CRC | V2 ] Status
01 [9da7deec|c333c9e2] (200+200/646) Accurately ripped
02 [1b81a64a|6cc90c23] (200+200/649) Accurately ripped
03 [fca7570c|11bcf4c9] (200+200/649) Accurately ripped
04 [8691f48d|f322d884] (200+200/644) Accurately ripped
05 [4e645591|a3daa6c6] (200+200/643) Accurately ripped
06 [1f7c1381|03561e80] (200+200/642) Accurately ripped
07 [ebc60cb4|97243c08] (200+200/637) Accurately ripped
08 [24801ac3|b2ada840] (200+200/644) Accurately ripped
09 [a3b1e795|5d74552e] (200+200/645) Accurately ripped
10 [bb43bca2|a8eebe58] (200+200/646) Accurately ripped
11 [0b9d5175|79d8aeb8] (200+200/641) Accurately ripped
12 [80452ba7|d9c53049] (200+200/638) Accurately ripped
13 [9e7ffa34|43abdd1f] (200+200/640) Accurately ripped
14 [587cb8a3|b1852389] (200+200/643) Accurately ripped
15 [241219a7|3a90dcbe] (200+200/638) Accurately ripped
Offsetted by -1358:
01 [605e0508] (010/646) Accurately ripped
02 [b7cf8044] (010/649) Accurately ripped
03 [78a92138] (010/649) Accurately ripped
04 [076d25b5] (010/644) Accurately ripped
05 [078bacf1] (010/643) Accurately ripped
06 [8def23a6] (010/642) Accurately ripped
07 [c6a61dbb] (010/637) Accurately ripped
08 [e96501eb] (010/644) Accurately ripped
09 [2f4878f3] (010/645) Accurately ripped
10 [838a7ef2] (010/646) Accurately ripped
11 [ace2c325] (010/641) Accurately ripped
12 [fb4381b3] (010/638) Accurately ripped
13 [1e181480] (010/640) Accurately ripped
14 [58e18c87] (010/643) Accurately ripped
15 [50640997] (010/638) Accurately ripped
Offsetted by -664:
01 [a6e62a1c] (087/646) Accurately ripped
02 [af309352] (089/649) Accurately ripped
03 [43170f7c] (089/649) Accurately ripped
04 [9a3791ad] (089/644) Accurately ripped
05 [4f311111] (089/643) Accurately ripped
06 [0b22e286] (088/642) Accurately ripped
07 [51813ec3] (090/637) Accurately ripped
08 [edf66fe3] (090/644) Accurately ripped
09 [8b93776d] (089/645) Accurately ripped
10 [9b7e76e2] (090/646) Accurately ripped
11 [3e91a735] (089/641) Accurately ripped
12 [94719997] (089/638) Accurately ripped
13 [9e4d2d24] (089/640) Accurately ripped
14 [f0ff7573] (090/643) Accurately ripped
15 [1ad33c67] (089/638) Accurately ripped
Offsetted by -1340:
01 [5d084864] (000/646) No match (V2 was not tested)
02 [d80c4d1e] (000/649) No match (V2 was not tested)
03 [b5faeba4] (000/649) No match (V2 was not tested)
04 [d1b05e5d] (000/644) No match (V2 was not tested)
05 [ffd02651] (000/643) No match (V2 was not tested)
06 [2c0e2ddc] (000/642) No match (V2 was not tested)
07 [0e137235] (000/637) No match (V2 was not tested)
08 [31d01093] (000/644) No match (V2 was not tested)
09 [be9667f1] (000/645) No match (V2 was not tested)
10 [18735042] (000/646) No match (V2 was not tested)
11 [bc77e5d5] (000/641) No match (V2 was not tested)
12 [9679d1ff] (000/638) No match (V2 was not tested)
13 [9e19750c] (000/640) No match (V2 was not tested)
14 [dc75232b] (000/643) No match (V2 was not tested)
15 [c44dd687] (000/638) No match
Offsetted by -1316:
01 [0340a234] (000/646) No match
02 [adb2b396] (000/649) No match
03 [5d12a434] (000/649) No match
04 [8a09ff3d] (000/644) No match
05 [a02b72d1] (000/643) No match
06 [f5c65979] (000/642) No match
07 [099fe574] (000/637) No match
08 [3d097973] (000/644) No match
09 [2853a699] (000/645) No match
10 [deff1202] (000/646) No match
11 [26941415] (000/641) No match
12 [bac23d0f] (000/638) No match
13 [9e1b4b1c] (000/640) No match
14 [368f415b] (000/643) No match (V2 was not tested)
15 [5edae7c7] (000/638) No match
Offsetted by -796:
01 [14b03c24] (000/646) No match (V2 was not tested)
02 [181d5fbe] (000/649) No match (V2 was not tested)
03 [2c149864] (000/649) No match (V2 was not tested)
04 [244a9cdd] (000/644) No match (V2 was not tested)
05 [dd3aec51] (000/643) No match (V2 was not tested)
06 [53c10fb5] (000/642) No match (V2 was not tested)
07 [fc2ee5f4] (000/637) No match (V2 was not tested)
08 [303aaf13] (000/644) No match (V2 was not tested)
09 [c6029ed1] (000/645) No match (V2 was not tested)
10 [577dcd42] (000/646) No match (V2 was not tested)
11 [76f6a8d5] (000/641) No match (V2 was not tested)
12 [cce34cbf] (000/638) No match (V2 was not tested)
13 [9e4313cc] (000/640) No match (V2 was not tested)
14 [816fcf6b] (000/643) No match (V2 was not tested)
15 [c8cb5d87] (000/638) No match (V2 was not tested)
Offsetted by -780:
01 [83807804] (000/646) No match
02 [fbe1a40e] (000/649) No match
03 [462468c4] (000/649) No match
04 [9f31081d] (000/644) No match
05 [f2cd1f51] (000/643) No match
06 [34961a3d] (000/642) No match
07 [7b4f3ba8] (000/637) No match
08 [37b64a53] (000/644) No match
09 [b72b7341] (000/645) No match
10 [8685a3c2] (000/646) No match (V2 was not tested)
11 [13097255] (000/641) No match
12 [e513941f] (000/638) No match
13 [9e444d2c] (000/640) No match
14 [682be38b] (000/643) No match
15 [85296907] (000/638) No match
Offsetted by -730:
01 [5dcb3320] (002/646) Accurately ripped
02 [e3a6f988] (002/649) Accurately ripped
03 [b795d3f0] (002/649) Accurately ripped
04 [5f411745] (002/644) Accurately ripped
05 [1635feb1] (002/643) Accurately ripped
06 [1fe941ea] (000/642) No match (V2 was not tested)
07 [0d05b3e7] (000/637) No match (V2 was not tested)
08 [8f188f7b] (000/644) No match (V2 was not tested)
09 [28cb0b1f] (000/645) No match (V2 was not tested)
10 [797e2212] (000/646) No match (V2 was not tested)
11 [5ac42805] (000/641) No match (V2 was not tested)
12 [b0aa732b] (000/638) No match (V2 was not tested)
13 [1e482078] (000/640) No match (V2 was not tested)
14 [b937a26f] (000/643) No match (V2 was not tested)
15 [71cf4cf7] (000/638) No match (V2 was not tested)
Offsetted by -728:
01 [eba53a9c] (000/646) No match (V2 was not tested)
02 [201f8212] (000/649) No match (V2 was not tested)
03 [dad7cdfc] (000/649) No match (V2 was not tested)
04 [ae9de4ad] (000/644) No match (V2 was not tested)
05 [f8e84511] (000/643) No match (V2 was not tested)
06 [7964d89e] (000/642) No match (V2 was not tested)
07 [76c25bd7] (000/637) No match (V2 was not tested)
08 [d00802e3] (000/644) No match (V2 was not tested)
09 [c6f025ad] (000/645) No match (V2 was not tested)
10 [df5f1ce2] (000/646) No match (V2 was not tested)
11 [ce468135] (000/641) No match (V2 was not tested)
12 [33b07c17] (000/638) No match (V2 was not tested)
13 [9e4847a4] (000/640) No match (V2 was not tested)
14 [560f24f3] (000/643) No match (V2 was not tested)
15 [295b0e67] (000/638) No match (V2 was not tested)
Offsetted by -691:
01 [abe6c512] (002/646) Accurately ripped
02 [fed5600b] (002/649) Accurately ripped
03 [671c5fda] (002/649) Accurately ripped
04 [6ad2bcb1] (000/644) No match (V2 was not tested)
05 [daca5b01] (000/643) No match (V2 was not tested)
06 [974cfb8f] (000/642) No match (V2 was not tested)
07 [7e237d6a] (000/637) No match (V2 was not tested)
08 [0155d9e7] (002/644) Accurately ripped
09 [349e90f0] (002/645) Accurately ripped
10 [bc213cea] (002/646) Accurately ripped
11 [2731f32d] (002/641) Accurately ripped
12 [2ba02125] (000/638) No match (V2 was not tested)
13 [5e4b1c52] (002/640) Accurately ripped
14 [aba2137d] (002/643) Accurately ripped
15 [ecf488ff] (000/638) No match (V2 was not tested)
Offsetted by -686:
01 [8e87d7c8] (000/646) No match (V2 was not tested)
02 [1602b564] (000/649) No match (V2 was not tested)
03 [bf4150f8] (000/649) No match (V2 was not tested)
04 [313abe35] (000/644) No match (V2 was not tested)
05 [91880af1] (000/643) No match (V2 was not tested)
06 [ac6c4d03] (000/642) No match (V2 was not tested)
07 [fd9b1e9a] (000/637) No match (V2 was not tested)
08 [23ac7a6b] (000/644) No match (V2 was not tested)
09 [bffb5353] (000/645) No match (V2 was not tested)
10 [3ad3aff2] (000/646) No match (V2 was not tested)
11 [47f7d225] (000/641) No match (V2 was not tested)
12 [f32f3773] (000/638) No match
13 [1e4b7e40] (000/640) No match
14 [33bcd9c7] (000/643) No match
15 [37d1ec97] (000/638) No match
Offsetted by -669:
01 [c4451766] (000/646) No match (V2 was not tested)
02 [98033df9] (000/649) No match (V2 was not tested)
03 [eaf21e5e] (000/649) No match (V2 was not tested)
04 [d3cf9029] (000/644) No match (V2 was not tested)
05 [98736121] (000/643) No match (V2 was not tested)
06 [edcefbc8] (000/642) No match (V2 was not tested)
07 [d83ea1d9] (000/637) No match (V2 was not tested)
08 [cb9fcf5f] (000/644) No match (V2 was not tested)
09 [0036b50a] (000/645) No match (V2 was not tested)
10 [1ccc03da] (000/646) No match (V2 was not tested)
11 [1dcbc83d] (000/641) No match (V2 was not tested)
12 [cce28349] (000/638) No match (V2 was not tested)
13 [de4ccb36] (000/640) No match (V2 was not tested)
14 [68e4af29] (000/643) No match (V2 was not tested)
15 [cff5d8cf] (000/638) No match (V2 was not tested)
Offsetted by -667:
01 [521f1ee2] (000/646) No match (V2 was not tested)
02 [d47bc683] (003/649) Accurately ripped
03 [0e34186a] (002/649) Accurately ripped
04 [232c5d91] (003/644) Accurately ripped
05 [7b25a781] (002/643) Accurately ripped
06 [2998eb6a] (002/642) Accurately ripped
07 [3c1d4717] (000/637) No match (V2 was not tested)
08 [0c8f42c7] (002/644) Accurately ripped
09 [9e5bcf98] (002/645) Accurately ripped
10 [82acfeaa] (002/646) Accurately ripped
11 [914e216d] (000/641) No match (V2 was not tested)
12 [4fe88c35] (002/638) Accurately ripped
13 [5e4cf262] (002/640) Accurately ripped
14 [05bc31ad] (002/643) Accurately ripped
15 [87819a3f] (000/638) No match (V2 was not tested)
Offsetted by -659:
01 [89873cd2] (000/646) No match (V2 was not tested)
02 [c65de8ab] (000/649) No match (V2 was not tested)
03 [9b3c009a] (000/649) No match (V2 was not tested)
04 [609f9331] (000/644) No match (V2 was not tested)
05 [05eec101] (000/643) No match (V2 was not tested)
06 [2a745185] (000/642) No match (V2 was not tested)
07 [c966db28] (000/637) No match (V2 was not tested)
08 [104d1067] (000/644) No match (V2 was not tested)
09 [16f039d0] (000/645) No match (V2 was not tested)
10 [1a30e9ea] (000/646) No match (V2 was not tested)
11 [5f57862d] (000/641) No match (V2 was not tested)
12 [5c00afe5] (000/638) No match (V2 was not tested)
13 [5e4d8f12] (000/640) No match (V2 was not tested)
14 [791a3bbd] (000/643) No match (V2 was not tested)
15 [65b09fff] (000/638) No match (V2 was not tested)
Offsetted by -646:
01 [a3906d78] (002/646) Accurately ripped
02 [cf6d602c] (002/649) Accurately ripped
03 [8068d9e8] (002/649) Accurately ripped
04 [647aca55] (002/644) Accurately ripped
05 [47758a71] (002/643) Accurately ripped
06 [18fead76] (002/642) Accurately ripped
07 [c810096b] (000/637) No match (V2 was not tested)
08 [36617e8b] (000/644) No match (V2 was not tested)
09 [1ae1666b] (000/645) No match (V2 was not tested)
10 [30674832] (000/646) No match (V2 was not tested)
11 [4e26c9e5] (000/641) No match (V2 was not tested)
12 [2fa7e9e3] (000/638) No match (V2 was not tested)
13 [1e4e8db0] (000/640) No match (V2 was not tested)
14 [74930c17] (002/643) Accurately ripped
15 [8ebd0957] (000/638) No match (V2 was not tested)
Offsetted by -132:
01 [0b71f0f4] (000/646) No match (V2 was not tested)
02 [846e72b6] (000/649) No match (V2 was not tested)
03 [e5a4dff4] (000/649) No match (V2 was not tested)
04 [10a4ffbd] (000/644) No match (V2 was not tested)
05 [dc6e30d1] (000/643) No match (V2 was not tested)
06 [c2214d1a] (000/642) No match (V2 was not tested)
07 [9f4106f7] (000/637) No match (V2 was not tested)
08 [66c459f3] (000/644) No match (V2 was not tested)
09 [de210ef9] (000/645) No match (V2 was not tested)
10 [77431302] (000/646) No match (V2 was not tested)
11 [44025315] (000/641) No match (V2 was not tested)
12 [b8b6decf] (000/638) No match (V2 was not tested)
13 [9e75e0dc] (000/640) No match (V2 was not tested)
14 [e8ed129b] (000/643) No match (V2 was not tested)
15 [d20a3ac7] (000/638) No match (V2 was not tested)
Offsetted by -92:
01 [207a86a4] (000/646) No match (V2 was not tested)
02 [3dd91d7e] (000/649) No match (V2 was not tested)
03 [a6cc68e4] (000/649) No match (V2 was not tested)
04 [43e50bdd] (000/644) No match (V2 was not tested)
05 [925bb051] (000/643) No match (V2 was not tested)
06 [7e9a866f] (000/642) No match (V2 was not tested)
07 [dcb498ea] (000/637) No match (V2 was not tested)
08 [79795e13] (000/644) No match (V2 was not tested)
09 [39072211] (000/645) No match (V2 was not tested)
10 [6cd6ab42] (000/646) No match (V2 was not tested)
11 [4a314ad5] (000/641) No match (V2 was not tested)
12 [f52f913f] (000/638) No match (V2 was not tested)
13 [9e78f04c] (000/640) No match (V2 was not tested)
14 [29c344eb] (000/643) No match (V2 was not tested)
15 [28f55787] (000/638) No match (V2 was not tested)
Offsetted by -66:
01 [548ce7f0] (000/646) No match (V2 was not tested)
02 [4ff80c80] (000/649) No match (V2 was not tested)
03 [71261b80] (000/649) No match (V2 was not tested)
04 [4b9b7a25] (000/644) No match (V2 was not tested)
05 [15694331] (000/643) No match (V2 was not tested)
06 [20ae30f3] (000/642) No match (V2 was not tested)
07 [83f01b8e] (000/637) No match (V2 was not tested)
08 [c5a23a5b] (000/644) No match (V2 was not tested)
09 [40e97b47] (000/645) No match (V2 was not tested)
10 [994367d2] (000/646) No match (V2 was not tested)
11 [27cfd245] (000/641) No match (V2 was not tested)
12 [9c7e053b] (000/638) No match (V2 was not tested)
13 [1e7aed88] (000/640) No match (V2 was not tested)
14 [20b4e59f] (000/643) No match (V2 was not tested)
15 [7b0e2a37] (000/638) No match (V2 was not tested)
Offsetted by -6:
01 [f419c878] (000/646) No match
02 [66180cac] (000/649) No match
03 [92e168e8] (000/649) No match (V2 was not tested)
04 [987b8c55] (000/644) No match
05 [a64d8271] (000/643) No match
06 [e05d464b] (000/642) No match
07 [5a0d5296] (000/637) No match
08 [61b1c08b] (000/644) No match
09 [c94297eb] (000/645) No match
10 [89a0cc32] (000/646) No match
11 [b11645e5] (000/641) No match
12 [f73310e3] (000/638) No match
13 [1e7f84b0] (000/640) No match
14 [81f63117] (000/643) No match
15 [fd6ed557] (000/638) No match
Offsetted by 6:
01 [4735f560] (000/646) No match (V2 was not tested)
02 [d0eb3fe8] (000/649) No match (V2 was not tested)
03 [666d4530] (000/649) No match (V2 was not tested)
04 [74a85cc5] (000/644) No match (V2 was not tested)
05 [f67b28b1] (000/643) No match (V2 was not tested)
06 [5f90d46d] (000/642) No match (V2 was not tested)
07 [7cc4c6bc] (000/637) No match (V2 was not tested)
08 [e74e74fb] (002/644) Accurately ripped
09 [7e21373f] (002/645) Accurately ripped
10 [ece6ad12] (000/646) No match (V2 was not tested)
11 [66245d05] (000/641) No match (V2 was not tested)
12 [0957466b] (000/638) No match (V2 was not tested)
13 [1e806fb8] (000/640) No match (V2 was not tested)
14 [2f03402f] (000/643) No match (V2 was not tested)
15 [4ab55df7] (000/638) No match (V2 was not tested)
More than 16 offsets match!

Track Peak [ CRC32 ] [W/O NULL] [ LOG ]
– 99,9 [5DBEFEB0] [3C44AF7C] CRC32
01 99,0 [6771F149] [44FF784B]
02 99,9 [0D0D0987] [A500BA17]
03 97,9 [E5BA854C] [ECCF64AE]
04 99,9 [16ADDF89] [AA67469A]
05 98,6 [072F4BA2] [1D87ADBD]
06 99,9 [C368405E] [B4FBE9A1]
07 99,5 [5D084DBC] [AC0E7CA5]
08 99,9 [DBF2B19C] [C952C212]
09 99,9 [CD7B1F9E] [C64E7930]
10 99,9 [C045E170] [9DDE16E0]
11 99,8 [FCA83DF5] [6A2E3946]
12 99,9 [41B234CE] [A56D5CC7]
13 97,9 [56EF6FAD] [02C2653C]
14 99,0 [BB64C4EC] [8C2612A7]
15 99,9 [188E9F21] [44413F76]

Eric Clapton - Clapton Chronicles: The Best Of Eric Clapton (1999) Repost / New Rip

All thanks go to sergych

>>> Eric Clapton in my Blog <<<

Download from icerbox.com: