Subcategories

Eric Clapton - Eric Clapton With Yardbirds And Jimmy Page (1994)

Posted By: popsakov
Eric Clapton - Eric Clapton With Yardbirds And Jimmy Page (1994)

Eric Clapton - Eric Clapton With Yardbirds And Jimmy Page (1994)
EAC Rip | WV (Img) + Cue + Log ~ 257 Mb | MP3 CBR320 ~ 145 Mb
Scans Included (PNG, 400 dpi) | RAR 5% Recovery
Blues, Electric Blues, Rock & Roll | LaserLight #12 337

Laserlight's 2001 release With the Yardbirds & Jimmy Page, is another reissue that pairs early live Yardbirds recordings with the 1965 jam session credited to the Immediate All Stars (featuring Clapton, Jimmy Page, Bill Wyman, Ian Stuart, and Mick Jagger).

***************

Eric Clapton - Eric Clapton With Yardbirds And Jimmy Page (1994)

Track List:

01. Snake Drive [2:30]
02. Tribute to Elmore [2:10]
03. West Coast Idea [2:20]
04. Draggin' My Tail [3:06]
05. Freight Loader [2:50]
06. Choker [1:26]
07. Miles Road [2:28]
08. Little Red Rooster [3:52]
09. Highway 49 [2:45]
10. Wang-Dang-Doodle [4:24]
11. 23 Hours Too Long [5:13]
12. Out On The Water Coast [3:11]
13. Boom Boom [2:28]
14. I Ain't Got You [2:02]
15. Honey In Your Hips [2:19]
16. Too Much Monkey Business [3:52]

Exact Audio Copy V1.3 from 2. September 2016

EAC extraction logfile from 14. October 2016, 13:33

Eric Clapton / with Yardbirds and Jimmy Page

Used drive : HL-DT-STDVDRAM GH24NSC0 Adapter: 1 ID: 0

Read mode : Secure
Utilize accurate stream : Yes
Defeat audio cache : Yes
Make use of C2 pointers : No

Read offset correction : 6
Overread into Lead-In and Lead-Out : No
Fill up missing offset samples with silence : Yes
Delete leading and trailing silent blocks : No
Null samples used in CRC calculations : Yes
Used interface : Native Win32 interface for Win NT & 2000

Used output format : Internal WAV Routines
Sample format : 44.100 Hz; 16 Bit; Stereo


TOC of the extracted CD

Track | Start | Length | Start sector | End sector
––––––––––––––––––––––––––––-
1 | 0:00.00 | 2:30.27 | 0 | 11276
2 | 2:30.27 | 2:10.25 | 11277 | 21051
3 | 4:40.52 | 2:19.73 | 21052 | 31549
4 | 7:00.50 | 3:06.32 | 31550 | 45531
5 | 10:07.07 | 2:50.05 | 45532 | 58286
6 | 12:57.12 | 1:25.50 | 58287 | 64711
7 | 14:22.62 | 2:27.43 | 64712 | 75779
8 | 16:50.30 | 3:51.60 | 75780 | 93164
9 | 20:42.15 | 2:44.45 | 93165 | 105509
10 | 23:26.60 | 4:23.50 | 105510 | 125284
11 | 27:50.35 | 5:13.25 | 125285 | 148784
12 | 33:03.60 | 3:11.10 | 148785 | 163119
13 | 36:14.70 | 2:27.45 | 163120 | 174189
14 | 38:42.40 | 2:02.07 | 174190 | 183346
15 | 40:44.47 | 2:18.73 | 183347 | 193769
16 | 43:03.45 | 3:52.30 | 193770 | 211199


Range status and errors

Selected range

Filename C:\Music CD\Eric Clapton - with Yardbirds and Jimmy Page.wav

Peak level 98.4 %
Extraction speed 4.2 X
Range quality 99.9 %
Test CRC A0043874
Copy CRC A0043874
Copy OK

No errors occurred


AccurateRip summary

Track 1 accurately ripped (confidence 12) [35BCA931] (AR v2)
Track 2 accurately ripped (confidence 12) [87198DF4] (AR v2)
Track 3 accurately ripped (confidence 12) [91104742] (AR v2)
Track 4 accurately ripped (confidence 12) [6D599AF5] (AR v2)
Track 5 accurately ripped (confidence 12) [6F8D06DA] (AR v2)
Track 6 accurately ripped (confidence 12) [1956E956] (AR v2)
Track 7 accurately ripped (confidence 12) [1A3C7DF3] (AR v2)
Track 8 accurately ripped (confidence 12) [B85CEE37] (AR v2)
Track 9 accurately ripped (confidence 12) [B69AD39A] (AR v2)
Track 10 accurately ripped (confidence 12) [70E88A1A] (AR v2)
Track 11 accurately ripped (confidence 12) [2D9C22CD] (AR v2)
Track 12 accurately ripped (confidence 12) [3A0E6921] (AR v2)
Track 13 accurately ripped (confidence 12) [7C82B8A7] (AR v2)
Track 14 accurately ripped (confidence 12) [6A8D5C09] (AR v2)
Track 15 accurately ripped (confidence 12) [D9AA5DD3] (AR v2)
Track 16 accurately ripped (confidence 12) [45EA2B03] (AR v2)

All tracks accurately ripped

End of status report

–– CUETools DB Plugin V2.1.6

[CTDB TOCID: TzibabHPnQpwduBvVUOn3_UveUo-] found
Submit result: TzibabHPnQpwduBvVUOn3_UveUo- has been confirmed
Track | CTDB Status
1 | (16/16) Accurately ripped
2 | (16/16) Accurately ripped
3 | (16/16) Accurately ripped
4 | (16/16) Accurately ripped
5 | (16/16) Accurately ripped
6 | (16/16) Accurately ripped
7 | (16/16) Accurately ripped
8 | (16/16) Accurately ripped
9 | (16/16) Accurately ripped
10 | (16/16) Accurately ripped
11 | (16/16) Accurately ripped
12 | (16/16) Accurately ripped
13 | (16/16) Accurately ripped
14 | (16/16) Accurately ripped
15 | (16/16) Accurately ripped
16 | (16/16) Accurately ripped


==== Log checksum 49075B31A07996C0C56C15D6F3D65CC6E9D37C237727A25C1F19262748254C71 ====

foobar2000 1.2.6 / Dynamic Range Meter 1.1.1
log date: 2017-03-12 17:01:52

––––––––––––––––––––––––––––––––––––––––
Analyzed: Eric Clapton / with Yardbirds and Jimmy Page
––––––––––––––––––––––––––––––––––––––––

DR Peak RMS Duration Track
––––––––––––––––––––––––––––––––––––––––
DR10 -2.15 dB -14.48 dB 2:30 01-Snake Drive
DR8 -3.61 dB -13.46 dB 2:10 02-Tribute to Elmore
DR8 -3.14 dB -13.15 dB 2:20 03-West Coast Idea
DR12 -0.21 dB -13.57 dB 3:06 04-Draggin' My Tail
DR8 -3.21 dB -13.22 dB 2:50 05-Freight Loader
DR12 -0.14 dB -14.44 dB 1:26 06-Choker
DR7 -4.23 dB -14.19 dB 2:28 07-Miles Road
DR12 -1.20 dB -15.15 dB 3:52 08-Little Red Rooster
DR12 -0.75 dB -14.12 dB 2:45 09-Highway 49
DR13 -0.14 dB -14.20 dB 4:24 10-Wang-Dang-Doodle
DR14 -0.14 dB -18.43 dB 5:13 11-23 Hours Too Long
DR15 -0.26 dB -17.85 dB 3:11 12-Out On The Water Coast
DR13 -0.37 dB -15.54 dB 2:28 13-Boom Boom
DR11 -1.47 dB -14.60 dB 2:02 14-I Ain't Got You
DR13 -0.30 dB -14.86 dB 2:19 15-Honey In Your Hips
DR11 -0.14 dB -13.45 dB 3:52 16-Too Much Monkey Business
––––––––––––––––––––––––––––––––––––––––

Number of tracks: 16
Official DR value: DR11

Samplerate: 44100 Hz
Channels: 2
Bits per sample: 16
Bitrate: 636 kbps
Codec: WavPack
================================================================================

[CUETools log; Date: 13.03.2017 19:11:31; Version: 2.1.5]
[CTDB TOCID: TzibabHPnQpwduBvVUOn3_UveUo-] found.
Track | CTDB Status
1 | (20/20) Accurately ripped
2 | (20/20) Accurately ripped
3 | (20/20) Accurately ripped
4 | (20/20) Accurately ripped
5 | (20/20) Accurately ripped
6 | (20/20) Accurately ripped
7 | (20/20) Accurately ripped
8 | (20/20) Accurately ripped
9 | (20/20) Accurately ripped
10 | (20/20) Accurately ripped
11 | (20/20) Accurately ripped
12 | (20/20) Accurately ripped
13 | (20/20) Accurately ripped
14 | (20/20) Accurately ripped
15 | (20/20) Accurately ripped
16 | (20/20) Accurately ripped
[AccurateRip ID: 001a0a42-013eff4a-d80b0010] found.
Track [ CRC | V2 ] Status
01 [de0c0601|35bca931] (10+12/22) Accurately ripped
02 [02e4d0e3|87198df4] (10+12/22) Accurately ripped
03 [57fba779|91104742] (10+12/22) Accurately ripped
04 [209a8e6a|6d599af5] (10+12/22) Accurately ripped
05 [feebac32|6f8d06da] (09+12/21) Accurately ripped
06 [21c0d949|1956e956] (10+12/22) Accurately ripped
07 [3c555140|1a3c7df3] (10+12/22) Accurately ripped
08 [b4d15bab|b85cee37] (10+12/22) Accurately ripped
09 [973929dc|b69ad39a] (10+12/22) Accurately ripped
10 [7011a01d|70e88a1a] (09+12/21) Accurately ripped
11 [fb61f39c|2d9c22cd] (10+12/22) Accurately ripped
12 [9df59462|3a0e6921] (10+12/22) Accurately ripped
13 [aa221c93|7c82b8a7] (10+12/22) Accurately ripped
14 [ffd6228d|6a8d5c09] (10+12/22) Accurately ripped
15 [f8ef43e3|d9aa5dd3] (10+12/22) Accurately ripped
16 [09f325e9|45ea2b03] (10+12/22) Accurately ripped

Track Peak [ CRC32 ] [W/O NULL] [ LOG ]
– 98,4 [A0043874] [56834DEB] CRC32
01 78,1 [6BF48E1C] [E9C9E78F]
02 65,9 [C95E1934] [10921ED5]
03 69,6 [E457C5B7] [2763798E]
04 97,6 [5F31998E] [F2603B03]
05 69,1 [A93D4A52] [C1B2497E]
06 98,4 [7FFA6867] [C40F6D37]
07 61,4 [05C152DF] [E5E6C492]
08 87,0 [96F42E6F] [3EC5B95A]
09 91,7 [4DFCC0D8] [316E7313]
10 98,4 [7D5A7E3F] [DF6C2E8D]
11 98,4 [EC357E56] [1D99C363]
12 97,0 [99E4060F] [3D6D9FB6]
13 95,8 [7DE3435C] [7D683778]
14 84,3 [BF4FEBEB] [7498F6B5]
15 96,5 [779C86B2] [0B8A260B]
16 98,4 [C9DA0228] [E83F19FC]

Eric Clapton - Eric Clapton With Yardbirds And Jimmy Page (1994)

Eric Clapton - Eric Clapton With Yardbirds And Jimmy Page (1994)

All thanks go to edenika

> Eric Clapton in my blog <