Subcategories

Eric Clapton With Mark Knopfler And Elton John - Live In Japan (2000)

Posted By: ciklon5
Eric Clapton With Mark Knopfler And Elton John - Live In Japan (2000)

Eric Clapton With Mark Knopfler And Elton John - Live In Japan (2000)
FLAC (track+cue+log) | 01:18:21 | 480 Mb
Genre: Blues Rock, Pop Rock, Soft Rock / Label: Usa Records

Eric Clapton with Mark Knopfler and Elton John live in Japan - CD Rock brings you a fantastic show with legendary artists Eric Clapton, Mark Knopfler and Elton John performing live at the Tokyo Dome in Japan with everything recorded in high quality audio to You can have fun anytime! Enjoy this epic show with some of the greatest hits by Eric Clapton and Elton John along with the incredible sound of Mark Knopfler's guitar makes this a must-see show for fans of these artists and classic rock! Do not miss it!

Track List:

1 Crossroads 6:13
2 White Room 6:33
3 I Shot the Sheriff 8:27
4 Lay Down Sally 6:21
5 Wonderful Tonight 7:35
6 Tearing Us Apart 7:19
7 Candle In The Wind 4:09
8 I Guess That's Why They Call It The Blues 4:41
9 I Don't Wanna Go On With You Like That 5:43
10 Daniel 4:04
11 Cocaine 6:42
12 Layla 10:33

Exact Audio Copy V1.0 beta 3 from 29. August 2011

EAC extraction logfile from 16. December 2013, 9:13

Eric Clapton Whit Mark Knopfler and Elton John / Live In Japan

Used drive : HL-DT-STDVDRAM GSA-T40N Adapter: 0 ID: 0

Read mode : Secure
Utilize accurate stream : Yes
Defeat audio cache : Yes
Make use of C2 pointers : No

Read offset correction : 667
Overread into Lead-In and Lead-Out : No
Fill up missing offset samples with silence : Yes
Delete leading and trailing silent blocks : No
Null samples used in CRC calculations : Yes
Used interface : Native Win32 interface for Win NT & 2000
Gap handling : Appended to previous trac

Exact Audio Copy V1.0 beta 3 from 29. August 2011

EAC extraction logfile from 22. December 2013, 10:30

Eric Clapton Whit Mark Knopfler and Elton John / Live In Japan

Used drive : HL-DT-STDVDRAM GSA-T40N Adapter: 0 ID: 0

Read mode : Secure
Utilize accurate stream : Yes
Defeat audio cache : Yes
Make use of C2 pointers : No

Read offset correction : 667
Overread into Lead-In and Lead-Out : No
Fill up missing offset samples with silence : Yes
Delete leading and trailing silent blocks : No
Null samples used in CRC calculations : Yes
Used interface : Native Win32 interface for Win NT & 2000
Gap handling : Appended to previous track

Used output format : User Defined Encoder
Selected bitrate : 896 kBit/s
Quality : High
Add ID3 tag : No
Command line compressor : C:\Program Files\Exact Audio Copy\FLAC\FLAC.EXE
Additional command line options : -8 -V -T "ARTIST=%artist%" -T "TITLE=%title%" -T "ALBUM=%albumtitle%" -T "DATE=%year%" -T "TRACKNUMBER=%tracknr%" -T "GENRE=%genre%" -T "COMMENT=%comment%" -T "BAND=%albuminterpret%" -T "ALBUMARTIST=%albuminterpret%" -T "COMPOSER=%composer%" %haslyrics%–tag-from-file=LYRICS="%lyricsfile%"%haslyrics% -T "DISCNUMBER=%cdnumber%" -T "TOTALDISCS=%totalcds%" -T "TOTALTRACKS=%numtracks%" %hascover%–picture="%coverfile%"%hascover% %source% -o %dest%


TOC of the extracted CD

Track | Start | Length | Start sector | End sector
––––––––––––––––––––––––––––-
1 | 0:00.00 | 6:13.44 | 0 | 28018
2 | 6:13.44 | 6:33.02 | 28019 | 57495
3 | 12:46.46 | 8:27.49 | 57496 | 95569
4 | 21:14.20 | 6:21.00 | 95570 | 124144
5 | 27:35.20 | 7:35.39 | 124145 | 158308
6 | 35:10.59 | 7:19.49 | 158309 | 191282
7 | 42:30.33 | 4:09.03 | 191283 | 209960
8 | 46:39.36 | 4:41.30 | 209961 | 231065
9 | 51:20.66 | 5:43.15 | 231066 | 256805
10 | 57:04.06 | 4:04.45 | 256806 | 275150
11 | 61:08.51 | 6:42.13 | 275151 | 305313
12 | 67:50.64 | 10:33.70 | 305314 | 352858


Track 1

Filename H:\MY EAC[.FLAC]\Eric Clapton Mark Knopfler Elton John - Live in Japan\(1) Crossroads - Eric Clapton Whit Mark Knopfler and Elton John.flac

Pre-gap length 0:00:02.00

Peak level 89.2 %
Extraction speed 0.6 X
Track quality 100.0 %
Test CRC CCABAE10
Copy CRC CCABAE10
Track not present in AccurateRip database
Copy OK

Track 2

Filename H:\MY EAC[.FLAC]\Eric Clapton Mark Knopfler Elton John - Live in Japan\(2) White Room - Eric Clapton Whit Mark Knopfler and Elton John.flac

Peak level 93.3 %
Extraction speed 0.5 X
Track quality 100.0 %
Test CRC 5A8AC54D
Copy CRC 5A8AC54D
Track not present in AccurateRip database
Copy OK

Track 3

Filename H:\MY EAC[.FLAC]\Eric Clapton Mark Knopfler Elton John - Live in Japan\(3) I Shot the Sheriff - Eric Clapton Whit Mark Knopfler and Elton John.flac

Peak level 92.9 %
Extraction speed 2.1 X
Track quality 100.0 %
Test CRC 06498DC0
Copy CRC 06498DC0
Track not present in AccurateRip database
Copy OK

Track 4

Filename H:\MY EAC[.FLAC]\Eric Clapton Mark Knopfler Elton John - Live in Japan\(4) Lay Down Sally - Eric Clapton Whit Mark Knopfler and Elton John.flac

Peak level 97.2 %
Extraction speed 2.2 X
Track quality 100.0 %
Test CRC 9D6E10A6
Copy CRC 9D6E10A6
Track not present in AccurateRip database
Copy OK

Track 5

Filename H:\MY EAC[.FLAC]\Eric Clapton Mark Knopfler Elton John - Live in Japan\(5) Wonderful Tonight - Eric Clapton Whit Mark Knopfler and Elton John.flac

Peak level 95.2 %
Extraction speed 2.1 X
Track quality 99.9 %
Test CRC AD679D24
Copy CRC AD679D24
Track not present in AccurateRip database
Copy OK

Track 6

Filename H:\MY EAC[.FLAC]\Eric Clapton Mark Knopfler Elton John - Live in Japan\(6) Tearing Us Aparty - Eric Clapton Whit Mark Knopfler and Elton John.flac

Peak level 100.0 %
Extraction speed 2.6 X
Track quality 100.0 %
Test CRC 6125C623
Copy CRC 6125C623
Track not present in AccurateRip database
Copy OK

Track 7

Filename H:\MY EAC[.FLAC]\Eric Clapton Mark Knopfler Elton John - Live in Japan\(7) Candle in the Wind - Eric Clapton Whit Mark Knopfler and Elton John.flac

Peak level 80.7 %
Extraction speed 2.4 X
Track quality 100.0 %
Test CRC 0A4CC526
Copy CRC 0A4CC526
Track not present in AccurateRip database
Copy OK

Track 8

Filename H:\MY EAC[.FLAC]\Eric Clapton Mark Knopfler Elton John - Live in Japan\(8) I Guess That s Why They Call It The Blues - Eric Clapton Whit Mark Knopfler and Elton John.flac

Peak level 86.2 %
Extraction speed 2.4 X
Track quality 100.0 %
Test CRC 30A85F85
Copy CRC 30A85F85
Track not present in AccurateRip database
Copy OK

Track 9

Filename H:\MY EAC[.FLAC]\Eric Clapton Mark Knopfler Elton John - Live in Japan\(9) I Don t Wanna Go On With You Like That - Eric Clapton Whit Mark Knopfler and Elton John.flac

Peak level 91.8 %
Extraction speed 2.5 X
Track quality 100.0 %
Test CRC 33194857
Copy CRC 33194857
Track not present in AccurateRip database
Copy OK

Track 10

Filename H:\MY EAC[.FLAC]\Eric Clapton Mark Knopfler Elton John - Live in Japan\(10) Daniel - Eric Clapton Whit Mark Knopfler and Elton John.flac

Peak level 86.5 %
Extraction speed 2.4 X
Track quality 100.0 %
Test CRC C313B7C6
Copy CRC C313B7C6
Track not present in AccurateRip database
Copy OK

Track 11

Filename H:\MY EAC[.FLAC]\Eric Clapton Mark Knopfler Elton John - Live in Japan\(11) Cocaine - Eric Clapton Whit Mark Knopfler and Elton John.flac

Peak level 93.4 %
Extraction speed 2.9 X
Track quality 100.0 %
Test CRC 50EA166B
Copy CRC 50EA166B
Track not present in AccurateRip database
Copy OK

Track 12

Filename H:\MY EAC[.FLAC]\Eric Clapton Mark Knopfler Elton John - Live in Japan\(12) Layla - Eric Clapton Whit Mark Knopfler and Elton John.flac

Peak level 100.0 %
Extraction speed 2.2 X
Track quality 100.0 %
Test CRC 3C38AC74
Copy CRC 3C38AC74
Track not present in AccurateRip database
Copy OK


None of the tracks are present in the AccurateRip database

No errors occurred

End of status report

==== Log checksum 8D62F0E02EC5B6B83EB6FAD62AC5E07FCC048F515D542448C749CE50A07ED63E ====